#TITLE:THE ADVENTURES;
#SUBTITLE:;
#ARTIST:Mutsuhiko Izumi;
#TITLETRANSLIT:;
#SUBTITLETRANSLIT:;
#ARTISTTRANSLIT:;
#GENRE:;
#CREDIT:;
#BANNER:THE ADVENTURES-bn.png;
#BACKGROUND:THE ADVENTURES-bg.png;
#LYRICSPATH:;
#CDTITLE:;
#MUSIC:THE ADVENTURES.ogg;
#OFFSET:-0.100000;
#SAMPLESTART:2.765000;
#SAMPLELENGTH:20.000000;
#SELECTABLE:YES;
#DISPLAYBPM:180.000000;
#BPMS:0.000000=180.100006
;
#STOPS:
;
#BGCHANGES:;
#KEYSOUNDS:;
#ATTACKS:;

//---------------dance-single - ----------------
#NOTES:
     dance-single:
     :
     Hard:
     13:
     0.717668,0.811163,0.368710,0.207400,0.086416,436.000000,404.000000,32.000000,18.000000,0.000000,0.000000,0.717668,0.811163,0.368710,0.207400,0.086416,436.000000,404.000000,32.000000,18.000000,0.000000,0.000000:
0000
0000
0000
0000
,
0000
0000
0000
0000
,
1000
0010
0001
0100
0000
0010
1000
0001
,
0010
0100
1000
0001
0000
0100
0010
0100
,
0010
1000
0100
0001
0000
1000
0001
0100
,
0001
0010
0100
1000
0000
0010
1000
0001
,
0100
0010
0100
0001
0000
1000
0001
0010
,
0001
1000
0100
0010
0000
0010
0001
1000
,
0001
0010
1000
0100
0000
0100
1000
0010
,
0100
0010
1000
0001
0000
0010
0100
1000
,
0001
0100
0010
0100
0000
0001
0010
0100
,
1000
0010
1000
0001
0000
0100
0010
1000
,
0001
0010
0001
1000
0000
1000
0100
0010
,
0001
0000
1000
0000
1000
0000
0001
0000
0001
0000
1000
0000
0100
0010
0100
0010
,
0200
2300
3020
2030
,
3002
0000
0013
0100
0000
0100
1100
0000
,
0101
0000
1000
1001
0000
0010
0100
0000
,
0002
0000
2003
0000
3001
0010
0011
0000
,
1100
0010
1000
0001
,
1000
0000
0100
0000
0010
0001
0101
0000
,
1010
0000
0010
0110
0000
0001
1000
0000
,
0200
0000
0320
0000
0031
0100
0101
0000
,
1100
0000
0001
0011
0000
0100
0110
0000
,
1001
0000
1000
1100
0000
0001
0011
0000
,
1010
0000
0010
0110
0000
0001
1000
0000
,
0001
0100
0001
0100
0001
0000
0010
0000
1000
0100
1000
0100
1000
0000
0010
0000
,
0200
0000
0301
1000
0000
1000
0100
0010
,
0002
0000
1003
0001
0000
1000
0100
0010
,
0002
0000
0023
0000
0031
0100
1000
0000
,
1100
0000
1001
0000
0010
0100
0002
0000
,
1003
0010
0100
0010
0001
0010
1000
0100
,
0010
0000
0010
0000
0010
0001
1000
0001
,
0100
0010
0100
0001
0100
1000
0100
0001
,
0010
1000
0010
0100
0010
0001
0100
0010
,
1000
0100
1000
0001
0000
0100
0100
0000
,
0010
1000
0001
0010
0000
0100
0100
0000
,
1000
0000
0001
0000
1000
0000
0010
0000
0100
0001
0100
0000
0010
0000
0100
0000
,
0001
1000
0001
0000
0010
0000
0100
0000
1000
0000
0001
0100
0001
0000
1000
0000
,
0010
1000
0100
0001
0000
1000
0001
0010
,
0100
1000
0010
0100
0000
0001
0010
0100
,
1000
0001
1000
0010
0000
1000
0100
0001
,
0010
0100
0010
0001
0000
1000
0001
0100
,
0010
1000
0010
1000
0000
0001
0010
0100
,
1000
0010
0001
1000
0000
0100
1000
0001
,
0010
0100
0010
0001
0000
1000
0100
1000
,
0100
1000
0010
0100
0000
0001
0010
1000
,
0100
0010
0001
0100
0000
0100
0010
1000
,
0001
1000
0100
0010
0000
0001
0100
1000
,
0010
1000
0001
0010
0000
0100
1000
0001
,
0100
0000
0001
0000
0001
0000
1000
0000
1000
0000
0001
0000
0010
0100
0010
0000
,
1001
0000
0100
0001
0000
0100
1000
0000
,
0100
0001
0000
1000
0010
0100
0110
0000
,
0101
0000
1000
1100
0000
0001
0100
0000
,
0010
1000
0010
1000
0010
0000
0100
0000
0001
0010
0001
0010
0001
0000
1000
0000
,
0010
0000
0100
0001
0000
1000
1000
0001
,
0010
0100
1000
0001
0000
0100
0010
0100
,
0001
0010
1000
0001
0100
1000
0001
0010
,
1000
0000
0001
0000
0100
0000
1000
0000
0001
0010
0001
0000
1000
0000
0100
0000
,
0010
0001
1000
0020
0000
0130
0001
0000
,
1000
0001
0010
0200
0000
1300
0010
0000
,
0110
0110
0110
0000
1001
1001
1001
0000
,
0010
0010
0100
0100
0000
0101
0000
1100
,
0202
0000
0000
0000
,
0000
0000
0000
0000
,
0303
0000
0000
0000
;

//---------------dance-single - ----------------
#NOTES:
     dance-single:
     :
     Medium:
     9:
     0.511915,0.516194,0.265011,0.207400,0.000000,311.000000,288.000000,23.000000,18.000000,0.000000,0.000000,0.511915,0.516194,0.265011,0.207400,0.000000,311.000000,288.000000,23.000000,18.000000,0.000000,0.000000:
0000
0000
0000
0000
,
0000
0000
0000
0000
,
0001
0000
0010
0100
0000
0000
1000
0001
,
1000
0000
0010
0100
0000
0000
0001
0010
,
0001
0000
0010
0100
0000
0000
1000
0001
,
1000
0000
0001
0100
0000
0000
0100
0001
,
0100
0000
0001
0010
0000
0000
0100
1000
,
0100
0000
1000
0001
0000
0000
0010
0100
,
0010
0000
0001
1000
0000
0000
0001
0100
,
0001
0000
1000
0100
0000
0000
1000
0010
,
1000
0000
0001
0010
0000
0000
0100
0010
,
0100
0000
0010
0001
0000
0000
1000
0010
,
1000
0000
0100
1000
0000
0001
0100
0000
,
0010
0000
1000
0001
1000
0000
0100
0010
,
0002
0100
0100
0100
,
0100
0100
0103
0101
,
1100
0000
0000
1001
0000
0010
0200
0000
,
0001
1000
0301
0011
,
2100
0001
0001
0001
,
0001
0001
3001
0101
,
1010
0000
0000
0110
0000
0010
0200
0000
,
0001
1000
0301
1010
,
0011
0000
0000
1001
0000
0000
0101
0000
,
1010
0000
0000
0110
0000
0000
1001
0000
,
1100
0000
0000
1010
0000
0000
0000
0000
,
0001
1000
0001
1000
0001
1000
0001
0000
,
0100
0000
0010
1000
0000
0010
1000
0000
,
0100
0000
0010
0001
0000
0010
0001
0000
,
2000
3002
0023
0230
,
2300
3020
0230
0302
,
0013
0100
0010
0000
0001
1000
0001
0000
,
0100
0000
0100
0000
0001
1000
0001
0000
,
0010
0000
0001
1000
0100
0000
0100
0010
,
0001
0000
1000
0001
0100
0000
0010
1000
,
0100
0000
0100
0010
0000
0001
1000
0000
,
0010
0000
0010
0100
0000
0001
1000
0000
,
0010
1000
0001
0000
0010
0100
1000
0000
,
0001
0100
0001
0100
0001
0100
0001
0000
,
0010
0000
0001
1000
0000
0000
0001
0100
,
0010
0000
1000
0100
0000
0000
0100
0010
,
0100
0000
1000
0001
0000
0000
0010
0001
,
0100
0000
0010
1000
0000
0000
0001
0010
,
0001
0000
1000
0010
0000
0000
0100
0001
,
1000
0000
0100
0010
0000
0000
0010
0100
,
1000
0000
0001
0010
0000
0000
0001
1000
,
0010
0000
1000
0100
0000
0000
1000
0001
,
0100
0000
0100
0010
0000
0000
1000
0001
,
0010
0000
0001
0100
0000
0000
0010
1000
,
0100
0000
1000
0001
0000
1000
0010
0000
,
0100
0000
0001
0010
0001
0000
1000
0000
,
1001
0000
0000
0100
0000
0000
0100
0000
,
0010
0100
0000
0010
0100
0000
0101
0000
,
1100
0000
0000
0011
0000
0000
0000
0000
,
1000
0010
1000
0010
1000
0010
1000
0000
,
0001
0000
0010
0200
0000
0000
1300
0000
,
0001
0100
0000
0002
0000
0000
1003
0000
,
0010
0000
1000
0001
0000
1000
0100
0000
,
0010
0001
0000
0010
0100
0000
1000
0001
,
1000
0000
0010
0200
0000
0301
0000
0000
,
1000
0001
0000
0020
0000
0130
0000
0000
,
1000
1000
1000
0000
0001
0001
0001
0000
,
1000
0010
0100
0001
0000
0011
0000
0000
,
2200
0000
0000
0000
,
0000
0000
0000
0000
,
3300
0000
0000
0000
;

//---------------dance-single - ----------------
#NOTES:
     dance-single:
     :
     Easy:
     6:
     0.279825,0.479323,0.172833,0.138266,0.000000,170.000000,155.000000,15.000000,12.000000,0.000000,0.000000,0.279825,0.479323,0.172833,0.138266,0.000000,170.000000,155.000000,15.000000,12.000000,0.000000,0.000000:
0000
0000
0000
0000
,
0000
0000
0000
0000
,
1000
0000
0010
0000
,
0100
0000
0001
0000
,
0010
0000
0100
0000
,
1000
0000
0001
0000
,
0010
0000
0001
0000
,
1000
0000
0100
0000
,
0010
0000
0001
0000
,
0100
0000
0001
0000
,
0100
0000
0010
0000
,
1000
0000
0001
0000
,
1000
0000
0010
0000
,
1000
0100
1000
0100
,
1001
0000
0000
0000
,
0000
0000
0000
0001
,
0101
0000
0000
1100
0000
0000
0000
0000
,
0000
0000
0000
0010
,
0110
0000
0000
0000
,
0000
0000
0000
1000
,
1010
0000
0000
0011
0000
0000
0000
0000
,
0000
0000
0000
1000
,
0001
0000
0000
0001
0000
0000
0001
0000
,
0100
0000
0000
0100
0000
0000
0100
0000
,
0010
0000
0000
0100
0000
0000
0000
0000
,
0002
0023
0230
2300
,
3001
0010
0001
0010
,
0100
1000
0100
1000
,
0010
1000
0010
1000
,
0001
0100
0001
0100
,
0001
0001
1000
1000
,
0001
0001
1000
1000
,
0010
1000
0010
0100
,
0001
0010
0100
1000
,
0001
0100
0010
0010
,
1000
0100
0010
0010
,
0001
1000
0010
0100
,
0220
0000
0000
0330
,
0001
0000
1000
0000
,
0001
0000
1000
0000
,
0100
0000
0010
0000
,
0100
0000
0010
0000
,
0001
0000
0100
0000
,
0010
0000
1000
0000
,
0100
0000
1000
0000
,
0001
0000
0010
0000
,
0100
0000
0100
0000
,
0010
0000
0010
0000
,
0001
0000
1000
0000
,
0001
0100
0001
0100
,
1001
0000
0000
1000
0000
0000
0001
0000
,
0000
0010
0000
0000
0100
0000
0100
0000
,
1100
0000
0000
0011
0000
0000
0000
0000
,
2000
3002
2003
3002
,
0013
0000
0000
0010
0000
0000
0000
0000
,
0001
0000
0000
0001
0000
0000
0000
0000
,
1000
0010
1000
0100
,
0010
0001
0100
0001
,
1000
0000
0000
1000
0000
0000
0000
0000
,
0001
0000
0000
0001
0000
0000
0000
0000
,
0101
0101
1100
1100
,
0001
0000
0000
0100
0000
0010
0000
0000
,
2002
0000
0000
0000
,
0000
0000
0000
0000
,
3003
0000
0000
0000
;

//---------------dance-single - ----------------
#NOTES:
     dance-single:
     :
     Beginner:
     3:
     0.136620,0.214313,0.034567,0.000000,0.000000,83.000000,80.000000,3.000000,0.000000,0.000000,0.000000,0.136620,0.214313,0.034567,0.000000,0.000000,83.000000,80.000000,3.000000,0.000000,0.000000,0.000000:
// measure 0
0000
0000
0000
0000
,  // measure 1
0000
0000
0000
0000
,  // measure 2
0100
0000
0000
0000
,  // measure 3
0010
0000
0000
0000
,  // measure 4
0100
0000
0000
0000
,  // measure 5
0001
0000
0000
0000
,  // measure 6
0010
0000
0000
0000
,  // measure 7
0100
0000
0000
0000
,  // measure 8
1000
0000
0000
0000
,  // measure 9
1000
0000
0000
0000
,  // measure 10
0001
0000
0000
0000
,  // measure 11
0100
0000
0000
0000
,  // measure 12
0010
0000
0000
0000
,  // measure 13
1000
0000
0000
0000
,  // measure 14
1001
0000
0000
0000
,  // measure 15
0000
0000
0000
1000
,  // measure 16
1000
0000
0001
0000
,  // measure 17
0000
0000
0000
0100
,  // measure 18
0100
0000
0000
0000
,  // measure 19
0000
0000
0000
0001
,  // measure 20
0001
0000
1000
0000
,  // measure 21
0000
0000
0000
0010
,  // measure 22
0010
0000
0000
0100
,  // measure 23
0100
0000
0000
0010
,  // measure 24
0010
0000
1000
0000
,  // measure 25
0001
0000
0000
0000
,  // measure 26
0010
0000
0000
0000
,  // measure 27
0010
0000
0000
0000
,  // measure 28
0001
0000
0001
0000
,  // measure 29
1000
0000
1000
0000
,  // measure 30
0010
0000
1000
0000
,  // measure 31
0010
0000
0100
0000
,  // measure 32
0001
0000
0001
0000
,  // measure 33
0001
0000
0001
0000
,  // measure 34
1000
0000
0000
0000
,  // measure 35
0001
0000
0000
0000
,  // measure 36
0100
0000
0100
0000
,  // measure 37
0100
0000
0000
0000
,  // measure 38
0001
0000
0000
0000
,  // measure 39
0010
0000
0000
0000
,  // measure 40
0001
0000
0000
0000
,  // measure 41
1000
0000
0000
0000
,  // measure 42
0100
0000
0000
0000
,  // measure 43
0010
0000
0000
0000
,  // measure 44
0001
0000
0000
0000
,  // measure 45
0100
0000
0000
0000
,  // measure 46
0010
0000
0000
0000
,  // measure 47
1000
0000
0000
0000
,  // measure 48
0001
0000
0000
0000
,  // measure 49
1000
0000
0000
0000
,  // measure 50
1001
0000
0000
0000
,  // measure 51
0000
0000
0000
0001
,  // measure 52
0001
0000
0100
0000
,  // measure 53
0010
0000
0000
0000
,  // measure 54
1000
0000
0010
0000
,  // measure 55
1000
0000
0001
0000
,  // measure 56
0100
0000
0100
0000
,  // measure 57
0100
0000
0010
0000
,  // measure 58
0100
0000
0000
0000
,  // measure 59
0001
0000
0000
0000
,  // measure 60
1000
0000
0001
0000
,  // measure 61
1000
0000
0010
0000
,  // measure 62
0110
0000
0000
0000
;
