#TITLE:THE 7 JUMP;
#ARTIST:KEN D;
#BANNER:THE 7 JUMP.png;
#BACKGROUND:THE 7 JUMP-bg.png;
#JACKET:THE 7 JUMP-jacket.png;
#MUSIC:THE 7 JUMP.ogg;
#SAMPLESTART:60.918;
#SAMPLELENGTH:20;
#DISPLAYBPM:138;
#BPMS:0=137.891;
#BGCHANGES:;

//---------------dance-single - ----------------
#NOTES:
     dance-single:
     :
     Beginner:
     2:
     :
0000
0000
0000
0000
,
0000
0000
0000
0000
,
0000
0000
0000
0000
,
0000
0000
0000
0000
,
0010
0000
0000
0000
,
0010
0000
0000
0000
,
0010
0000
0000
0000
,
1000
0000
0000
0000
,
0001
0000
0100
0000
,
0001
0000
0000
0000
,
0010
0000
0100
0000
,
1000
0000
0000
0000
,
1000
0000
0100
0000
,
1000
0000
0001
0000
,
0000
0000
0000
0000
,
1001
0000
0100
0000
,
0100
0000
0000
0000
,
0010
0000
1000
0000
,
0001
0000
0110
0000
,
1000
0000
0001
0000
,
0010
0000
0000
0000
,
0001
0000
0100
0000
,
1000
0000
1001
0000
,
0010
0000
0010
0000
,
1000
0000
0000
0000
,
0001
0000
0001
0000
,
0010
0000
0000
0000
,
1000
0000
0000
0000
,
0001
0000
0000
0000
,
1000
0000
0000
0000
,
0010
0000
0000
0000
,
0100
0000
0000
0000
,
0001
0000
0000
0000
,
0010
0000
0100
0000
,
0110
0000
1001
0000
,
0100
0000
0010
0000
,
1000
0000
0000
0000
,
0100
0000
0010
0000
,
0001
0000
1001
0000
,
0010
0000
0010
0000
,
0010
0000
0000
0000
,
0100
0000
0100
0000
,
0100
0000
0000
0000
,
1000
0000
0000
0000
,
0001
0000
0000
0000
,
1000
0000
0000
0000
,
0010
0000
0000
0000
,
0100
0000
0000
0000
,
0001
0000
0000
0000
,
0100
0000
0100
0000
,
0110
0000
0000
0000
;

//---------------dance-single - ----------------
#NOTES:
     dance-single:
     :
     Easy:
     4:
     :
0000
0000
0000
0000
,
0000
0000
0000
0000
,
0000
0000
0000
0000
,
0000
0000
0000
0000
,
1000
0000
0000
0000
,
0001
0000
0000
0000
,
1000
0000
0000
0000
,
0001
0000
0001
0000
,
1000
0000
1000
0000
,
0010
0000
0010
0000
,
0100
0000
0100
0000
,
0001
0000
1000
0000
,
0010
0000
0100
0000
,
0001
0000
1000
0000
,
0000
0000
0000
0000
,
0001
0001
0001
0000
,
1000
0000
0000
0000
,
0001
0001
0001
0000
,
1000
0000
0000
0000
,
0010
0000
0100
0000
,
0001
0001
1000
0000
,
0100
0000
0010
0000
,
0001
0001
1001
0000
,
0001
0000
0010
0000
,
0100
0000
1000
0000
,
0100
0000
0010
0000
,
0001
0000
0010
0000
,
0001
0000
0000
1000
,
1000
0000
0000
0000
,
0001
0000
0000
0001
,
1000
0000
0000
0000
,
0100
0000
0000
0010
,
1001
0000
0000
0000
,
0100
0000
0010
0000
,
0001
0000
0000
0000
,
0010
0000
0100
0000
,
1000
1000
0001
0000
,
0100
0000
0010
0000
,
1000
1000
1001
0000
,
1000
0000
0010
0000
,
0100
0000
0001
0000
,
0010
0000
0100
0000
,
1000
0000
0010
0000
,
1000
0000
0000
0001
,
0001
0000
0000
0000
,
1000
0000
0000
1000
,
0001
0000
0000
0000
,
0100
0000
0000
0010
,
1001
0000
0000
0000
,
0100
0000
0001
0000
,
1001
0000
0000
0000
;

//---------------dance-single - ----------------
#NOTES:
     dance-single:
     :
     Medium:
     6:
     :
0000
0000
0000
0000
,
0000
0000
0000
0000
,
0000
0000
0000
0000
,
0000
0000
0000
0000
,
1000
0000
0001
0000
,
1000
0000
0001
0000
,
1000
0000
0001
0000
,
0100
0100
0001
0000
,
1000
1000
0010
0000
,
0100
0100
0001
0000
,
0010
0010
0100
0000
,
1000
0100
0010
0000
,
0001
1000
0100
0000
,
0010
0001
1000
0000
,
0100
0010
0001
0000
,
0001
1000
0001
0000
,
0001
0010
0100
1000
,
0001
1000
0001
0000
,
1000
0100
0010
0001
,
1001
1001
0001
0001
,
1000
0001
1000
0001
,
0110
0110
0100
0100
,
0010
0100
0010
0100
,
1000
1000
0001
1000
,
0001
0001
1000
0001
,
0100
0100
0010
0100
,
0010
0010
0100
0010
,
1001
0001
1000
0001
,
0110
0100
0010
0100
,
0011
0001
0010
0001
,
1001
1000
0001
1000
,
1100
0100
1000
0100
,
0110
0010
0100
0010
,
1000
0000
0001
0000
,
1001
0000
0000
0000
,
1001
1001
0001
0001
,
1000
0001
1000
0001
,
0110
0110
0100
0100
,
0010
0100
0010
0100
,
1000
1000
0001
1000
,
0001
0001
1000
0001
,
0100
0100
0010
0100
,
0010
0010
0100
0010
,
1001
0001
1000
0001
,
0110
0100
0010
0100
,
0011
0001
0010
0001
,
1001
1000
0001
1000
,
1100
0100
1000
0100
,
0110
0010
0100
0010
,
1000
0000
0001
0000
,
1001
0000
0000
0000
;

//---------------dance-single - ----------------
#NOTES:
     dance-single:
     :
     Hard:
     8:
     :
0000
0000
0000
0000
,
0000
0000
0000
0000
,
0000
0000
0000
0000
,
0000
0000
0000
0000
,
0000
0000
0000
0000
0000
0001
0000
1000
,
0001
1000
0000
0000
0000
0001
0000
1000
,
0001
1000
0000
0000
0000
0000
0000
0000
,
0010
0000
0000
0000
0000
0100
0010
0100
,
0001
1000
0010
0100
,
0001
0000
0000
0000
0000
1000
0001
1000
,
0100
0010
0001
1000
,
0010
0000
0000
0000
0000
0000
0100
0010
,
0100
0010
1000
0001
,
1000
0000
0100
0000
,
0000
0000
0000
0000
0000
1000
0010
1000
,
0010
0000
1000
0000
1000
0000
0001
0100
,
0000
0000
0000
0000
0000
0001
1000
0001
,
1000
0000
0010
0000
0010
0000
1000
0100
,
0000
0000
1001
1001
,
0001
1000
0001
1000
0001
0000
0100
0100
,
0010
1000
0100
1001
,
0100
0010
0100
0010
0100
0000
0001
0001
,
1000
0100
1001
1001
,
1000
0001
0100
0000
1000
0100
0001
0000
,
1000
0001
0100
0000
,
0001
1000
0100
0000
0001
0100
1000
0000
,
0100
0000
0010
0000
0001
0000
1000
0010
,
1000
0000
0000
0000
0001
0000
0100
0010
,
0100
0000
0000
0000
0001
0000
1000
0001
,
1000
0000
0000
0000
0000
0001
0100
0001
,
0100
0000
0000
0000
0000
0000
0001
0010
,
0001
0000
0000
0100
,
1001
0000
0000
0000
0000
0000
0010
0001
,
0010
0000
0001
0000
,
0100
0000
0000
1001
,
0010
0001
1000
0100
0010
0000
0001
0001
,
1000
0100
0010
1001
,
0010
1000
0001
0100
0010
0000
1000
1000
,
0001
0100
1001
1001
,
0001
1000
0100
0000
0001
0100
1000
0000
,
0001
1000
0100
0000
,
1000
0001
0100
0000
1000
0100
0001
0000
,
0010
0000
0100
0000
1000
0000
0001
0100
,
0001
0000
0000
0000
1000
0000
0010
0100
,
0010
0000
0000
0000
1000
0000
0001
1000
,
0001
0000
0000
0000
0000
1000
0100
1000
,
0100
0000
0000
0000
0000
0000
0010
0001
,
0010
0000
0000
0100
,
1001
0000
0000
0000
0000
0000
0100
0001
,
0100
0000
0001
0000
,
0110
0000
0000
0000
;

//---------------dance-single - ----------------
#NOTES:
     dance-single:
     :
     Challenge:
     11:
     :
0000
0000
0000
0000
,
0000
0000
0000
0000
,
0000
0000
0000
0000
,
0000
0000
0000
0000
,
0010
0010
0100
0001
0000
1000
0100
1000
,
0001
0001
0010
0100
0000
1000
0010
0100
,
0010
0010
1000
0100
1000
0010
0001
0000
,
0100
0001
0010
0100
0000
1000
0010
1000
,
0002
0023
0230
2300
,
3010
0100
0010
1000
0000
1000
0100
0001
,
0020
0032
2003
3200
,
1300
0010
0100
0001
0000
0010
0001
0100
,
0020
2030
3002
0203
,
0302
0010
0013
0100
2000
0001
3001
0000
,
0200
0010
0310
1000
0002
0100
0103
0010
,
1001
0000
0010
0000
1000
0100
1000
0001
,
0010
0100
0010
0001
0100
0010
1000
0001
,
1000
0100
0010
0100
0001
0100
1000
0010
,
0100
0000
0001
1000
0000
0001
1000
0000
0110
0000
0000
0000
1001
0000
0000
0000
,
0010
0000
1000
0000
0100
0000
1000
0000
0001
0000
0000
0010
0001
0000
0100
0000
,
0010
0000
0000
1000
0100
0000
1000
0000
0002
0000
0000
0000
0203
0000
0000
0000
,
0310
0000
0100
0000
1000
0000
0100
0000
0001
0000
0000
0010
0001
0000
0100
0000
,
0010
0000
1000
0000
0101
0000
0000
1000
,
2000
0000
0000
0010
3000
0000
0100
0000
0002
0000
0000
1000
0003
0000
0010
0000
,
1000
0100
0001
0100
0010
0100
0001
0100
,
2000
0000
0000
0001
3000
0000
0100
0000
0020
0000
0000
1000
0030
0000
0100
0000
,
0010
1000
0010
0001
0100
0000
0010
1000
,
0100
0010
0001
0100
0010
0000
1000
0001
,
0010
0001
0100
0010
1000
0001
0100
0000
,
0100
1000
0010
0100
0000
0001
0001
1000
,
1000
0010
1000
0100
0010
0001
0100
0000
,
0010
1000
0100
0010
0001
0100
1000
0000
,
0001
0010
0001
0100
0010
1000
1000
0001
,
0020
0031
2000
3100
,
0010
0000
0001
1000
0000
0001
1000
0000
0100
0000
0000
0000
1001
0000
0000
0000
,
0010
0000
1000
0000
0100
0000
0010
0000
0001
0000
0000
0100
0001
0000
0010
0000
,
0100
0000
0000
1000
0010
0000
1000
0000
0200
0000
0000
0000
0320
0000
0000
0000
,
0031
0000
0100
0000
1000
0000
0100
0000
0001
0000
0000
1000
0010
0000
0100
0000
,
0010
0000
1000
0000
0101
0000
0000
1000
,
2000
0000
0000
0010
3000
0000
0100
0000
0002
0000
0000
0010
0003
0000
1000
0000
,
0100
0001
0100
1000
0010
0100
0001
1000
,
0020
0000
0000
1000
0030
0000
0001
0000
2000
0000
0000
0100
3000
0000
0010
0000
,
0001
0100
1000
0100
0001
0000
0010
0100
,
0010
0001
0100
0010
1000
0000
1000
0100
,
0001
0100
0010
0100
1000
0010
0001
0000
,
0001
0010
0001
1000
0000
0010
0010
0100
,
0100
0010
0100
0001
0010
0100
1000
0000
,
0010
1000
0100
0010
0001
0100
0010
0000
,
1000
0001
0010
0001
0000
0100
0100
0010
,
2000
3100
0002
0013
,
1001
0000
0000
0000
;

//---------------dance-double - ----------------
#NOTES:
     dance-double:
     :
     Easy:
     5:
     :
00000000
00000000
00000000
00000000
,
00000000
00000000
00000000
00000000
,
00000000
00000000
00000000
00000000
,
00000000
00000000
00000000
00000000
,
00010000
00000000
00000000
00000000
,
00001000
00000000
00000000
00000000
,
00010000
00000000
00000000
00000000
,
00001000
00000000
00000000
00000000
,
00010000
00010000
00010000
00000000
,
00000010
00000000
00000000
00000000
,
00001000
00001000
00001000
00000000
,
00000001
00000000
00000000
00000000
,
00000100
00000100
00000100
00000000
,
00000010
00000000
00000000
00000000
,
00000000
00000000
00000000
00000000
,
00010000
00000000
00001000
00000000
,
00010000
00000000
00000000
00000000
,
00001000
00000000
00100000
00000000
,
00010000
00000000
00000000
00000000
,
10000000
00010000
10000000
00000000
,
00100000
00000000
01000000
00000000
,
00001000
00010000
00001000
00000000
,
00010000
00000000
00000100
00000000
,
00001000
00000000
00000010
00000000
,
00001000
00000000
00000100
00000000
,
00010000
00000000
00001000
00000000
,
00010000
00000000
00001000
00000000
,
00011000
01000000
01000000
00000000
,
00110000
00001000
00001000
00000000
,
00011000
00000100
00000100
00000000
,
00001010
00000001
00000001
00000000
,
00001001
00000100
00010000
00000000
,
00011000
01000000
00010000
00000000
,
00100000
00000000
00001000
00000000
,
00010000
00000000
00011000
00000000
,
00000100
00001000
00000100
00000000
,
00010000
00000000
00001000
00000000
,
00010000
00001000
00010000
00000000
,
00001000
00000000
01000000
00000000
,
00100000
00000000
01000000
00000000
,
00001000
00000000
00010000
00000000
,
00000010
00000000
00001000
00000000
,
00000100
00000000
00010000
00000000
,
00001001
00000001
00001000
00000000
,
00011000
00001000
00010000
00000000
,
01010000
00100000
10000000
00000000
,
10010000
10000000
00010000
00000000
,
00011000
00010000
00001000
00000000
,
00001010
00000100
00001000
00000000
,
00000010
00000000
00010000
00000000
,
00011000
00000000
00000000
00000000
;

//---------------dance-double - ----------------
#NOTES:
     dance-double:
     :
     Medium:
     8:
     :
00000000
00000000
00000000
00000000
,
00000000
00000000
00000000
00000000
,
00000000
00000000
00000000
00000000
,
00000000
00000000
00000000
00000000
,
00010000
00010000
00000000
00000000
,
00001000
00001000
00000000
00000000
,
00100000
00100000
00000000
00000000
,
00010000
00000000
10000000
00000000
,
00010000
00100000
01000000
10000000
,
00010000
00000000
00100000
00000000
,
00001000
00010000
00000100
00000010
,
00000001
00000000
00001000
00000000
,
00000001
00000010
00000100
00001000
,
00000010
00000000
00010000
00000000
,
00001000
00100000
01000000
10000000
,
00010000
00000000
01000000
00000000
,
00001000
00000000
00010000
00000000
,
00000010
00000000
00001000
00000000
,
00001000
00000000
00000000
00000000
,
00000001
00000010
00000100
00010000
,
00001000
00010000
00001000
00010000
,
00001000
00100000
01000000
10000000
,
00010000
00100000
00010000
00000000
,
00100000
00100000
00001000
00000000
,
00011000
00000000
00011000
00000000
,
00000100
00000100
00000001
00000000
,
00001001
00000000
00001001
00000000
,
00010000
00001000
00010000
00001000
,
00100000
00010000
00100000
00010000
01000000
00100000
01000000
00100000
,
10000000
00010000
00100000
00001000
,
00010000
00001000
00010000
00001000
00010000
00000010
00010000
00000010
,
00010000
00000100
00000010
00000001
,
00000010
00000001
00000010
00000001
00001000
00000001
00001000
00000001
,
00000100
00000010
00010000
00001000
,
00100000
00010000
10000000
00000000
,
00100000
01000000
00100000
01000000
,
00001000
00010000
00001000
00010000
,
00000100
00000010
00000100
00001000
,
00000001
00000010
00000001
00000000
,
00001000
00000100
00010000
00000000
,
00001000
00000000
00100000
00000000
,
01000000
01000000
10000000
00000000
,
00010000
00000000
00100000
00000000
,
00001000
00010000
00001000
00010000
,
00000010
00001000
00000010
00001000
00000100
00000010
00000100
00000010
,
00000001
00001000
00000010
00010000
,
00001000
00010000
00001000
00010000
00001000
00100000
00001000
00100000
,
00001000
01000000
00100000
10000000
,
00100000
10000000
00100000
10000000
00010000
10000000
00010000
10000000
,
01000000
00100000
00001000
00010000
,
00001000
00000000
00000000
00000000
;

//---------------dance-double - ----------------
#NOTES:
     dance-double:
     :
     Hard:
     10:
     :
00000000
00000000
00000000
00000000
,
00000000
00000000
00000000
00000000
,
00000000
00000000
00000000
00000000
,
00000000
00000000
00000000
00000000
,
00000000
00100000
00000000
00100000
00000000
00100000
00000000
00100000
,
00000000
00001000
00000000
00010000
00000000
00001000
00000000
00010000
,
00000000
00000010
00000000
00001000
00000000
00000001
00000000
00000000
,
00000000
00001000
00000000
00000100
00000000
00010000
00000000
00001000
,
00000000
01000000
00000000
00010000
00000000
10000000
00000000
00100000
,
00000000
01000000
00000000
01000000
00000000
01000000
00000000
01000000
,
00000000
00001000
00000000
00010000
00000000
00000010
00000000
00001000
,
00000000
00000001
00000000
00000001
00000000
00000001
00000000
00000001
,
00000000
00000100
00000000
00000010
00000000
00010000
00000000
00001000
,
00000000
00100000
00000000
01000000
00000000
10000000
00000000
00100000
,
00000000
01000000
00000000
00001000
00000000
00010000
00000000
00000100
,
00000000
00000010
00000000
00000001
00000000
00000100
00000000
00000010
,
00000000
00010000
00000000
00001000
00000000
00010000
00001000
00010000
,
00000000
00001000
00000000
00100000
00000000
01000000
00000000
00100000
,
00000000
00001000
00000000
00000000
00011000
00000000
00011000
00000000
,
00000010
00001000
00000100
00001000
00000010
00000000
00001000
00000100
,
00001000
00000100
00010000
00011000
,
01000000
00010000
00100000
00010000
01000000
00000000
00010000
00100000
,
00010000
00100000
00001000
00011000
,
00000010
00000010
00001000
00001000
,
00000001
00000000
00000010
00000000
00000100
00000000
00001000
00000100
,
00010000
00010000
00001000
00001000
,
00100000
00000000
01000000
00000000
10000000
00000000
00010000
10000000
,
00010000
10000000
00000000
00010000
00000000
01000000
00001000
00010000
,
00001000
00010000
00000000
00000100
00000000
00001000
00000001
00000010
,
00000001
00000010
00000000
00000001
00000000
00001000
00000100
00010000
,
00000100
00010000
00000000
00001000
00000000
01000000
00100000
10000000
,
00100000
10000000
00000000
00010000
00000000
01000000
00001000
00010000
,
00001000
00010000
00000000
00000100
00000000
00001000
00000010
00000100
,
00000010
00001001
00010000
00011000
,
00001000
00010000
00011000
00011000
,
00000010
00001000
00000100
00001000
00000010
00000000
00001000
00000100
,
00001000
00000100
00010000
00011000
,
01000000
00010000
00100000
00010000
01000000
00000000
00010000
00100000
,
00010000
00100000
00001000
00011000
,
00000010
00000010
00001000
00001000
,
00000001
00000000
00000010
00000000
00000100
00000000
00001000
00000100
,
00010000
00010000
00001000
00001000
,
00100000
00000000
01000000
00000000
10000000
00000000
00010000
10000000
,
00010000
10000000
00000000
00010000
00000000
01000000
00001000
00010000
,
00001000
00010000
00000000
00000100
00000000
00001000
00000001
00000010
,
00000001
00000010
00000000
00000001
00000000
00001000
00000100
00010000
,
00000100
00010000
00000000
00001000
00000000
01000000
00100000
10000000
,
00100000
10000000
00000000
00010000
00000000
01000000
00001000
00010000
,
00001000
00010000
00000000
00000100
00000000
00001000
00000000
00000000
,
00000010
00001001
00010000
00011000
,
00011000
00000000
00000000
00000000
;

//---------------dance-couple - ----------------
#NOTES:
     dance-couple:
     :
     Medium:
     4:
     :
00000000
00000000
00000000
00000000
,
00000000
00000000
00000000
00000000
,
00000000
00000000
00000000
00000000
,
00000000
00000000
00000000
00000000
,
00000001
00000001
00001000
00001000
,
10000000
10000000
00010000
00010000
,
00000001
00001000
10000000
00010000
,
00000010
00000100
00001000
00000000
,
10000001
00001000
00000001
00000010
,
00100100
01000000
10000000
00000000
,
00010001
10000000
00010000
00100000
,
01001000
00000001
00000100
00000000
,
10000001
00001000
00000010
00000100
,
10000001
00010000
01000000
00000000
,
00010001
10000000
00100000
01000000
,
00011000
00000001
00000001
00000001
,
10000000
00010000
00010000
00010000
,
01000010
00100100
00100100
00100100
,
10001000
10001000
10011001
10011001
,
10000001
00000000
01000000
00000000
00100001
00000000
00010000
00010000
,
10000001
00010000
01000001
01100000
,
10001000
00000000
00000100
00000000
10000010
00000000
00000001
00000001
,
10001000
00000001
10000100
00000110
,
10000001
10000001
00011000
00011000
,
10010001
10010000
01100001
00000000
,
00100010
00100010
01000100
01000100
,
00100110
00000000
00000110
00000000
00101001
00000000
00010000
10000000
,
00010001
10000000
00000000
00010000
00000001
01000000
00010000
10000000
,
01000001
00100000
00000000
00010000
00000001
10000000
00010000
00100000
,
01000001
10000000
00000000
00010000
00000001
10000000
00100000
00000000
,
10010001
00000000
10010000
00000000
00000001
00000000
10011000
00000001
,
10001000
00000001
00000000
00001000
10000000
00000100
00001000
00000001
,
10000100
00000010
00000000
00001000
10000000
00000001
00001000
00000010
,
10000100
00000001
00000000
00001000
10000000
00000001
00000010
00000000
,
10001001
00001001
10000000
00001001
,
00010001
10000000
00010000
10000000
00010001
00000000
10000000
00000000
,
01000001
00000000
00100001
10010000
,
10000001
00001000
00000001
00001000
10000001
00000000
00000000
00000000
,
10000100
00000000
10000010
00001001
,
10000001
00010000
00100001
01000000
,
10000001
00010000
00100001
01000000
,
10001000
00000001
10000010
00000100
,
10001000
00000000
00000001
00000000
10000010
00000000
00010100
10000000
,
00010010
10000000
00000000
00010000
00000000
01000000
00010000
10000000
,
01000000
00100000
00000000
00010000
00000000
10000000
00000001
00001000
,
00000001
00001000
00000000
00000001
00000000
00000100
00000001
00001000
,
00000100
00000010
00000000
00000001
00000000
00001000
00010001
10001000
,
00010001
00000000
00000000
01010101
,
10101010
00000000
00000000
00000000
,
10001000
00010001
00100010
01000100
,
10011001
00000000
00000000
00000000
;

//---------------dance-solo - ----------------
#NOTES:
     dance-solo:
     :
     Easy:
     2:
     :
000000
000000
000000
000000
,
000000
000000
000000
000000
,
000000
000000
000000
000000
,
000000
000000
000000
000000
,
100000
000000
000000
000000
,
100000
000000
000000
000000
,
100000
000000
000000
000000
,
000001
000000
000000
000000
,
100000
000000
000000
000000
,
000100
000000
000000
000000
,
001000
000000
000000
000000
,
000001
000000
000000
000000
,
000100
000000
000000
000000
,
000010
000000
010000
000000
,
000010
000000
010000
000000
,
000100
000000
100000
000000
,
100000
000000
100000
000000
,
000001
000000
000100
000000
,
000100
000000
000100
000000
,
000001
000000
100000
000000
,
000010
000000
100001
000000
,
100000
000000
000001
000000
,
010000
000000
100001
000000
,
000001
000001
000001
000000
,
001000
000000
001000
000000
,
000100
000100
000100
000000
,
001000
000000
001000
000000
,
000001
000000
000100
000000
,
000010
000000
010000
000000
,
000100
000000
100000
000000
,
000001
000000
001000
000000
,
000001
000000
000001
000000
,
100000
000000
100000
000000
,
000001
000000
000100
000000
,
001000
000000
000000
000000
,
100000
000000
000001
000000
,
010000
000000
100001
000000
,
000001
000000
100000
000000
,
000010
000000
100001
000000
,
100000
100000
100000
000000
,
001000
000000
001000
000000
,
000100
000100
000100
000000
,
001000
000000
001000
000000
,
100000
000000
000010
000000
,
010000
000000
000010
000000
,
000100
000000
000001
000000
,
100000
000000
001000
000000
,
100000
000000
100000
000000
,
000001
000000
000001
000000
,
100000
000000
000100
000000
,
001100
000000
000000
000000
;

//---------------dance-solo - ----------------
#NOTES:
     dance-solo:
     :
     Medium:
     4:
     :
000000
000000
000000
000000
,
000000
000000
000000
000000
,
000000
000000
000000
000000
,
000000
000000
000000
000000
,
100000
000000
100000
000000
100000
000001
100000
000000
,
000001
000000
000001
000000
000001
100000
000001
000000
,
001000
000000
001000
000000
001000
000100
001000
000000
,
000001
000001
100000
100000
,
010000
100000
010000
100000
,
000100
000100
001000
001000
,
000001
000010
000001
000010
,
000001
000001
100000
100000
,
001000
000100
001000
000100
,
000001
000001
100000
100000
,
000010
010000
000010
010000
,
000001
000000
000001
000000
000001
100000
000001
000000
,
100000
000000
100000
000000
100000
000001
100000
000000
,
001000
000000
001000
000000
001000
000100
001000
000000
,
000100
000000
000100
000000
000100
001000
000100
000000
,
100000
001000
000100
000001
,
100000
000001
001000
001100
,
000001
000100
001000
100000
,
000001
100000
000100
001100
,
000010
000100
000001
000000
010000
000100
100000
000000
,
001000
001000
100001
000000
,
010000
000100
100000
000000
000010
000100
000001
000000
,
001000
001000
100001
000000
,
100000
010000
100000
001000
,
100000
000001
100000
000000
,
000001
000010
000001
001000
,
000001
100000
000001
000000
,
100000
010000
100000
001000
,
100000
000001
100000
000000
,
000001
000010
000001
001000
,
000001
100000
100001
100001
,
100000
001000
000100
000001
,
100000
000001
001000
001100
,
000001
000100
001000
100000
,
000001
100000
000100
001100
,
000010
000100
000001
000000
010000
000100
100000
000000
,
001000
001000
100001
000000
,
010000
000100
100000
000000
000010
000100
000001
000000
,
001000
001000
100001
000000
,
100000
010000
100000
001000
,
100000
000001
100000
100000
,
000001
000010
000001
001000
,
000001
100000
000001
000001
,
100000
010000
100000
001000
,
100000
000001
100000
100000
,
000001
000010
000001
001000
,
001100
000000
000000
000000
;

//---------------dance-solo - ----------------
#NOTES:
     dance-solo:
     :
     Hard:
     5:
     :
000000
000000
000000
000000
,
000000
000000
000000
000000
,
000000
000000
000000
000000
,
000000
000000
000000
000000
,
000000
000001
000000
001000
000000
000001
001000
000001
,
001000
000001
000000
000001
000000
000001
000000
000001
,
000000
100000
000000
000001
000000
100000
000000
000000
,
000000
000010
000000
000010
000000
100000
001000
100000
,
000000
000001
000000
100000
000000
001000
000000
000100
,
000000
000010
000000
000010
000000
100000
000001
100000
,
000000
000010
000000
010000
000000
000001
000000
100000
,
000000
001000
000000
001000
000000
001000
100000
000010
,
100000
000001
000000
100000
000000
000001
000000
100000
,
000000
000100
000000
001000
000000
000010
000000
000010
,
000000
000100
000000
001000
000000
010000
000000
010000
,
000000
000001
000000
100000
000000
000001
000000
100000
,
000000
000100
000000
001000
000000
000100
100000
000100
,
000000
010000
000000
000010
000000
010000
000000
000010
,
000000
001000
000000
001000
000100
001000
000100
000000
,
100000
000000
100100
000000
001000
000000
000001
001000
,
000010
000000
000010
010000
000001
000000
100001
000000
,
000001
000000
000101
000000
001000
000000
100000
001000
,
010000
000000
010000
000010
100000
000000
100001
000000
,
100000
001000
000100
000001
,
100100
000000
100100
000000
010100
000000
000001
100000
,
000001
000100
001000
100000
,
000101
000000
000101
000000
000110
000000
100000
000001
,
100000
000100
001000
000001
,
100000
100000
001000
010000
,
000001
000001
000100
000010
,
100000
100000
001000
010000
,
000010
000000
000010
000000
000100
000001
100000
000000
,
001000
000000
001000
000000
000100
000010
100000
000000
,
100001
001000
010010
001000
,
100000
000100
000000
001000
000100
000000
001100
000000
,
000001
000000
000101
000000
001000
000000
100000
001000
,
010000
000000
010000
000010
100000
000000
100001
000000
,
100000
000000
100100
000000
001000
000000
000001
001000
,
000010
000000
000010
010000
000001
000000
100001
000000
,
000001
001000
000100
100000
,
000101
000000
000101
000000
000110
000000
100000
000001
,
100000
000100
001000
000001
,
100100
100100
010100
000001
,
100000
100000
001000
000100
,
000001
000001
001000
000010
,
100000
100000
000100
010000
,
000001
000001
001000
000010
,
010000
000000
010000
000000
000100
100000
000001
000000
,
001000
000000
001000
000000
000100
010000
000001
000000
,
100001
001000
010010
001000
,
100001
000000
000000
000000
;
