#TITLE:TEST OF TIME;
#ARTIST:DJ STOMPY;
#BANNER:TEST OF TIME-bn.png;
#BACKGROUND:TEST OF TIME-bg.png;
#JACKET:TEST OF TIME-jacket.png;
#MUSIC:TEST OF TIME.ogg;
#SAMPLESTART:45.316;
#SAMPLELENGTH:20;
#DISPLAYBPM:170;
#BPMS:0=169.92;
#BGCHANGES:;

//---------------dance-single - x scale 3----------------
#NOTES:
     dance-single:
     :
     Beginner:
     3:
     :
0000
0000
0000
0000
,
0000
0000
0000
0000
,
0000
0000
0000
0000
,
0000
0000
0000
0000
,
0000
0000
0000
0000
,
0000
0000
0000
0000
,
0000
0000
0000
0000
,
0000
0000
0000
0000
,
0010
0000
0000
0000
,
0000
0000
0000
0000
,
1000
0000
0000
0000
,
0000
0000
0000
0000
,
0001
0000
0000
0000
,
0100
0000
0000
0000
,
1001
0000
0000
0000
,
0000
0000
0000
0000
,
1000
0000
0000
0000
,
0000
0000
0000
0000
,
0001
0000
0000
0000
,
0000
0000
0000
0000
,
0100
0000
0000
0000
,
0010
0000
0000
0000
,
0110
0000
0000
0000
,
0000
0000
0000
0000
,
1000
0000
1000
0000
,
0001
0000
0001
0000
,
0100
0000
0100
0000
,
0100
0000
0000
0000
,
0010
0000
0010
0000
,
1000
0000
1000
0000
,
0001
0000
0000
0000
,
0001
0000
0000
0000
,
2002
0000
3003
0000
,
1000
0000
1000
0000
,
1000
0000
1000
0000
,
0001
0000
0001
0000
,
0001
0000
0001
0000
,
0100
0000
0100
0000
,
0100
0000
0100
0000
,
0010
0000
0010
0000
,
0010
0000
0010
0000
,
0110
0000
1000
1000
,
0000
0000
0001
0001
,
0000
0000
0100
0100
,
0000
0000
0010
0010
,
0000
0000
0100
0100
,
0000
0000
0001
0001
,
0000
0000
1000
1000
,
0000
0000
0000
0000
,
0010
0000
0000
0000
,
0010
0000
0000
0000
,
0010
0000
0000
0000
,
0010
0000
0000
0000
,
0100
0000
0000
0000
,
0100
0000
0000
0000
,
0100
0000
0000
0000
,
0100
0000
0000
0000
,
0001
0000
0001
0000
,
0100
0000
0100
0000
,
0010
0000
0010
0000
,
1000
0000
1000
0000
,
0100
0000
0100
0000
,
1000
0000
1000
0000
,
0010
0000
0010
0000
,
0001
0000
0001
0000
,
1001
0000
0100
0100
,
0000
0000
0010
0010
,
0000
0000
1000
1000
,
0000
0000
0001
0001
,
0000
0000
0001
0001
,
0000
0000
0100
0100
,
0000
0000
0010
0010
,
0000
0000
1000
1000
,
1000
0000
1000
0000
,
1001
0000
0000
0000
,
0010
0000
0010
0000
,
0110
0000
0000
0000
,
0100
0000
0100
0000
,
0110
0000
0000
0000
,
1000
0000
0001
0000
,
0220
0000
0330
0000
,
2002
0000
0000
0000
,
0000
0000
0000
0000
,
0000
0000
0000
0000
,
0000
0000
0000
3003
;

//---------------dance-single - x scale 7----------------
#NOTES:
     dance-single:
     :
     Easy:
     6:
     :
0000
0000
0000
0000
,
0000
0000
0000
0000
,
0000
0000
0000
0000
,
0000
0000
0000
0000
,
0000
0000
0000
0000
,
0000
0000
0000
0000
,
0000
0000
0000
0000
,
0000
0000
0000
0000
,
0020
0000
0000
0030
,
0200
0000
0000
0300
,
0002
0000
0000
0003
,
2000
0000
0000
3000
,
0002
0000
0000
0003
,
0020
0000
0000
0030
,
0200
0000
0000
0300
,
2000
0000
0000
3000
,
2002
0000
0000
3003
,
0220
0000
0000
0330
,
2200
0000
0000
3300
,
0022
0000
0000
0033
,
2000
0000
0000
3000
,
0002
0000
0000
0003
,
0001
0001
0001
0001
,
1000
1000
1000
1000
,
0010
1000
0010
0100
,
0010
1000
0010
0100
,
0001
0010
0100
0010
,
0001
0010
0100
0010
,
1000
0100
1000
0100
,
0010
0001
0010
0001
,
0100
0010
1000
1000
,
0010
0100
0001
0001
,
1100
0011
1001
0000
,
0110
0010
1000
0010
,
0100
0100
0100
0100
,
0001
0010
0100
1000
,
0100
0010
0001
0000
,
0010
0100
0010
0100
,
0001
0001
0001
0001
,
1000
0100
0010
0001
,
0010
0100
1000
0000
,
1000
1000
0001
0100
,
0000
0010
1000
0100
,
0000
0010
0001
0100
,
0000
0100
0010
1000
,
0000
0100
1100
0110
,
0000
0001
1001
0011
,
0000
0100
0010
0100
,
0001
0001
0001
0001
,
1000
0100
1000
0000
,
0100
1000
0100
0000
,
0001
0010
0001
0000
,
0010
0001
0010
0000
,
1000
0010
1000
0000
,
0010
1000
0010
0000
,
0001
0100
0001
0000
,
0100
0001
0100
0000
,
0010
0010
0010
0010
,
0010
0010
0010
0010
,
0100
0100
0100
0100
,
0100
0100
0100
0100
,
0001
0001
0001
0001
,
0001
0001
0001
0001
,
1000
1000
1000
1000
,
1000
1000
1000
1000
,
0100
0100
0010
1000
,
0000
1000
0100
0010
,
0000
0010
0001
0100
,
0000
1000
0001
1000
,
0000
0100
1100
0011
,
0000
1000
0110
1001
,
0000
0010
0011
0110
,
0000
0001
1100
1001
,
0100
0010
0100
0010
,
1000
0001
1000
0001
,
0100
0010
0100
0010
,
1000
0001
1000
0001
,
0010
0100
0010
0100
,
0001
1000
0001
1000
,
0010
0100
0001
1000
,
0011
1100
0110
0000
,
2002
0000
0000
0000
,
0000
0000
0000
0000
,
0000
0000
0000
0000
,
0000
0000
0000
3003
;

//---------------dance-single - x scale 9----------------
#NOTES:
     dance-single:
     :
     Medium:
     9:
     :
0000
0000
0000
0000
,
0000
0000
0000
0000
,
0000
0000
0000
0000
,
0000
0000
0000
0000
,
0000
0000
0000
0000
,
0000
0000
0000
0000
,
0000
0000
0000
0000
,
0000
0000
0000
0000
,
1001
0000
0100
0010
,
1000
0010
0100
0000
,
1100
0000
0001
0100
,
0010
0100
0001
0000
,
0101
0000
0001
1000
,
0010
1000
0001
0010
,
0100
0000
0001
0001
,
0100
0000
1000
1000
,
0110
0000
1000
0100
,
0001
0100
1000
0000
,
0011
0000
0001
0010
,
1000
0010
0001
0000
,
0110
0000
1000
0100
,
0010
0100
0010
1000
,
0001
0001
0010
0010
,
0100
0100
1000
1000
,
0001
0010
0001
0000
0100
0010
0100
0000
,
1000
0100
1000
0000
0001
0100
0001
0000
,
0010
0000
0010
0000
1000
0001
1000
0000
,
0100
0000
0100
0000
0001
1000
0001
0000
,
0010
0000
0010
0000
0100
0001
0100
0000
,
0010
0000
0010
0000
0100
1000
0100
0000
,
1000
0010
1000
0000
0010
0001
0010
0000
,
0001
0100
0001
0000
0100
1000
0100
0000
,
1100
0000
0101
0000
1000
0001
0100
0000
,
1010
0000
0001
2000
0000
3020
0000
0230
,
0000
0320
0000
2030
0000
3001
0100
0000
,
0011
0000
0100
0002
0000
2003
0000
3020
,
0000
2030
0000
3002
0000
0103
0010
0000
,
0110
0000
1000
0020
0000
0230
0000
0302
,
0000
0203
0000
0320
0000
1030
0001
0000
,
1001
0000
0010
0200
0000
2300
0000
3002
,
0000
2003
0000
3200
0000
0310
0001
0000
,
0100
0000
0001
0010
0001
0000
0100
0010
,
0000
0000
1000
0010
1000
0000
0001
0010
,
0000
0000
0100
0001
0100
0000
0001
1000
,
0000
0000
1000
0100
1000
0000
0001
0100
,
0010
0000
0010
0100
1000
0000
1000
0100
,
0000
0000
0010
1000
0001
0000
1000
0010
,
0000
0000
0100
0010
1000
0000
1000
0010
,
0000
0100
0000
0010
1000
0000
0001
0000
,
0100
0000
0100
0000
0100
0000
0000
0100
,
0000
0100
0000
0100
0000
0100
0000
0100
,
0010
0000
0010
0000
0010
0000
0000
0010
,
0000
0010
0000
0010
0000
0010
0000
0010
,
1000
0000
1000
0000
1000
0000
0000
1000
,
0000
1000
0000
1000
0000
1000
0000
1000
,
0001
0000
0001
0000
0001
0000
0000
0001
,
0000
0001
0000
0001
0000
0001
0000
0001
,
0010
0000
0010
0000
0010
0000
0010
1000
,
0010
0000
0010
1000
0010
0000
0010
1000
,
0100
0000
0100
0000
0100
0000
0100
0010
,
0100
0000
0100
0010
0100
0000
0100
0010
,
0001
0000
0001
0000
0001
0000
0001
0100
,
0001
0000
0001
0100
0001
0000
0001
0100
,
1000
0000
1000
0000
1000
0000
1000
0001
,
1000
0000
1000
0001
1000
0000
1000
0001
,
0100
0000
0000
0100
0010
0000
0010
1000
,
0000
0000
0000
1000
0100
0000
0010
0001
,
0000
0000
0000
0001
0010
0000
0100
1000
,
0000
0000
0000
1000
0001
0000
0100
0010
,
1000
0000
0000
1000
0100
0000
0100
0001
,
0000
0000
0000
0001
0100
0000
0010
1000
,
0000
0000
0000
1000
0010
0000
0100
0001
,
0000
0000
0000
0001
1000
0010
0100
0000
,
0101
0000
0001
0100
0010
1000
0000
0200
,
0000
0000
1300
0100
1000
0000
0010
0100
,
0001
0000
0100
0010
0000
1000
0000
2100
,
0000
0000
3100
0010
1000
0010
0100
0000
,
0110
0000
1000
0001
0100
0010
0000
0020
,
0000
0000
1030
0001
1000
0000
0001
0100
,
0002
0000
1003
0010
0000
0010
1000
0000
,
1010
0000
0011
0000
1000
0001
0010
0000
,
2002
0000
0000
0000
,
0000
0000
0000
0000
,
0000
0000
0000
0000
,
0000
0000
0000
3003
;

//---------------dance-single - x scale 11 or 12----------------
#NOTES:
     dance-single:
     :
     Hard:
     12:
     :
0000
0000
0000
0000
,
0000
0000
0000
0000
,
0000
0000
0000
0000
,
0000
0000
0000
0000
,
0000
0000
0000
0000
,
0000
0000
0000
0000
,
0000
0000
0000
0000
,
0000
0000
0000
0000
,
1001
0000
0000
0100
0010
1000
0010
1000
,
0001
0000
0001
0100
0000
0000
0000
0000
,
0101
0000
0000
0000
0001
1000
0001
1000
,
0010
0000
0010
0100
0000
0000
0000
0000
,
1100
0000
0000
0000
0100
0001
0100
0001
,
0000
1000
0010
1000
0000
1000
0001
0000
,
0010
0000
1000
0000
1000
0001
0100
0000
,
0010
0000
0001
0000
0001
1000
0010
0000
,
1010
0000
0000
0000
0100
0010
0100
0010
,
1000
0000
1000
0001
0000
0000
0000
0000
,
0011
0000
0000
1000
0010
0100
0010
1000
,
0001
0000
0001
0100
0000
0000
0000
0000
,
0110
0000
0000
0010
0001
1000
0001
0010
,
0100
0000
0100
0010
0000
1000
0100
1000
,
0001
0010
0001
0010
1000
0010
1000
0010
,
0001
0100
0001
0100
1000
0100
1000
0100
,
1000
0010
0100
0010
1000
0010
0100
0010
,
1000
0001
0100
0001
1000
0001
0100
0000
,
0001
0010
0100
1000
0100
0010
0001
0000
,
1000
0100
0010
0001
0010
0100
1000
0000
,
0001
0100
0010
0100
0001
0100
0010
0100
,
0001
1000
0010
1000
0001
1000
0010
0000
,
1000
0100
0010
0001
0010
0100
1000
0000
,
0001
0010
0100
1000
0100
0010
0001
0000
,
0010
0000
0000
0000
0010
0000
0000
1000
0001
0000
1000
0000
0001
0000
0010
0000
,
0110
0000
1000
1100
0000
0100
0001
0011
,
0000
0001
1000
0010
0000
0010
1000
0001
,
1001
0000
0010
1010
0000
0001
0100
0101
,
0000
0100
0010
1000
0000
0010
0100
0000
,
1100
0000
1000
1010
0000
0010
0001
1001
,
0000
0100
0001
0010
0000
0010
0001
0100
,
0101
0000
0001
0011
0000
0100
0010
0110
,
0000
1000
0100
1000
0001
0100
0001
0000
,
1000
0000
1000
0001
0100
0000
0100
0001
,
0000
0001
0010
0001
1000
0000
1000
0010
,
0000
0010
1000
0100
1000
0000
0100
0010
,
0000
0010
0100
0001
0010
0000
0001
0100
,
0010
0000
0010
1000
0100
0000
0100
1000
,
0000
1000
0010
1000
0001
0000
0001
0010
,
0000
0010
0100
0010
0001
0000
0001
0100
,
0001
0100
0001
1000
0001
1000
0100
0000
,
1000
0000
1000
0000
1000
0000
1000
0001
,
0000
0001
0000
0001
0000
0001
0100
0010
,
0100
0000
0100
0000
0100
0000
0100
0010
,
0000
0010
0000
0010
0000
0010
1000
0001
,
0010
0000
0010
0000
0010
0000
0010
0100
,
0000
0100
0000
0100
0000
0100
0001
1000
,
0001
0000
0001
0000
0001
0000
0001
1000
,
0000
1000
0000
1000
0000
1000
0010
0100
,
0001
0000
0001
0000
0001
0000
0001
0010
,
0001
0100
0001
0100
0001
0010
0001
0010
,
0100
0000
0100
0000
0100
0000
0100
1000
,
0100
0010
0100
0010
0100
1000
0100
1000
,
0010
0000
0010
0000
0010
0000
0010
0100
,
0010
1000
0010
1000
0010
0100
0010
0100
,
1000
0000
1000
0000
1000
0000
1000
0001
,
1000
0100
1000
0100
1000
0001
1000
0001
,
0010
0000
0010
0001
1000
0000
1000
0001
,
0100
0000
0100
0001
1000
0000
1000
0001
,
0010
0000
0010
0001
0100
0000
0100
0001
,
1000
0000
0100
0001
1000
0000
0010
0001
,
0100
0000
0100
1000
0001
0000
0001
1000
,
0010
0000
0010
1000
0001
0000
0001
1000
,
0010
0000
0010
1000
0100
0000
0100
1000
,
0001
0000
0100
1000
0001
0000
0010
1000
,
0101
0000
0001
0010
0001
1000
0100
1000
,
1100
0000
1000
0100
1000
0010
0100
0010
,
0110
0000
0010
1000
0010
0100
0001
0100
,
0001
0000
0001
0010
0100
0010
0100
1000
,
1010
0000
0100
0001
0010
0100
1000
0010
,
0011
0000
0001
1000
0010
0100
0010
1000
,
0010
1000
0010
0100
0010
1000
0010
0000
,
0100
0000
0000
0000
0100
0000
0000
0001
1000
0000
0001
0000
1000
0000
0100
0000
,
2002
0000
0000
0000
,
0000
0000
0000
0000
,
0000
0000
0000
0000
,
0000
0000
0000
3003
;
