#TITLE:TEMPLE OF LOVE;
#ARTIST:E-ROTIC;
#BANNER:TEMPLE OF LOVE.png;
#BACKGROUND:TEMPLE OF LOVE-bg.png;
#JACKET:TEMPLE OF LOVE-jacket.png;
#MUSIC:TEMPLE OF LOVE.ogg;
#SAMPLESTART:23.662;
#SAMPLELENGTH:20;
#DISPLAYBPM:142;
#BPMS:0=142;
#BGCHANGES:;

//---------------dance-single - ----------------
#NOTES:
     dance-single:
     :
     Beginner:
     1:
     :
0000
0000
0000
0000
,
0000
0000
0000
0000
,
0000
0000
0000
0000
,
0000
0000
0000
0000
,
0000
0000
0000
0000
,
1000
0000
0000
0000
,
0001
0000
0000
0000
,
0010
0000
0000
0000
,
0100
0000
0000
0000
,
1000
0000
0000
0000
,
0001
0000
0000
0000
,
0100
0000
0000
0000
,
0010
0000
0000
0000
,
1001
0000
0000
0000
,
0010
0000
1000
0000
,
0100
0000
0000
0000
,
1000
0000
0001
0000
,
0100
0000
0000
0000
,
0010
0000
0100
0000
,
0001
0000
0000
0000
,
0010
0000
0001
0000
,
1000
0000
0000
0000
,
0001
0000
0001
0000
,
0001
0000
0000
0000
,
1000
0000
1000
0000
,
1000
0000
0000
0000
,
0010
0000
0010
0000
,
0010
0000
0000
0000
,
0100
0000
0100
0000
,
0100
0000
0000
0000
,
0010
0000
0000
0000
,
1000
0000
0000
0000
,
0001
0000
0000
0000
,
0100
0000
0000
0000
,
0001
0000
0000
0000
,
0010
0000
0000
0000
,
0100
0000
0000
0000
,
1000
0000
0000
0000
,
1001
0000
0000
0000
,
0001
0000
0010
0000
,
0100
0000
0000
0000
,
1000
0000
0001
0000
,
0010
0000
0000
0000
,
0100
0000
1000
0000
,
0010
0000
0000
0000
,
1000
0000
0001
0000
,
0100
0000
0000
0000
,
0001
0000
0001
0000
,
0001
0000
0000
0000
,
0010
0000
0010
0000
,
0010
0000
0000
0000
,
0100
0000
0100
0000
,
0100
0000
0000
0000
,
1000
0000
1000
0000
,
1000
0000
0000
0000
,
1001
0000
0000
0000
;

//---------------dance-single - ----------------
#NOTES:
     dance-single:
     :
     Easy:
     4:
     :
0000
0000
0000
0000
,
0000
0000
0000
0000
,
0000
0000
0000
0000
,
0000
0000
0000
0000
,
0000
0000
0000
0000
,
1000
0000
0100
0000
,
1000
0000
0100
0000
,
0001
0000
0100
0000
,
0001
0000
0100
0000
,
1000
0000
0100
0000
,
0001
0000
0100
0000
,
1000
0000
0010
0000
,
0001
0000
0010
0000
,
1000
0000
0000
0000
,
1000
0100
0010
0000
,
0001
0100
0010
0000
,
1000
0100
0010
0000
,
1001
0110
1001
0000
,
0001
0100
0010
0000
,
1000
0100
0010
0000
,
0001
0100
0010
0000
,
1001
0110
1001
0000
,
0100
0000
0000
0000
,
0010
0000
0000
0000
,
1000
0000
0000
0000
,
0001
0010
0001
0000
,
1000
0000
0000
0000
,
0100
0000
0000
0000
,
0010
0000
0000
0000
,
1000
0010
1000
0000
,
0001
0000
0010
0000
,
0001
0000
0100
0000
,
0010
0000
1000
0000
,
0001
0000
0010
0000
,
0100
0000
1000
0000
,
0001
0000
1000
0000
,
0001
0000
0010
0000
,
0001
0000
0100
0000
,
0010
0000
0000
0000
,
1000
0100
0010
0000
,
0001
0100
0010
0000
,
1000
0010
0001
0000
,
0110
1001
0110
0000
,
0001
0010
0100
0000
,
1000
0010
0100
0000
,
0001
1000
0100
0000
,
1001
0110
1001
0000
,
0100
0000
0000
0000
,
0010
0000
0000
0000
,
1000
0000
0000
0000
,
0010
0100
0001
0000
,
1000
0000
0000
0000
,
0100
0000
0000
0000
,
0010
0000
0000
0000
,
0001
0010
1000
0000
,
1001
0000
0000
0000
;

//---------------dance-single - ----------------
#NOTES:
     dance-single:
     :
     Medium:
     8:
     :
0000
0000
0000
0000
,
0000
0000
0000
0000
,
0000
0000
0000
0000
,
0000
0000
0000
0000
,
0000
0000
0000
0000
,
1000
0000
0000
0000
0001
0010
0001
0000
,
0010
0000
0000
0000
1000
0010
1000
0000
,
0100
0000
0000
0000
0010
0001
0010
0000
,
1000
0100
0010
0001
,
1000
0000
0000
0000
0001
0010
0001
0000
,
0010
0000
0000
0000
1000
0010
1000
0000
,
0100
0000
0000
0000
0010
0001
0010
0000
,
1000
0000
0100
0010
,
1001
0000
0000
0000
,
0010
0000
0100
0000
0010
0001
0100
0000
,
0001
0000
0100
0000
0010
1000
0100
0000
,
0001
0000
0100
0000
0010
1000
0010
0000
,
0001
0010
0001
0000
1000
0100
1000
0000
,
0001
0000
0010
0000
0100
1000
0001
0000
,
0100
0000
0010
0000
1000
0100
1000
0000
,
0001
0000
0100
0000
0010
1000
0010
0000
,
0001
0010
0001
0000
1000
0010
0100
0000
,
0001
0100
0010
0100
,
0001
1000
0100
0000
,
1000
0001
0010
0001
,
1000
0100
0010
0000
,
0001
0100
0010
0100
,
0001
1000
0100
0000
,
1000
0001
0010
0001
,
1000
0100
0010
0000
,
0001
0000
0000
0000
1000
0010
1000
0000
,
0001
0000
0000
0000
1000
0100
1000
0000
,
0001
0000
0000
0000
0010
0100
1000
0000
,
0001
0100
0010
1000
,
0001
0000
0000
0000
0100
0010
1000
0000
,
0100
0000
0000
0000
1000
0001
0010
0000
,
0100
0000
0000
0000
0001
1000
0010
0000
,
0100
0000
0001
1000
,
0110
0000
0000
0000
,
0001
0000
0010
0000
0100
1000
0100
0000
,
1000
0000
0010
0000
0100
0001
0100
0000
,
0001
0000
1000
0000
0100
0010
0001
0000
,
1000
0010
1000
0000
0001
0010
0001
0000
,
1000
0000
0100
0000
0010
0100
0010
0000
,
0001
0000
0100
0000
0010
1000
0010
0000
,
0001
0000
0010
0000
0100
1000
0001
0000
,
1000
0010
0100
0000
0001
0010
0100
0000
,
1000
0001
0100
0001
,
1000
0100
1000
0000
,
0001
1000
0010
0100
,
0001
1000
0001
0000
,
1000
0100
0010
0001
,
1000
0100
0010
0000
,
0001
0100
0010
1000
,
0100
1000
0010
0000
,
1001
0000
0000
0000
;

//---------------dance-single - ----------------
#NOTES:
     dance-single:
     :
     Hard:
     10:
     :
0000
0000
0000
0000
,
0000
0000
0000
0000
,
0000
0000
0000
0000
,
0000
0000
0000
0000
,
0000
0000
0000
0000
,
1000
0001
1000
0100
0010
0001
0001
0000
,
1000
0001
1000
0001
0010
0001
0001
0000
,
1000
0001
1000
0010
1000
0001
0001
0000
,
0100
0001
0100
0010
1000
0001
0001
0000
,
1000
0100
1000
0100
0010
0001
0001
0000
,
0100
0001
0100
0010
1000
0001
0001
0000
,
1000
0100
1000
0100
0010
0001
0001
0000
,
1000
0000
0000
0000
0010
1000
0001
0000
,
0110
0000
0000
0000
,
1000
0000
0001
0010
0001
0100
0010
0000
,
1000
0000
0001
0010
0001
0100
0010
0000
,
1000
0000
0100
0010
0001
0100
0001
0010
,
0000
1001
0000
0110
0000
1001
0000
0000
,
0010
0000
0100
0010
0001
0100
0010
0000
,
1000
0000
0100
0010
0001
0100
0001
0000
,
1000
0000
0010
1000
0100
0010
0001
0100
,
0000
0110
0000
1001
0000
0110
0000
0000
,
1000
0000
0100
0010
0000
0010
0000
0010
,
0000
0000
0001
0010
0000
0000
0000
0000
,
1000
0000
0010
0100
0000
0100
0000
1001
,
0000
0110
0000
1001
0000
0110
0000
0000
,
0001
0000
0010
0100
0000
0100
0000
0100
,
0000
0000
1000
0001
0000
0000
0000
0000
,
1000
0000
0010
0100
0000
0100
0000
1001
,
0000
0110
0000
1001
0000
0110
0000
0000
,
1000
0001
1000
0100
0010
0001
0001
0000
,
1000
0100
0010
0001
0100
0001
0001
0000
,
0010
0100
1000
0010
0100
0001
0010
0000
,
1000
0100
0010
0001
0100
0001
0010
0000
,
1000
0010
0100
0001
0010
0100
0100
0000
,
1000
0001
0010
0100
1000
0001
0001
0000
,
1000
0010
0100
0001
1000
0010
0010
0000
,
0100
0000
0000
0000
0001
0010
0100
0000
,
1001
0000
0000
0000
,
0010
0000
0100
1000
0001
1000
0001
0000
,
0100
0000
0010
1000
0001
1000
0001
0000
,
0010
0000
0100
1000
0001
1000
0001
0100
,
0000
1001
0000
1100
0000
0101
0000
0000
,
1000
0000
0010
0100
0001
1000
0001
0000
,
0010
0000
0100
1000
0001
1000
0010
0000
,
0100
0000
0001
1000
0100
0010
0001
0100
,
0000
0110
0000
1001
0000
0110
0000
0000
,
1000
0000
0100
0010
0000
0001
0000
0100
,
0000
0000
0001
0100
0000
0000
0000
0000
,
1000
0000
0100
0010
0000
0001
0000
0011
,
0000
1001
0000
1100
0000
1001
0000
0000
,
0010
0000
0100
1000
0000
0001
0000
1000
,
0000
0000
0010
0100
0000
0000
0000
0000
,
0001
0000
1000
0001
0000
1000
0000
0110
,
0000
1100
0000
1001
0000
0101
0000
0000
,
1001
0000
0000
0000
;

//---------------dance-single - ----------------
#NOTES:
     dance-single:
     :
     Challenge:
     12:
     :
0000
0000
0000
0000
,
0000
0000
0000
0000
,
0000
0000
0000
0000
,
0000
0000
0000
0000
,
0000
0000
0000
0000
,
1000
0000
0000
0000
0000
0000
0010
0000
0010
0000
0100
0001
0000
0000
1000
0000
,
0010
0100
0010
1000
0100
0010
0001
1000
,
0010
0000
0100
0000
0000
0000
0000
0000
0001
0000
1000
0100
0000
0000
0000
0000
,
0010
0000
0001
0000
0100
0000
0001
0000
1000
0000
0010
0100
0000
0000
0000
0000
,
0001
0100
0000
0010
1000
0000
0000
0000
0100
0010
0000
0001
1000
0000
0010
0000
,
0100
0001
0100
0010
1000
0100
0001
0000
,
0010
0000
0001
0000
0100
0000
1000
0000
0100
0000
0001
0010
0000
0100
1000
0000
,
0010
0000
0100
0000
0000
0000
0001
1000
0001
0000
0010
0100
1000
0000
0000
0000
,
0110
0000
0000
0000
1001
0000
0000
0000
1000
0001
1000
0001
1000
0000
0000
0000
,
1001
0010
0100
1000
0100
0001
0100
0010
,
1000
0000
0100
0010
0001
0100
1000
0000
,
0010
0100
1000
0100
0001
0010
0001
1000
,
0100
0001
0100
1000
0100
0001
0100
0000
,
0110
0001
0100
0010
0100
1000
0100
0001
,
0010
0000
0001
0100
0010
1000
0001
0000
,
0010
0100
0001
0100
1000
0010
0100
1000
,
0100
0001
0100
1000
0100
0001
0010
0000
,
0001
0100
0010
1000
0100
0001
0100
1000
,
0010
0100
0010
1000
0100
0010
0001
0000
,
0010
0001
0010
0100
1000
0010
0100
1000
,
0100
0010
0100
1000
0100
0001
0010
0000
,
0001
1000
0010
1000
0100
0010
0100
1000
,
0010
0100
1000
0100
0001
1000
0010
0000
,
0100
0001
0010
0100
1000
0010
0100
0001
,
0010
0100
1000
0010
1000
0001
0100
0000
,
1001
0000
0000
0000
0000
0000
0100
0000
0100
0000
0010
1000
0000
1000
0001
0000
,
0010
0000
0100
0000
1000
0000
0001
0100
0001
0000
1000
0000
0010
0000
0100
0000
,
0001
0000
1000
0000
0000
0000
0010
0000
1000
0100
0000
0010
0001
0000
0000
0000
,
0100
0000
1000
0000
0100
0000
0001
0000
0100
0000
0010
1000
0000
0000
0000
0000
,
0101
0000
0000
0000
0000
0000
0001
0010
0001
0000
1000
0000
0010
0000
0000
0000
,
0100
0000
1000
0000
0100
0000
0001
0000
0100
0000
0010
1000
0000
0000
0000
0000
,
0001
0000
0010
0000
0001
0000
0100
0000
0010
1000
0000
0001
0100
0000
0000
0000
,
1010
0000
0000
0000
0000
0000
0001
0010
0001
0000
1000
0010
0100
0000
0000
0000
,
0110
0000
0000
0000
1001
0000
0000
0000
1000
0001
1000
0001
1000
0000
0000
0000
,
1001
0100
0010
0100
1000
0100
0001
0010
,
0100
0000
1000
0001
1000
0100
0010
0000
,
0001
0100
1000
0100
0001
0100
0010
1000
,
0100
0001
0100
0010
0100
1000
0100
0000
,
0110
0001
0100
0010
0100
1000
0100
0001
,
1000
0000
0001
0010
0100
0010
0001
0000
,
0100
0010
0100
1000
0100
0001
0010
0100
,
1000
0010
0100
0010
1000
0010
0100
0000
,
0001
0010
0100
0010
0001
0100
0010
0100
,
1000
0100
0001
0100
0010
1000
0001
0000
,
0010
0001
0010
0100
0001
0100
1000
0010
,
0100
1000
0100
0001
0100
0010
1000
0000
,
0100
0010
0100
1000
0001
0100
1000
0100
,
0001
0010
0001
0010
0001
1000
0100
0000
,
0010
1000
0010
0001
0100
0010
0100
1000
,
0100
0001
0010
0001
0100
0010
1000
0000
,
1001
0000
0000
0000
;

//---------------dance-double - ----------------
#NOTES:
     dance-double:
     :
     Easy:
     5:
     :
00000000
00000000
00000000
00000000
,
00000000
00000000
00000000
00000000
,
00000000
00000000
00000000
00000000
,
00000000
00000000
00000000
00000000
,
00000000
00000000
00000000
00000000
,
00011000
00000000
00010000
00001000
,
01000000
00100000
10000000
00010000
,
00110000
00000000
00001000
00000100
,
00000001
00000010
00000001
00001000
,
00001100
00000000
00000101
00000000
,
00000010
00001000
00000100
00010000
,
00001000
00001000
01000000
00100000
,
01100000
00000000
00010000
10000000
,
01001000
00020000
00002000
00033000
,
00010000
00000100
00001000
00000010
,
00000100
00000000
00000010
00000000
,
00001000
00000100
00001000
00000001
,
00000100
00000100
00000100
00000000
,
00000010
00010000
00001000
00100000
,
01000000
00000000
10000000
00000000
,
00100000
01000000
00100000
10000000
,
00010000
00010000
00010000
00000000
,
00100000
00010000
01000000
00010000
,
10000000
01000000
00100000
00000000
,
00001000
00010000
00000010
00000000
,
00000100
00000100
00000100
00000000
,
00000001
00000010
00000001
00000100
,
00000010
00001000
00000001
00000000
,
00000100
00000010
00001000
00000000
,
01000000
01000000
01000000
00000000
,
11000000
00000000
00010000
01000000
,
00100000
10000000
01000000
00010000
,
10010000
00000000
01000000
00001000
,
00010000
00000010
00001000
00000001
,
00000011
00000000
00001010
00000000
,
00000100
00000001
00001000
00000000
,
00000010
00000010
00001000
00000001
,
00000110
00000000
00001000
00000001
,
00010100
00002000
00020000
00033000
,
00100000
00001000
01000000
00100000
,
10000000
00000000
00010000
00000000
,
00100000
00010000
01000000
00100000
,
10000000
10000000
10000000
00000000
,
01000000
10000000
00010000
10000000
,
00100000
00000000
01000000
00000000
,
00001000
00010000
00001000
00000100
,
00000001
00000001
00000001
00000000
,
00000010
00000001
00000010
00000100
,
00001000
00000001
00000100
00000000
,
00000010
00010000
00001000
00000000
,
00100000
00100000
00100000
00000000
,
00010000
00100000
00001000
00010000
,
00000100
00001000
00000001
00000000
,
00000100
00000010
00001000
00000000
,
00000100
00000100
00000100
00000000
,
00022000
00000000
00000000
00000000
,
00000000
00000000
00000000
00033000
;

//---------------dance-double - ----------------
#NOTES:
     dance-double:
     :
     Medium:
     8:
     :
00000000
00000000
00000000
00000000
,
00000000
00000000
00000000
00000000
,
00000000
00000000
00000000
00000000
,
00000000
00000000
00000000
00000000
,
00000000
00000000
00000000
00000000
,
10010000
00000000
00000000
00000000
00100000
01000000
00010000
00000000
,
10000000
00000000
00010000
00000000
01000000
00100000
10000000
00000000
,
01001000
00000000
00000000
00000000
00010000
00000010
00000100
00000000
,
00000001
00000000
00000010
00000000
00000001
00001000
00000100
00000000
,
00001000
00000010
00000100
00000000
00000110
00000000
00001001
00000000
,
00000010
00010000
00001000
00000000
00011000
00000000
01010000
00000000
,
00100000
10000000
01000000
00000000
00100000
00010000
01000000
00000000
,
01100000
00000000
00000000
00000000
10000000
01000000
00010000
00000000
,
00110000
11000000
00020000
10030000
,
10010000
00000000
01000000
00000000
00100000
00000000
01000000
00001000
,
00000000
00000000
00010000
00001000
00000000
00001000
00000100
00000000
,
00000010
00000000
00001000
00000000
00000100
00000000
00001000
00000002
,
00000000
00000023
00000000
00000032
00000000
00000203
00000000
00000300
,
00000110
00000000
00000010
00000000
00001000
00000000
00000100
00010000
,
00000000
00000000
00001000
01000000
00000000
01000000
00100000
00000000
,
10000000
00000000
01000000
00000000
00100000
00000000
00010000
02000000
,
00000000
03200000
00000000
02300000
00000000
03002000
00000000
00003000
,
00011000
00000000
00000010
00001000
00000000
00000001
00000000
00000100
,
00000000
00000000
00000010
00002000
00000000
00000000
00003000
00000000
,
00000010
00000000
00001000
00000100
00000000
00000010
00000000
00000002
,
00000000
00002003
00000000
00003020
00000000
00020030
00000000
00030000
,
00011000
00000000
00001000
01000000
00000000
00100000
00000000
10000000
,
00000000
00000000
00010000
00200000
00000000
00000000
00300000
00000000
,
00010000
00000000
10000000
00100000
00000000
01000000
00000000
00200000
,
00000000
20300000
00000000
32000000
00000000
03200000
00000000
00300000
,
00101000
00000000
00000000
00000000
00010000
00001000
00000100
00000000
,
00000001
00000100
00000010
00000000
00001000
00000100
00000001
00000000
,
00000011
00000000
00000000
00000000
00000100
00001000
00010000
00000000
,
01000000
00000000
00100000
00000000
01000000
00010000
10000000
00000000
,
10100000
00000000
00000000
00000000
00010000
10000000
00100000
00000000
,
01000000
00000000
00010000
00000000
00100000
00001000
00010000
00000000
,
00010100
00000000
00001010
00000000
00000001
00000100
00000010
00000000
,
00000110
00000000
00000000
00000000
00001000
00000001
00000100
00000000
,
00000101
00001010
00000200
00010300
,
00011000
00000000
01000000
00000000
00100000
00000000
10000000
00010000
,
00000000
00000000
00100000
00010000
00000000
00010000
01000000
00000000
,
00100000
00000000
10000000
00000000
01000000
00000000
10000000
00020000
,
00000000
00230000
00000000
00302000
00000000
00023000
00000000
00030000
,
00011000
00000000
00000010
00000000
00001000
00000000
00000001
00000100
,
00000000
00000000
00000001
00000010
00000000
00000010
00000100
00000000
,
00001000
00000000
00000010
00000000
00000100
00000000
00000010
00020000
,
00000000
00032000
00000000
00203000
00000000
02300000
00000000
03000000
,
11000000
00000000
10000000
00100000
00000000
10000000
00000000
00010000
,
00000000
00000000
01000000
00200000
00000000
00000000
00300000
00000000
,
01000000
00000000
00010000
00100000
00000000
00001000
00000000
00000200
,
00000000
00000302
00000000
00002003
00000000
00003200
00000000
00000300
,
00000110
00000000
00000010
00000001
00000000
00001000
00000000
00000010
,
00000000
00000000
00001000
00000200
00000000
00000000
00000300
00000000
,
00000010
00000000
00000001
00000100
00000000
00000010
00000000
00002000
,
00000000
00003200
00000000
00020300
00000000
00032000
00000000
00003000
,
00022000
00000000
00000000
00000000
,
00000000
00000000
00000000
00033000
;

//---------------dance-double - ----------------
#NOTES:
     dance-double:
     :
     Hard:
     11:
     :
00000000
00000000
00000000
00000000
,
00000000
00000000
00000000
00000000
,
00000000
00000000
00000000
00000000
,
00000000
00000000
00000000
00000000
,
00000000
00000000
00000000
00000000
,
00000110
00000000
00000000
00000001
00000100
00000010
00001000
00000100
,
00000001
00000100
00001000
00000010
00001000
00010000
01000000
10000000
,
00010000
00010000
00000000
00000000
01000000
00100000
10000000
00000000
,
01000000
10000000
00100000
10000000
00010000
00001000
00000100
00000000
,
00000100
00000001
00001000
00000000
00000010
00001000
00000001
00000010
,
00000001
00000100
00000010
00000100
00001000
00000100
00000001
00000000
,
00001000
00000010
00010000
00000100
00001000
00000100
00010000
00001000
,
01000000
00100000
00000000
10000000
01000000
00010000
00010000
00000000
,
01001000
00000000
00011000
00000000
00010000
00001000
00000010
00000000
,
00000011
00000000
00000100
00000010
00001000
00000001
00000010
00000100
,
00001000
00000000
00000010
00000200
00000000
00000301
00001000
00000000
,
00001100
00000000
00000010
00000100
00000010
00010000
00001000
01000000
,
00000000
01010000
00000000
11000000
00000000
01010000
00000000
00000000
,
01100000
00000000
00010000
01000000
00100000
10000000
01000000
00100000
,
00010000
00000000
01000000
00200000
00000000
10300000
01000000
00000000
,
00101000
00000000
00010000
00001000
00010000
00000010
00000100
00000001
,
00000000
00000011
00000000
00001010
00000000
00000011
00000000
00000000
,
00000100
00000010
00001000
00000001
00000100
00001000
00000100
00000001
,
00000010
00000000
00000001
00002000
00000000
00000000
00003000
00000000
,
00000010
00001000
00000100
00010000
01000000
10000000
00100000
01000000
,
00000000
01100000
00000000
10010000
00000000
01100000
00000000
00000000
,
01000000
00010000
00100000
10000000
00100000
00010000
01000000
00100000
,
10000000
00000000
00010000
02000000
00000000
00000000
03000000
00000000
,
00001000
00010000
00000010
00000100
00001000
00000100
00000001
00000010
,
00000000
00000011
00000000
00001100
00000000
00000011
00000000
00000000
,
00001001
00000000
00000000
00000010
00001000
00000100
00001000
00000001
,
00000100
00001000
00000100
00000010
00010000
00001000
01000000
00100000
,
10000000
10000000
00000000
01000000
00100000
00010000
00001000
00000000
,
00000100
00001000
00000010
00001000
00000100
00000010
00000001
00000000
,
00000101
00000000
00000000
00000010
00001000
00000001
00000100
00000000
,
00000010
00010000
00001000
00100000
00010000
01000000
10000000
00000000
,
00100000
10000000
01000000
00100000
10000000
00100000
00010000
00000000
,
01001000
00000000
00000000
00100000
01000000
00001000
00001000
00000000
,
00011000
00000000
00001010
00000000
00000100
00000001
00001000
00000000
,
00001001
00000000
00000010
00001000
00000100
00000001
00000100
00001000
,
00000010
00000000
00000100
00000002
00000000
00001003
00000100
00000000
,
00010100
00000000
00010000
00001000
00010000
01000000
10000000
00100000
,
00000000
10100000
00000000
01010000
00000000
11000000
00000000
00000000
,
01100000
00000000
00010000
01000000
00100000
00001000
00100000
01000000
,
00010000
00000000
00100000
00002000
00000000
00013000
00000100
00000000
,
00000110
00000000
00000001
00001000
00000010
00000100
00000010
00001000
,
00000000
00001100
00000000
00000011
00000000
00000101
00000000
00000000
,
00000100
00000010
00000100
00001000
00000100
00000001
00000010
00000100
,
00001000
00000000
00010000
02000000
00000000
00000000
03000000
00000000
,
10000000
00100000
01000000
10000000
01000000
00010000
00100000
01000000
,
00000000
01100000
00000000
00110000
00000000
01001000
00000000
00000000
,
00010000
00001000
00010000
00000100
00000010
00000001
00000100
00000010
,
00001000
00000000
00000001
00000020
00000000
00000000
00000030
00000000
,
00000001
00000100
00000010
00001000
00000100
00000010
00000001
00001000
,
00000000
00001010
00000000
00010100
00000000
00101000
00000000
00000000
,
00022000
00000000
00000000
00000000
,
00000000
00000000
00000000
00033000
;

//---------------dance-double - ----------------
#NOTES:
     dance-double:
     :
     Challenge:
     13:
     :
00000000
00000000
00000000
00000000
,
00000000
00000000
00000000
00000000
,
00000000
00000000
00000000
00000000
,
00000000
00000000
00000000
00000000
,
00000000
00000000
00000000
00000000
,
11000000
00000000
00000000
00000000
00000000
00000000
00100000
00000000
00100000
00000000
00010000
10000000
00000000
00010000
10000000
00000000
,
00100000
00000000
01000000
00000000
00010000
00000000
00100000
00000000
00001000
00010000
00000000
00001000
00010000
00000000
00000010
00000000
,
00000100
00000000
00000001
00000000
00000000
00000000
00000010
00000000
00000001
00000000
00001000
00000010
00000000
00001000
00000010
00000000
,
00000100
00000000
00001000
00000000
00000100
00000000
00000010
00000000
00010000
00000000
00001000
01000000
00000000
00001000
01000000
00000000
,
00100000
10000000
00000000
10000000
01000000
00000000
00000000
00000000
00100000
00010000
00000000
00010000
01000000
00000000
00100000
00000000
,
10000000
00000000
01000000
00000000
10000000
00000000
00010000
00000000
01000000
00100000
00000000
01000000
00100000
00000000
00000000
00000000
,
01000000
00000000
00001000
00000000
00010000
00000000
00000100
00000000
00000001
00000000
00000100
00001000
00000000
00001000
00000010
00000000
,
00000100
00000000
00000001
00000000
00000000
00000000
00000010
00000001
00000010
00000000
00000001
00001000
00000100
00000000
00000000
00000000
,
00010100
00000000
00000000
00000000
01001000
00000000
00000000
00000000
00001000
00010000
00001000
00010000
00001000
00000000
00000000
00000000
,
00011000
01000000
00100000
01000000
10000000
01000000
00010000
00100000
,
10000000
00100000
00010000
01000000
00100000
10000000
00010000
00100000
,
00001000
00010000
00000100
00000001
00000100
00001000
00000010
00000100
,
00001000
00000100
00000001
00000100
00010000
00000100
00000010
00000000
,
00001010
00000100
00001000
00010000
01000000
00100000
01000000
00010000
,
00100000
10000000
00100000
01000000
00100000
00001000
00010000
00000010
,
00000100
00001000
00000100
00000001
00000100
00000010
00001000
00000001
,
00000010
00000000
00001000
00000000
00100000
00000000
00010000
00000000
01000000
00000000
00100000
00000000
10000000
00000000
00010000
01000000
,
00100000
10000000
01000000
00100000
01000000
00010000
01000000
10000000
,
00100000
01000000
00100000
10000000
01000000
00100000
00001000
00000000
,
00010000
00000010
00000100
00000010
00000001
00000010
00001000
00000100
,
00000001
00000100
00010000
00000010
00010000
00001000
01000000
00000000
,
00100000
01000000
00100000
00001000
00100000
10000000
01000000
00100000
,
10000000
00100000
01000000
00100000
00010000
10000000
01000000
00000000
,
00100000
00001000
00010000
01000000
00010000
00001000
00000100
00000010
,
00001000
00000100
00000001
00000100
00001000
00000100
00000010
00000000
,
00000011
00000000
00000000
00000000
00000000
00000000
00001000
00000000
00001000
00000000
00000010
00000100
00000000
00000100
00000001
00000000
,
00000010
00000000
00000100
00000000
00001000
00000000
00000010
00010000
00000010
00000000
00000100
00000000
00000001
00001000
00000001
00000000
,
00000010
00000000
00000100
00000000
00000000
00000000
00010000
00000000
00001000
01000000
00000000
00100000
01000000
00000000
00000000
00000000
,
00100000
00000000
10000000
00000000
01000000
00000000
00100000
00000000
10000000
00000000
00100000
00010000
00000000
00010000
01000000
00000000
,
01010000
00000000
00000000
00000000
00000000
00000000
10000000
01000000
10000000
00000000
00100000
00000000
01000000
00000000
00000000
00000000
,
00010000
00000000
00100000
00000000
00010000
00000000
01000000
00000000
00100000
00000000
10000000
00010000
00000000
10000000
01000000
00000000
,
00100000
00000000
00010000
00000000
00000100
00000000
00000010
00000000
00001000
00000001
00000000
00000100
00000010
00000000
00000000
00000000
,
00010010
00000000
00000000
00000000
00000000
00000000
00010000
00001000
00010000
00000000
00000010
00001000
00000100
00000000
00000000
00000000
,
00000110
00000000
00000000
00000000
00010100
00000000
00000000
00000000
00001000
00010000
00001000
00010000
00001000
00000000
00000000
00000000
,
00101000
01000000
00010000
01000000
10000000
00100000
01000000
10000000
,
01000000
00100000
10000000
00010000
00100000
01000000
00001000
01000000
,
00100000
00010000
01000000
00001000
00010000
00000100
00000001
00000100
,
00000010
00000100
00000001
00000100
00001000
00000010
00000100
00000000
,
00000101
00001000
00000010
00000100
00010000
00000100
00000010
00001000
,
00000100
00000010
00000001
00000100
00000010
00010000
00001000
00100000
,
10000000
00100000
00010000
01000000
00100000
00001000
00100000
01000000
,
10000000
00000000
01000000
00000000
00100000
00000000
01000000
00000000
00001000
00000000
00100000
00000000
00010000
00000000
10000000
00010000
,
01000000
00100000
01000000
10000000
01000000
00001000
00010000
00000100
,
00000001
00000100
00010000
00000010
00000100
00001000
00000100
00000000
,
00000010
00001000
00000100
00000001
00000100
00010000
00000010
00001000
,
00010000
00001000
00000010
00010000
01000000
10000000
00010000
00000000
,
01000000
00100000
01000000
10000000
01000000
00010000
00100000
01000000
,
00001000
01000000
00100000
00001000
00010000
00000010
00000100
00000000
,
00000001
00001000
00000100
00000010
00010000
00000010
00000100
00010000
,
00001000
01000000
10000000
01000000
00010000
00100000
00001000
00000000
,
00022000
00000000
00000000
00000000
,
00000000
00000000
00000000
00033000
;

//---------------dance-solo - ----------------
#NOTES:
     dance-solo:
     :
     Easy:
     2:
     :
000000
000000
000000
000000
,
000000
000000
000000
000000
,
000000
000000
000000
000000
,
000000
000000
000000
000000
,
000000
000000
000000
000000
,
100000
000000
001000
000000
,
100000
000000
001000
000000
,
000001
000000
001000
000000
,
000001
000000
001000
000000
,
100000
000000
001000
000000
,
000001
000000
001000
000000
,
100000
000000
010000
000000
,
000001
000000
000010
000000
,
100000
000000
000000
000000
,
100000
001000
000100
000000
,
000001
001000
000100
000000
,
100000
001000
010000
000000
,
100001
001100
100001
000000
,
000001
001000
000100
000000
,
100000
001000
000100
000000
,
000001
001000
000010
000000
,
100001
001100
100001
000000
,
001000
000000
000000
000000
,
010000
000000
000000
000000
,
100000
000000
000000
000000
,
000001
000100
000010
000000
,
100000
000000
000000
000000
,
001000
000000
000000
000000
,
010000
000000
000000
000000
,
100000
000100
010000
000000
,
000010
000000
000100
000000
,
000001
000000
001000
000000
,
000100
000000
100000
000000
,
000001
000000
000100
000000
,
001000
000000
100000
000000
,
000001
000000
010000
000000
,
000010
000000
000100
000000
,
000001
000000
001000
000000
,
000100
000000
000000
000000
,
100000
001000
000100
000000
,
000001
001000
000100
000000
,
100000
010000
000001
000000
,
001100
100001
001100
000000
,
000001
000100
001000
000000
,
100000
000100
001000
000000
,
000010
100000
001000
000000
,
100001
001100
100001
000000
,
000010
000000
000000
000000
,
000100
000000
000000
000000
,
010000
000000
000000
000000
,
000100
001000
000001
000000
,
100000
000000
000000
000000
,
001000
000000
000000
000000
,
000100
000000
000000
000000
,
000001
000010
100000
000000
,
100001
000000
000000
000000
;

//---------------dance-solo - ----------------
#NOTES:
     dance-solo:
     :
     Medium:
     5:
     :
000000
000000
000000
000000
,
000000
000000
000000
000000
,
000000
000000
000000
000000
,
000000
000000
000000
000000
,
000000
000000
000000
000000
,
010000
000000
000000
000000
000001
000100
000001
000000
,
000010
000000
000000
000000
100000
000100
100000
000000
,
001000
000000
000000
000000
000100
000010
000100
000000
,
010000
001000
000100
000001
,
010000
000000
000000
000000
000001
000100
000001
000000
,
000010
000000
000000
000000
100000
000100
100000
000000
,
001000
000000
000000
000000
000100
000010
000100
000000
,
010000
000000
001000
000100
,
100001
000000
000000
000000
,
010000
000000
001000
000000
000100
000001
001000
000000
,
000010
000000
001000
000000
000100
100000
001000
000000
,
000001
000000
001000
000000
000100
100000
010000
000000
,
000010
000100
000001
000000
100000
001000
100000
000000
,
000001
000000
000100
000000
001000
010000
000001
000000
,
001000
000000
000100
000000
100000
001000
010000
000000
,
000001
000000
001000
000000
000100
100000
010000
000000
,
000010
000100
000010
000000
100000
000100
001000
000000
,
000001
001000
000100
001000
,
000001
100000
001000
000000
,
010000
000001
000100
000001
,
010000
001000
000100
000000
,
000001
001000
000100
001000
,
000001
100000
001000
000000
,
010000
000001
000100
000001
,
010000
001000
000100
000000
,
000001
000000
000000
000000
010000
000100
010000
000000
,
000010
000000
000000
000000
100000
001000
100000
000000
,
000001
000000
000000
000000
000100
001000
010000
000000
,
000001
001000
000100
100000
,
000010
000000
000000
000000
001000
000100
100000
000000
,
001000
000000
000000
000000
010000
000001
000100
000000
,
001000
000000
000000
000000
000010
100000
000100
000000
,
001000
000000
000001
100000
,
001100
000000
000000
000000
,
000001
000000
000100
000000
001000
010000
001000
000000
,
100000
000000
000100
000000
001000
000010
001000
000000
,
000001
000000
100000
000000
001000
000100
000001
000000
,
010000
000100
010000
000000
000010
000100
000010
000000
,
010000
000000
001000
000000
000100
001000
000100
000000
,
000001
000000
001000
000000
000100
100000
010000
000000
,
000001
000000
000100
000000
001000
010000
000001
000000
,
100000
000100
001000
000000
000100
000001
001000
000000
,
010000
000001
001000
000001
,
100000
001000
010000
000000
,
000001
100000
000100
001000
,
000010
100000
000001
000000
,
010000
001000
000100
000001
,
010000
001000
000100
000000
,
000001
001000
000100
100000
,
001000
010000
000100
000000
,
100001
000000
000000
000000
;

//---------------dance-solo - ----------------
#NOTES:
     dance-solo:
     :
     Hard:
     6:
     :
000000
000000
000000
000000
,
000000
000000
000000
000000
,
000000
000000
000000
000000
,
000000
000000
000000
000000
,
000000
000000
000000
000000
,
100000
000001
100000
001000
000100
000001
000001
000000
,
100000
000010
100000
000001
000100
000010
000010
000000
,
010000
000001
010000
000100
100000
000001
000001
000000
,
001000
000010
001000
000100
100000
000001
000001
000000
,
010000
001000
010000
001000
000100
000001
000001
000000
,
001000
000010
001000
000100
100000
000001
000001
000000
,
010000
001000
010000
001000
000100
000001
000001
000000
,
100000
000000
000000
000000
000100
010000
000001
000000
,
001100
000000
000000
000000
,
100000
000000
000001
000100
000010
001000
000100
000000
,
100000
000000
000001
000100
000010
001000
000100
000000
,
100000
000000
001000
000100
000001
001000
000010
000010
,
000000
100001
000000
001100
000000
100001
000000
000000
,
010000
000000
001000
000100
000001
001000
000100
000000
,
100000
000000
001000
000100
000001
001000
000010
000000
,
100000
000000
000100
010000
001000
000100
000001
001000
,
000000
001100
000000
100001
000000
001100
000000
000000
,
100000
000000
001000
000100
000000
000100
000000
000100
,
000000
000000
000001
000010
000000
000000
000000
000000
,
100000
000000
000100
001000
000000
001000
000000
100001
,
000000
001100
000000
100001
000000
001100
000000
000000
,
000001
000000
000100
001000
000000
001000
000000
001000
,
000000
000000
010000
000001
000000
000000
000000
000000
,
100000
000000
000100
001000
000000
001000
000000
100001
,
000000
001100
000000
100001
000000
001100
000000
000000
,
100000
000001
100000
001000
000100
000001
000001
000000
,
010000
001000
000100
000001
001000
000001
000001
000000
,
000100
001000
100000
000100
001000
000010
000010
000000
,
100000
001000
000100
000001
001000
000010
000010
000000
,
100000
000100
001000
000001
000100
001000
001000
000000
,
010000
000001
000100
001000
010000
000001
000001
000000
,
100000
000100
001000
000010
100000
000100
000100
000000
,
001000
000000
000000
000000
000001
000100
001000
000000
,
100001
000000
000000
000000
,
000100
000000
001000
010000
000001
100000
000010
000000
,
001000
000000
000100
100000
000010
010000
000001
000000
,
000100
000000
001000
010000
000001
100000
000010
001000
,
000000
100001
000000
101000
000000
001001
000000
000000
,
100000
000000
000100
001000
000010
100000
000001
000000
,
000100
000000
001000
010000
000001
100000
000100
000000
,
001000
000000
000010
100000
001000
000100
000001
001000
,
000000
001100
000000
100001
000000
001100
000000
000000
,
100000
000000
001000
000100
000000
000001
000000
001000
,
000000
000000
000010
001000
000000
000000
000000
000000
,
100000
000000
001000
000100
000000
000001
000000
000101
,
000000
100001
000000
101000
000000
100001
000000
000000
,
000100
000000
001000
010000
000000
000001
000000
100000
,
000000
000000
000100
001000
000000
000000
000000
000000
,
000010
000000
100000
000001
000000
010000
000000
001100
,
000000
101000
000000
100001
000000
001001
000000
000000
,
100001
000000
000000
000000
;
