#TITLE:TELEPHONE OPERATOR (Club MIX);
#ARTIST:PETE SHELLEY;
#BANNER:TELEPHONE OPERATOR (Club MIX)-bn.png;
#BACKGROUND:TELEPHONE OPERATOR (Club MIX)-bg.png;
#JACKET:TELEPHONE OPERATOR (Club MIX)-jacket.png;
#MUSIC:TELEPHONE OPERATOR (Club MIX).ogg;
#SAMPLESTART:69.02;
#SAMPLELENGTH:20;
#DISPLAYBPM:139:150;
#BPMS:0=145.606,4=145.161,12=146.667,23=145.161,24=145.749,28=145.946,31=142.857,32=145.985,92=146.341,112=144.578,116=146.045,124=150,128=146.341,132=145.161,138=146.58,143=145.161,144=145.455,152=145.749,156=146.143,168=150,169=145.474,184=150,185=146.279,204=138.587,205=147;
#STOPS:132=0.833,134=0.827,136=0.82,138=0.82,156=1.233;
#BGCHANGES:0=TELEPHONE OPERATOR (Club MIX).mp4=1=0=0=0,
;

//---------------dance-single - ----------------
#NOTES:
     dance-single:
     :
     Beginner:
     2:
     :
0000
0000
0000
0000
,
0000
0000
0000
0000
,
0000
0000
0000
0000
,
0000
0000
0000
0000
,
0000
0000
0000
0000
,
0001
0000
0001
0000
,
0001
0000
0001
0000
,
1000
0000
1000
0000
,
1000
1000
1000
0000
,
0010
0000
0100
0000
,
0001
0000
0000
0000
,
1000
0000
0001
0000
,
0100
0000
0000
0000
,
0010
0000
0010
0000
,
0010
0000
0000
0000
,
1000
0000
0100
0000
,
1000
0000
0000
0000
,
0001
0000
0010
0000
,
0001
0000
0000
0000
,
0100
0000
0010
0000
,
0100
0000
0000
0000
,
0001
0000
1000
0000
,
0010
0010
0010
0000
,
1000
0000
0001
0000
,
0100
0100
0100
0000
,
0110
0000
0000
0000
,
1001
0000
0000
0000
,
0110
0000
0000
0000
,
1001
0000
0000
0000
,
0001
0000
0000
0000
,
0010
0000
0000
0000
,
0100
0000
0000
0000
,
1000
1000
1000
0000
,
1001
0000
0110
0000
,
1001
0000
0110
0000
,
1000
0000
0000
0000
,
0001
0000
0000
0000
,
1000
0000
0010
0000
,
0100
0100
0100
0000
,
0110
0001
0000
1000
,
0000
0001
0000
0000
,
0000
0010
0000
0100
,
0000
1000
0000
0000
,
0000
0001
0000
0001
,
0000
0100
0000
0000
,
0000
0010
0000
0010
,
0000
0100
0000
0000
,
0000
0001
0000
1000
,
0000
0010
0010
0010
,
0000
1000
0000
0001
,
0000
0100
0100
0100
,
0000
0010
0000
0100
,
0000
1001
0000
0000
;

//---------------dance-single - ----------------
#NOTES:
     dance-single:
     :
     Easy:
     5:
     :
0000
0000
0000
0000
,
0000
0000
0000
0000
,
0000
0000
0000
0000
,
0000
0000
0000
0000
,
0000
0000
0000
0000
,
0001
0000
1000
0000
,
0001
0000
1000
0000
,
0001
0001
0001
0001
,
1000
1000
0100
0100
,
0001
0000
0001
0000
,
1000
0000
1000
0000
,
0001
0000
0100
0000
,
1000
0000
0100
0000
,
0001
0000
1000
0000
,
0001
0000
1000
0000
,
1000
0000
0100
0000
,
0010
0010
0010
0000
,
0002
0000
0000
0000
,
0000
0000
0000
0003
,
2000
0000
0000
0000
,
0000
0000
0000
3000
,
0010
0000
0010
0000
,
0010
0010
0010
0010
,
0010
0010
0010
0010
,
0010
0010
0010
0010
,
0020
0000
0000
0030
,
0020
0000
0000
0030
,
0001
0000
1000
0000
,
0001
0000
1000
0000
,
0001
1000
0001
1000
,
0010
0100
0010
0100
,
0001
1000
0001
1000
,
0001
0000
0000
0000
,
1001
0000
0100
0000
,
1001
0000
0100
0000
,
2000
0000
0000
3000
,
0002
0000
0000
0003
,
0010
0000
0010
0000
,
0010
0010
0010
0010
,
1001
0100
0000
0100
,
0000
1000
0000
0001
,
0000
0100
0000
0100
,
0000
1000
0000
0001
,
0000
0100
0000
0100
,
0000
1000
0000
0001
,
0000
0100
0000
0100
,
0000
1000
0000
0001
,
0000
0100
0100
0100
,
0100
0100
0100
0100
,
0100
0100
0100
0100
,
0100
0200
0000
0000
,
0000
0000
0300
0001
,
0000
0200
0000
0000
,
0000
0300
0000
0000
,
0000
0000
0000
0000
;

//---------------dance-single - ----------------
#NOTES:
     dance-single:
     :
     Medium:
     7:
     :
0000
0000
0000
0000
,
0000
0000
0000
0000
,
0000
0000
0000
0000
,
0001
0001
0001
0001
,
1000
1000
1000
1000
,
0001
1000
0001
1000
,
0001
1000
0001
1000
,
0010
0010
0010
0010
,
0001
1000
0001
1000
0001
1000
0001
1000
,
0001
0001
0001
0001
,
0001
0000
0001
0000
0001
1000
0100
0000
,
0001
0001
0001
0001
,
0001
0000
0001
0000
0001
1000
0100
0000
,
0001
0001
1000
0001
,
0001
0000
0001
0000
0001
1000
0100
0000
,
0001
0001
1000
0001
,
0101
0000
0001
0000
0001
1000
0000
0000
,
0001
0001
1000
0001
,
0001
0000
0001
0000
0001
1000
0100
0000
,
0001
0001
1000
0001
,
0001
0000
0001
0000
0001
1000
0100
0000
,
0100
0000
0100
0000
0100
0000
0100
1000
,
0000
0001
1000
0000
0001
1000
0000
0001
,
1000
0000
0001
1000
0000
0001
1000
0000
,
0001
0100
0001
0100
0001
0100
0001
0100
,
0001
0001
0001
0001
,
1000
1000
1000
1000
,
0010
0010
0010
0010
,
0100
0100
0100
0100
,
0001
1000
0001
1000
,
0010
0100
0010
0100
,
0001
1000
0001
1000
,
0220
0000
0000
0330
,
1001
0000
0000
0010
0100
0000
0000
0000
,
1001
0000
0000
0010
0100
0000
0000
0000
,
2000
0000
0000
3000
,
0002
0000
0000
0003
,
0020
0030
0200
0300
,
1000
0001
1000
1001
,
1001
0001
0001
0001
,
0001
0000
0001
0000
0001
0000
0001
1000
,
0100
0001
0001
0001
,
0001
0000
0001
0000
0001
0000
0001
1000
,
0100
0001
0001
1000
,
0001
0000
0001
0000
0001
0000
0001
1000
,
0100
0001
0001
1000
,
0001
0000
0001
0000
0001
0000
0001
1000
,
0100
0100
0100
0100
,
0100
1000
0000
0001
1000
0000
0001
1000
,
0000
0001
1000
0000
0001
1000
0000
0001
,
1000
0001
0001
0001
,
0001
0001
0001
0002
,
0000
2000
0000
0000
,
0000
3003
0000
0000
,
0000
0000
0000
0000
;

//---------------dance-single - ----------------
#NOTES:
     dance-single:
     :
     Hard:
     11:
     :
0000
0000
0000
0000
,
0000
0000
0000
0000
,
0000
0000
0000
0000
,
0001
0001
1000
0100
1000
0100
1000
0100
,
0001
0001
1000
0100
1000
0100
1000
0100
,
0001
1000
0100
0000
1000
0001
0100
0000
,
0001
1000
0100
0000
1000
0001
0100
0000
,
0001
1000
0001
1000
0001
1000
0001
1000
,
0001
0001
1000
1000
0010
0010
0100
0100
,
0101
0000
0101
0000
0001
1000
0100
1000
,
0001
1000
0100
1000
0010
1000
0100
0000
,
1000
0000
1000
0000
0001
0100
0001
1000
,
0001
0100
0001
1000
0010
1000
0100
0000
,
0001
0000
0001
0000
1000
0000
0010
0100
,
0000
0001
0000
1000
0000
0100
0100
0000
,
0001
0000
0001
0000
1000
0000
0010
0100
,
0000
0001
0000
1000
0000
0100
0100
0000
,
1000
0000
1000
0000
0101
0000
0010
1000
,
0100
1000
0001
1000
0010
1000
0100
0000
,
1000
0000
1000
0000
0101
0000
0010
1000
,
0100
1000
0001
1000
0010
1000
0100
0000
,
0100
0000
0100
0000
0100
0100
0100
0100
,
0000
1001
1001
0000
1001
1001
0000
0100
,
0100
0000
1001
1001
0000
1001
1001
0000
,
0010
1000
0010
0100
0010
1000
0010
0100
,
0220
0000
0000
0330
,
2002
0000
0000
3003
,
0010
1000
0100
0001
0100
1000
0010
0100
,
0001
0100
1000
0100
0001
1000
0100
0100
,
0010
0001
0100
1000
0100
0010
1000
0100
,
0010
0001
0010
1000
0010
0001
0100
0100
,
0001
1000
0100
0010
0001
0010
1000
0010
,
0020
0000
0000
0030
,
1001
0000
0000
0010
0010
0000
0000
0000
,
0110
0000
0000
1000
1000
0000
0000
0000
,
0010
0010
1000
1000
0100
0100
0010
0010
,
0001
0001
0010
0010
1000
1000
0010
0010
,
0001
0001
0100
0100
1000
1000
1000
1000
,
0100
0001
0100
0001
0100
0001
0100
0001
,
1000
0000
1001
0000
1001
0000
0010
1000
,
0100
0001
0100
1000
0010
0100
0001
0010
,
0110
0000
1001
0000
1001
0000
0100
0010
,
0001
0010
1000
0010
0001
0100
1000
0100
,
0101
1001
1001
0010
,
1000
0100
0010
0001
0100
0001
1000
0100
,
0010
1001
1001
0010
,
0001
0100
0010
1000
0100
1000
0001
0100
,
0010
0000
1001
0000
1001
0000
1001
1001
,
1001
1001
0000
0010
0010
0000
1000
1000
,
0000
0100
0100
0000
0001
0001
0000
0010
,
0010
0000
0100
0100
0100
0100
0100
0100
,
0100
0100
0100
0100
0100
0000
0010
0000
,
0000
2002
0000
0000
,
0000
3003
0000
0000
,
0000
0000
0000
0000
;

//---------------dance-single - ----------------
#NOTES:
     dance-single:
     :
     Challenge:
     13:
     :
0000
0000
0000
0000
,
0000
0000
0000
0000
,
0000
0000
0000
0000
,
0000
0000
0000
0000
,
0000
0000
0000
0000
,
0001
0100
0001
0100
1000
0100
1000
0100
,
0001
0010
0001
0010
1000
0010
1000
0010
,
0001
0100
1000
0100
0001
0010
1000
0010
,
0001
0001
0001
0001
0001
0001
0001
0001
,
1000
0100
0001
0100
1000
0010
0100
0001
,
0010
0100
1000
0000
0001
0200
0000
0310
,
0100
1000
0100
0001
0100
0010
1000
0001
,
0010
1000
0010
0001
0100
0020
0000
1030
,
0010
0001
0010
1000
0110
0001
1000
0010
,
0100
0001
0010
0100
0000
2000
0000
3001
,
0010
1000
0010
0100
0010
0001
0100
1000
,
0101
0000
1010
0000
1100
0000
0011
1000
,
1000
0010
0001
0010
0110
1000
0100
0001
,
0100
1000
0001
0010
0001
2000
0000
3010
,
0010
0100
0001
1000
0110
0100
0010
1000
,
0001
0010
1000
0001
0100
2000
0000
3001
,
0001
0100
0010
0100
1000
0100
0001
0010
,
0000
0011
0011
0000
1100
1100
0000
0101
,
0101
0000
1100
1100
0000
1001
1001
0100
,
0010
0100
1000
0100
0001
0100
0010
1000
,
1100
0001
1000
1010
0000
0001
0100
0001
,
0011
0100
1000
1001
0000
0010
1000
0001
,
1010
0100
0001
0011
0000
0100
1000
0001
,
0110
0001
1000
1100
0000
0010
0001
0100
,
1001
0010
1000
0101
0000
1000
0100
0001
,
0011
1000
0100
0110
0000
1000
0001
0010
,
1100
0010
0100
0101
0000
1000
0001
0010
,
0110
0110
1001
1001
0110
1001
0110
0000
,
0202
0000
0303
1001
2200
0000
3300
0000
,
2020
0000
3030
1001
0022
0000
0033
0000
,
1000
1000
0010
0010
0001
0001
0100
0100
,
0010
0010
1000
1000
0001
0001
0100
0100
,
0001
0001
0010
0010
0100
0100
1000
1000
,
1100
1100
0101
0101
1100
0101
1100
0000
,
2002
3003
0001
0010
1000
0010
0001
0100
,
0010
1000
0100
0010
0001
0100
0001
0020
,
0000
0130
0010
0100
1000
0010
0001
0010
,
1000
0001
0100
1000
0100
0010
0100
1000
,
0100
0001
1000
0010
0100
1000
0110
0001
,
0010
1000
0010
0001
0100
0001
1000
0200
,
0000
0310
0100
1000
0001
0100
0110
0001
,
0010
1000
0100
0010
0001
0100
0001
2000
,
0000
3010
0010
0100
1000
0100
0010
0100
,
0001
1000
0000
0011
0011
0000
1100
1100
,
0000
0101
0101
0000
0011
0011
0000
1001
,
1001
0100
1000
0100
0001
0100
0010
1000
,
0100
0010
0001
0100
0010
1000
1001
0100
,
0010
0001
2200
0000
0000
0000
0000
0000
,
0000
0000
0000
0000
,
3300
0000
0000
0000
;

//---------------dance-double - ----------------
#NOTES:
     dance-double:
     :
     Easy:
     5:
     :
00000000
00000000
00000000
00000000
,
00000000
00000000
00000000
00000000
,
00000000
00000000
00000000
00000000
,
00000000
00000000
00000000
00000000
,
00000000
00000000
00000000
00000000
,
00100000
00000000
00100000
00000000
,
00001000
00000000
00010000
00000000
,
00001000
00001000
00000100
00000100
,
00000001
00000001
00000010
00001001
,
00000000
00000101
00000000
00000101
,
00000000
00001000
00000000
00001000
,
00000000
00011000
00000000
00011000
,
00000000
01000000
00000000
01000000
,
00000000
10010000
00000000
10010000
,
00000000
00001000
00000000
00010000
,
00000000
00001010
00000000
00001010
,
00001000
00010000
00000000
00000000
,
00000000
00100000
00000000
00100000
,
00000000
00000000
00011000
00011000
,
00000000
00000100
00000000
00000100
,
00000000
00000000
00011000
00011000
,
00000000
00100000
00100000
00100000
,
00001000
00010000
00001000
00010000
,
00001000
00010000
00001000
00010000
,
00001000
00000100
00000100
00000100
,
00000200
00000000
00000000
00000300
,
00000002
00000000
00000000
00000000
,
00000000
00000000
00000000
00000003
,
00000000
00000100
00000000
00000100
,
00000000
00001000
00000000
00001000
,
00000000
00010000
00000000
00010000
,
00000000
01000000
00000000
01000000
,
10000000
00000000
00000000
00000000
,
00011000
00000000
00000010
00000000
,
00011000
00000000
01000000
00000000
,
10010000
01000000
00010000
00001000
,
00011000
00001000
00000100
00000001
,
00001001
00000100
00010100
00001000
,
00011000
00010000
01000000
10000000
,
00010000
10000000
00000000
10000000
,
00000000
01000000
01000000
00010000
,
00001000
00000100
00000000
00000100
,
00000000
00000001
00000001
00000100
,
00001000
00010000
00000000
00010000
,
00000000
01000000
01000000
10000000
,
00100000
00010000
00000000
00010000
,
00000000
00001000
00000010
00000001
,
00000100
00000001
00001000
00000001
,
00001000
00000000
00000100
00000000
,
00010000
00000000
00001000
00000000
,
00100000
01000000
01000000
01000000
,
01000000
00010000
00001000
00010000
,
00000000
00000010
00000000
00000000
,
00000000
00000000
00000000
00000000
;

//---------------dance-double - ----------------
#NOTES:
     dance-double:
     :
     Medium:
     6:
     :
00000000
00000000
00000000
00000000
,
00000000
00000000
00000000
00000000
,
00000000
00000000
00000000
00000000
,
00100000
10000000
01000000
00010000
,
00001000
00000100
00000001
00000010
,
00000100
00000100
00010000
00010000
,
00001000
00001000
01000000
01000000
,
00100000
10000000
01000000
00010000
,
00001000
00000000
00001000
00000000
00001000
00000100
00000001
00000000
,
00000001
00001000
00000001
00000100
,
00001000
00000000
00010000
00000000
00000000
01000000
01000000
00000000
,
10000000
00010000
10000000
01000000
,
00010000
00000000
00001000
00000000
00000000
00000100
00000100
00000000
,
00000001
00000001
00001000
00000100
,
00010000
00000000
00001000
00000000
00010000
01000000
01000000
00000000
,
10000000
10000000
00010000
01000000
,
00001000
00000000
00010000
00000000
00001000
00000100
00000100
00000000
,
00000001
00000001
00000001
00000001
,
00001000
00000000
00000100
00000000
00010000
00001000
00001000
00000000
,
00100000
00100000
00100000
00100000
,
00001000
00000000
00010000
00000000
00000100
00001000
00001000
00000000
,
00000001
00000001
00000001
00000001
,
00000100
00000100
00000100
00000100
,
00001000
00001000
00010000
00010000
,
01000000
10000000
00100000
00010000
,
00010100
00011000
00000100
00000001
,
00001001
00000101
00001000
00010000
,
01000000
10000000
00100000
00010000
,
00001000
00000010
00000001
00000100
,
00001000
00001000
00010000
00010000
,
01000000
01000000
10000000
10000000
,
00100000
00010000
00001000
00000010
,
00000002
00000000
00000000
00000003
,
00000110
00000000
00000000
00010000
00001000
00000000
00000000
00000000
,
01100000
00000000
00000000
10000000
00010000
00000000
00000000
00000000
,
00100000
10000000
01000000
00010000
,
00000010
00001000
00000001
00000100
,
00000010
00001000
00000010
00001000
,
00000010
00000100
00001000
00010000
,
01000000
10000000
10000000
10000000
,
10000000
00000000
01000000
00000000
00010000
00000000
00000000
00001000
,
00001000
00000010
00000001
00000100
,
00001000
00000000
00010000
00000000
01000000
00000000
00000000
10000000
,
10000000
01000000
00010000
00001000
,
00000000
00000000
00000100
00000000
00000001
00000000
00000000
00001000
,
00001000
00000001
00000100
00001000
,
00000000
00000000
00010000
00000000
01000000
00000000
00000000
10000000
,
10000000
00100000
00100000
00100000
,
00100000
00010000
10000000
01000000
,
01000000
00010000
00001000
00000100
,
00000100
00000001
00000001
00000001
,
00000001
00000010
00001000
00010000
,
00100000
20000000
00000000
00000000
,
00000000
30000000
00000000
00000000
,
00000000
00000000
00000000
00000000
;

//---------------dance-double - ----------------
#NOTES:
     dance-double:
     :
     Hard:
     11:
     :
00000000
00000000
00000000
00000000
,
00000000
00000000
00000000
00000000
,
00000000
00000000
00000000
00000000
,
00100000
10000000
01000000
00010000
,
00001000
00000100
00000001
00000010
,
00000010
00000010
00000001
00000001
00000100
00000100
00001000
00001000
,
00010000
00010000
01000000
01000000
10000000
10000000
00100000
00100000
,
10000000
10000000
01000000
01000000
00010000
00010000
00001000
00001000
,
00000100
00000100
00000100
00000100
00000100
00000100
00000100
00000100
,
00000100
00001000
00010000
01000000
,
10000000
10000000
00010000
00010000
00000000
01000000
01000000
00000000
,
10000000
01000000
00010000
00001000
,
00000100
00000100
00000001
00000001
00000000
00001000
00001000
00000000
,
00000010
00000100
00000010
00000100
00000001
00001000
00000001
00001000
,
00000010
00000100
00000010
00000100
00000000
00001000
00001000
00000000
,
00010000
00001000
00010000
00001000
00010000
01000000
00010000
01000000
,
10000000
01000000
10000000
01000000
00000000
10000000
10000000
00000000
,
00100000
10000000
00100000
10000000
00010000
00100000
00010000
00100000
,
00001000
00010000
00001000
00010000
00000000
00000010
00000010
00000000
,
00000100
00000001
00000100
00000001
00001000
00000100
00001000
00000100
,
00010000
00001000
00010000
00001000
00000000
01000000
01000000
00000000
,
00100000
00000000
00100000
00000000
10000000
10000000
10000000
10000000
,
00000000
00010000
00010000
00000000
01000000
01000000
00000000
00001000
,
00001000
00000000
00010000
00010000
00000000
00000010
00000010
00000000
,
00000100
00000100
00000001
00000001
00001000
00001000
00000100
00000100
,
00010000
00000000
00000000
00000000
00001000
00001000
00001000
00000000
,
10000000
00000000
00000000
00000000
01000000
01000000
01000000
00000000
,
00001000
00000000
00000000
00000000
00010000
00010000
00010000
00000000
,
00000001
00000000
00000000
00000000
00000100
00000100
00000100
00000000
,
00000010
00000010
00000100
00000100
00001000
00001000
00010000
00010000
,
01000000
01000000
10000000
10000000
00100000
00100000
00010000
00010000
,
00001000
00001000
00000010
00000010
00000001
00000001
00000100
00000100
,
00002000
00000000
00000000
00003000
,
00010000
00000000
00000000
00100000
00100000
00000000
00000000
00000000
,
00001000
00000000
00000000
00000100
00000100
00000000
00000000
00000000
,
00000001
00000001
00000001
00001000
00001000
00001000
00000100
00000100
,
00010000
00010000
00010000
00001000
00001000
00001000
01000000
01000000
,
00100000
00100000
00100000
10000000
01000000
01000000
01000000
00010000
,
00001000
00001000
00000100
00000100
00000001
00000001
00000100
00000100
,
00001000
00010000
00100000
10000000
,
01000000
00000000
00010000
00010000
00001000
00001000
00000000
00000100
,
00000100
00000001
00000010
00001000
,
00010000
00000000
00100000
00100000
10000000
10000000
00000000
01000000
,
01000000
00000000
00010000
00010000
00001000
00001000
00000200
00000000
,
00000300
00000000
00001000
00001000
00010000
00010000
02000000
00000000
,
03000000
00000000
10000000
10000000
01000000
01000000
00020000
00000000
,
00030000
00000000
00001000
00001000
00010000
00010000
00000020
00000000
,
00000030
00000000
00000100
00000000
00001000
00000000
00010000
00010000
,
00010000
00020000
00000000
01000000
01000000
00000000
00001000
00001000
,
00000000
01000000
01000000
00000000
00001000
00001000
00000000
01000000
,
01030000
10000000
00200000
00310000
,
00002000
00003010
00000002
00000203
,
00000000
00020000
00000000
00000000
,
00000000
00030300
00000000
00000000
,
00000000
00000000
00000000
00000000
;
