#VERSION:0.83;
#TITLE:TAMAYURA;
#SUBTITLE:;
#ARTIST:Hirofumi Sasaki;
#TITLETRANSLIT:;
#SUBTITLETRANSLIT:;
#ARTISTTRANSLIT:;
#GENRE:;
#ORIGIN:;
#CREDIT:;
#BANNER:TAMAYURA-bn.png;
#BACKGROUND:TAMAYURA-bg.png;
#PREVIEWVID:;
#JACKET:TAMAYURA-jacket.png;
#CDIMAGE:;
#DISCIMAGE:;
#LYRICSPATH:;
#CDTITLE:;
#MUSIC:TAMAYURA.ogg;
#OFFSET:0.555556;
#SAMPLESTART:26.111000;
#SAMPLELENGTH:20.000000;
#SELECTABLE:YES;
#DISPLAYBPM:180.000000;
#BPMS:0.000=180.000;
#STOPS:;
#DELAYS:;
#WARPS:;
#TIMESIGNATURES:0.000=4=4;
#TICKCOUNTS:0.000=4;
#COMBOS:0.000=1;
#SPEEDS:0.000=1.000=0.000=0;
#SCROLLS:0.000=1.000;
#FAKES:;
#LABELS:0.000=Song Start;
#BGCHANGES:;
#KEYSOUNDS:;
#ATTACKS:
;

//---------------dance-single - ----------------
#NOTEDATA:;
#CHARTNAME:;
#STEPSTYPE:dance-single;
#DESCRIPTION:;
#CHARTSTYLE:;
#DIFFICULTY:Hard;
#METER:13;
#RADARVALUES:0.560553,0.816119,0.243550,0.261591,0.063143,435.000000,408.000000,27.000000,29.000000,0.000000,0.000000,0.000000,0.000000,0.000000,0.560553,0.816119,0.243550,0.261591,0.063143,435.000000,408.000000,27.000000,29.000000,0.000000,0.000000,0.000000,0.000000,0.000000;
#CREDIT:;
#DISPLAYBPM:180.000000;
#NOTES:
0000
0000
0000
0000
,
0000
0000
0000
0000
,
0000
0000
0000
0000
,
0000
0000
0000
0000
,
0000
0000
0000
0000
,
0000
0000
0000
0000
,
0000
0000
0000
0000
,
0000
0000
0000
0000
,
0000
0000
0000
0000
,
0000
0000
0000
0000
,
0000
0000
0000
0000
,
0000
0000
0000
0000
,
0000
2000
0000
0000
,
0000
0000
0002
0000
,
0000
0000
3000
0200
,
0003
0000
0000
0310
1000
0100
0000
1000
,
0000
0000
0001
0000
0000
0000
0100
0000
0000
0000
0000
0020
0000
0000
0000
0000
,
0000
1000
0000
0000
0100
0000
0030
0000
,
2002
0000
0000
0000
,
0000
0000
0000
3003
,
0001
0100
0010
0100
0001
0000
1000
0100
,
0001
0100
1000
0000
0010
0110
0000
0101
,
0000
1000
1000
0100
0010
0100
0001
0100
,
1000
0001
0001
0000
0100
0010
1000
0000
,
0001
1000
0010
1000
0001
0000
1000
0100
,
0001
0100
1000
0000
0010
0110
0000
1010
,
0000
0001
0001
1000
0100
0001
0100
1000
,
0100
0010
0010
0001
2000
0001
3001
0000
,
0100
0001
0100
0010
1000
0000
0001
0100
,
0000
0000
0010
0000
0010
0000
1000
0000
0001
0000
0000
0100
0000
0000
0010
0000
,
1000
0100
0001
0100
0010
0100
1000
0010
,
0100
0000
1000
0000
0100
0000
0001
0000
0100
0000
0000
0010
0000
0010
0000
0000
,
1000
0100
0010
0001
0100
0000
0001
1000
,
0000
0000
0001
0000
0100
0000
0010
0000
1000
0000
0000
0100
0010
0000
0000
0000
,
0011
0001
1000
0000
1010
0100
0000
0001
,
1000
0010
0100
0010
2000
0001
3001
0000
,
1000
0100
0001
0100
1000
0000
0001
0100
,
0010
1000
0100
0000
1000
1100
0000
0101
,
0000
0001
0010
0100
1000
0010
0001
0010
,
1000
0100
0100
0000
0010
0001
1000
0000
,
0001
0100
0010
1000
0001
0000
1000
0100
,
0001
0100
1000
0000
0010
1000
1000
0001
,
0200
0000
0320
0000
2030
0001
3002
0000
,
0023
0001
0001
0000
1000
0000
0130
0000
,
0110
0001
1000
0010
1000
0100
0001
0000
,
0110
0001
1000
0010
1000
0100
0001
0000
,
0020
0001
0031
0010
0001
0100
1000
0000
,
1010
0001
1000
0001
0200
0010
0310
0000
,
1001
0010
1000
0100
1000
0001
0100
0000
,
0001
0010
0001
0100
0010
1000
0100
0000
,
1000
0100
0001
0000
0010
0001
0100
0000
,
0001
0010
1000
0010
0002
0100
0103
0000
,
0202
0300
2000
3003
,
2020
0000
0000
0030
,
3002
0010
0010
0013
0001
0100
0010
1000
,
0100
0001
0100
1000
0010
0100
0001
1000
,
0100
0010
0100
1000
0010
0001
0010
0100
,
0010
0001
0010
1000
0100
0010
0100
1000
,
0001
0100
0010
1000
0100
0010
0001
0100
,
1000
0100
0001
0010
0001
0100
0010
1000
,
0100
0010
0001
1000
0010
1000
0100
0001
,
0100
1000
0010
0001
0010
0100
0010
1000
,
1100
0000
0000
0110
0000
0000
0011
0000
0000
0110
0000
0000
1100
0000
0000
0000
,
0101
0000
0000
1001
0000
0000
1010
0000
0000
1001
0000
0000
0101
0000
0000
0000
,
0010
1000
0100
0001
1000
0000
0001
0010
,
1000
0001
0100
0000
0010
0100
0100
0001
,
1000
0010
0001
0010
1000
0100
0010
0001
,
0100
0010
0010
0000
1000
0100
0001
0000
,
0010
0001
0100
1000
0001
0000
0100
0001
,
1000
0010
0001
0000
0100
0010
0010
1000
,
0002
0000
0103
0010
2000
0000
3100
0001
,
0100
0000
1000
0000
1000
0000
0000
0000
0001
0100
0001
0100
0001
0000
0000
0000
,
0110
0000
0000
0000
1000
0000
0100
0000
0001
0000
0000
0000
1000
0001
1000
0000
,
0010
0000
0000
0100
0000
0000
0001
0000
0000
0000
0000
0000
0010
0000
0000
0100
0000
0000
1000
0000
0001
0000
1000
0000
,
0010
0100
0001
2000
0000
0001
3001
0100
,
0010
1000
0100
1000
0001
1000
0100
0000
,
0010
0001
0100
1000
0100
0001
0010
1000
,
0010
0001
0100
1000
0100
0001
0100
0010
,
2000
3001
0020
1030
,
0202
0000
0000
0000
,
0000
0000
0000
0000
,
0000
0000
0000
0000
,
0000
0303
0000
0000
;

//---------------dance-single - ----------------
#NOTEDATA:;
#CHARTNAME:;
#STEPSTYPE:dance-single;
#DESCRIPTION:;
#CHARTSTYLE:;
#DIFFICULTY:Medium;
#METER:10;
#RADARVALUES:0.411072,0.519349,0.216489,0.432979,0.022551,319.000000,295.000000,24.000000,48.000000,0.000000,0.000000,0.000000,0.000000,0.000000,0.411072,0.519349,0.216489,0.432979,0.022551,319.000000,295.000000,24.000000,48.000000,0.000000,0.000000,0.000000,0.000000,0.000000;
#CREDIT:;
#DISPLAYBPM:180.000000;
#NOTES:
0000
0000
0000
0000
,
0000
0000
0000
0000
,
0000
0000
0000
0000
,
0000
0000
0000
0000
,
0000
0000
0000
0000
,
0000
0000
0000
0000
,
0000
0000
0000
0000
,
0000
0000
0000
0000
,
0000
0000
0000
0000
,
0000
0000
0000
0000
,
0000
0000
0000
0000
,
0000
0000
0000
0000
,
0000
2000
0000
0000
,
0000
0000
0002
0000
,
0000
3000
0000
0203
,
0000
0000
0000
0310
0000
1000
0000
0100
,
0000
0000
1000
0000
0000
0000
0001
0000
0000
0000
0000
0200
0000
0000
0000
0000
,
0000
0010
0000
0000
0001
0000
0300
0000
,
2002
0000
0000
0000
,
0000
0000
0000
3003
,
0001
0000
0010
0100
1000
0000
0001
0000
,
0100
0010
1000
0000
0000
0110
0000
0101
,
0000
1000
0001
0000
0010
0000
0100
0000
,
1000
0001
0200
0000
0000
0000
0300
0000
,
0010
0000
1000
0001
0100
0000
0001
0000
,
1000
0100
0010
0000
0000
0011
0000
1001
,
0000
0001
1000
0000
0010
0000
0100
0000
,
0010
1000
0001
1000
0200
0000
0300
0000
,
1000
0000
0010
0100
0001
0000
1000
0001
,
0000
0010
0100
0000
2200
0000
3300
0000
,
1000
0001
0100
0000
0001
1000
0100
0000
,
1000
0100
0010
0000
0022
0000
0033
0000
,
0001
0000
1000
0001
0100
0000
0010
1000
,
0000
1000
0001
0000
0220
0000
0330
0000
,
0010
1000
0100
0000
1000
0001
0000
0001
,
0010
0100
1000
0000
2002
0000
3003
0000
,
0001
0100
0010
0100
0001
0000
1000
0010
,
0100
0010
1000
0000
0000
1010
0000
0101
,
0000
0001
0010
0000
0001
1000
0001
0000
,
0100
0010
2000
0000
0000
0000
3000
0000
,
0100
1000
0001
1000
0100
0000
0010
0001
,
1000
0001
0010
0000
0000
0010
0100
1000
,
0002
2003
3002
0203
,
0320
1000
0200
0330
,
0110
0000
0000
0001
1000
0001
0010
0000
,
0110
0000
0001
0100
1000
0000
0000
0000
,
0020
1030
0002
0103
,
0001
0010
0001
1000
0200
0000
0300
0000
,
1001
0000
0000
1000
0001
0100
0010
0000
,
1000
0010
0100
0001
1000
0000
0000
0000
,
0021
0130
1020
0130
,
0001
1000
0001
1000
0001
0000
0000
0000
,
0202
0300
2000
3003
,
2020
0000
0000
0030
,
0002
0000
3000
0000
0013
0001
0010
0100
,
1000
0001
1000
0100
,
0010
0001
0100
0000
0000
0010
0000
1000
,
0000
0100
1000
0000
0001
0000
0100
0000
,
0010
1000
0100
0010
0000
0001
1000
0001
,
0000
0010
0000
0001
0000
0100
0000
1000
,
0000
0001
0010
0001
0000
1000
0001
0000
,
0100
0000
0010
0000
1000
0001
0010
0001
,
1000
0000
0000
1000
0000
0000
1000
0000
0000
1000
0000
0000
1000
0000
0000
0000
,
0001
0000
0000
0001
0000
0000
0001
0000
0000
0001
0000
0000
0001
0000
0000
0000
,
0010
0001
0010
0100
1000
0000
0010
1000
,
0010
0100
0001
0000
0000
0100
0001
0000
,
0010
0001
0100
0000
0010
1000
0100
0000
,
1000
0001
0200
0000
0000
0000
0300
0000
,
0001
0100
0010
1000
0100
0000
1000
0010
,
0100
0001
0010
0000
0000
0001
1000
0000
,
1020
0130
0021
0130
,
1000
0001
1000
0000
0220
0000
0300
0000
,
2030
0000
0000
3002
0000
0000
0013
0001
,
0010
0100
1000
0000
0001
1000
0010
0000
,
0100
0001
0100
0020
0000
1030
0001
0000
,
0010
0001
0100
0010
1000
0001
0100
0000
,
0001
0010
1000
0000
0001
0100
0001
0000
,
0010
0100
1000
0000
0100
1000
0001
0000
,
0022
0033
2200
3300
,
0202
0000
0000
0000
,
0000
0000
0000
0000
,
0000
0000
0000
0000
,
0000
0303
0000
0000
;

//---------------dance-single - ----------------
#NOTEDATA:;
#CHARTNAME:;
#STEPSTYPE:dance-single;
#DESCRIPTION:;
#CHARTSTYLE:;
#DIFFICULTY:Easy;
#METER:7;
#RADARVALUES:0.283498,0.482252,0.108245,0.288652,0.004510,220.000000,208.000000,12.000000,32.000000,0.000000,0.000000,0.000000,0.000000,0.000000,0.283498,0.482252,0.108245,0.288652,0.004510,220.000000,208.000000,12.000000,32.000000,0.000000,0.000000,0.000000,0.000000,0.000000;
#CREDIT:;
#DISPLAYBPM:180.000000;
#NOTES:
0000
0000
0000
0000
,
0000
0000
0000
0000
,
0000
0000
0000
0000
,
0000
0000
0000
0000
,
0000
0000
0000
0000
,
0000
0000
0000
0000
,
0000
0000
0000
0000
,
0000
0000
0000
0000
,
0000
0000
0000
0000
,
0000
0000
0000
0000
,
0000
0000
0000
0000
,
0000
0000
0000
0000
,
0000
2000
0000
0000
,
0000
3000
0002
0000
,
0000
0000
0003
0200
,
0000
0000
0000
0300
0000
0010
0000
1000
,
0000
0000
0001
0000
0000
0000
1000
0000
0000
0000
0000
0020
0000
0000
0000
0000
,
0000
0000
0000
0030
,
2002
0000
0000
0000
,
0000
0000
0000
3003
,
0001
0010
0001
0100
,
0010
0000
1000
0000
0000
0100
0000
0100
,
0000
1000
0010
1000
,
0001
0200
0000
0300
,
0010
1000
0001
1000
,
0100
0000
0010
0000
0000
0001
0000
0001
,
0000
0010
0001
0100
,
0010
1000
0002
0003
,
1000
0010
1000
0001
,
0010
0100
1000
0000
,
0001
0001
1000
1000
,
0010
1000
0100
0000
,
0010
0001
0100
0010
,
1000
0100
0001
0000
,
0100
0100
0010
0010
,
0100
0001
1000
0000
,
0001
0010
0100
0010
,
0100
0000
1000
0000
0000
0010
0000
0010
,
0000
1000
0001
1000
,
0010
0200
0000
0300
,
0010
1000
0001
0010
,
0001
0100
0000
0010
,
1000
1000
0001
0001
,
0220
0330
2002
3003
,
0220
0330
1000
0001
,
0010
0001
0100
0000
,
0002
0000
1000
0103
,
1000
0001
0001
0000
,
2002
3003
0010
1000
,
0100
1000
0001
0000
,
0010
0010
0001
0100
,
1000
1000
0001
0000
,
0200
0000
0020
0330
,
0220
0000
0000
0330
,
0001
0010
0001
0100
,
0010
1000
0100
0010
,
0001
1000
0001
1000
,
0010
1000
0100
0010
,
0001
0010
0001
0100
,
0010
1000
0100
0001
,
1000
0001
0010
0001
,
0100
0010
1000
0100
,
0010
0000
0000
0010
0000
0000
0010
0000
,
0100
0000
0000
0100
0000
0000
0100
0000
,
0010
0001
0100
0010
,
1000
0100
0000
1000
,
0001
0001
1000
0001
,
0100
0200
0000
0300
,
0010
1000
0001
0010
,
0100
1000
0000
0001
,
0100
0100
0010
0010
,
0100
0001
2002
3003
,
0020
0000
0000
0230
0000
0000
0301
0000
,
1000
0010
1000
0001
,
0010
0001
0100
0010
,
1000
0100
0002
0003
,
0010
0011
0100
1100
,
0010
1010
0100
0101
,
2000
0000
0002
3003
,
0220
0000
0000
0000
,
0000
0000
0000
0000
,
0000
0000
0000
0000
,
0000
0330
0000
0000
;

//---------------dance-single - ----------------
#NOTEDATA:;
#CHARTNAME:;
#STEPSTYPE:dance-single;
#DESCRIPTION:;
#CHARTSTYLE:;
#DIFFICULTY:Beginner;
#METER:3;
#RADARVALUES:0.149481,0.249414,0.072163,0.000000,0.004510,116.000000,108.000000,8.000000,0.000000,0.000000,0.000000,0.000000,0.000000,0.000000,0.149481,0.249414,0.072163,0.000000,0.004510,116.000000,108.000000,8.000000,0.000000,0.000000,0.000000,0.000000,0.000000,0.000000;
#CREDIT:;
#DISPLAYBPM:180.000000;
#NOTES:
// measure 0
0000
0000
0000
0000
,  // measure 1
0000
0000
0000
0000
,  // measure 2
0000
0000
0000
0000
,  // measure 3
0000
0000
0000
0000
,  // measure 4
0000
0000
0000
0000
,  // measure 5
0000
0000
0000
0000
,  // measure 6
0000
0000
0000
0000
,  // measure 7
0000
0000
0000
0000
,  // measure 8
0000
0000
0000
0000
,  // measure 9
0000
0000
0000
0000
,  // measure 10
0000
0000
0000
0000
,  // measure 11
0000
0000
0000
0000
,  // measure 12
0000
1000
0000
0000
,  // measure 13
0000
0000
0001
0000
,  // measure 14
0000
0000
0000
0100
,  // measure 15
0000
0000
0000
0000
,  // measure 16
0000
0000
0000
0000
0000
0000
0000
0000
0000
0000
0000
0010
0000
0000
0000
0000
,  // measure 17
0000
0000
0000
0000
,  // measure 18
1001
0000
0000
0000
,  // measure 19
0000
0000
0000
0000
,  // measure 20
0001
0000
0100
0000
,  // measure 21
0001
0000
0000
0000
,  // measure 22
1000
0000
0100
0000
,  // measure 23
1000
0000
0000
0000
,  // measure 24
0010
0000
0100
0000
,  // measure 25
0010
0000
0000
0000
,  // measure 26
1000
0000
0001
0000
,  // measure 27
1000
0000
0100
0000
,  // measure 28
0010
0000
0010
0000
,  // measure 29
0001
0000
0000
0000
,  // measure 30
0001
0000
0100
0000
,  // measure 31
0010
0000
1000
0000
,  // measure 32
0100
0000
0100
0000
,  // measure 33
1000
0000
0000
0000
,  // measure 34
0001
0000
0001
0000
,  // measure 35
0100
0000
0010
0000
,  // measure 36
1000
0000
0001
0000
,  // measure 37
0010
0000
0000
0000
,  // measure 38
0001
0000
0100
0000
,  // measure 39
0010
0000
0000
0000
,  // measure 40
1000
0000
0100
0000
,  // measure 41
0010
0000
0000
0000
,  // measure 42
0001
0000
0001
0000
,  // measure 43
1000
0000
0000
0000
,  // measure 44
0110
0000
0000
0000
,  // measure 45
0001
0001
0001
0000
,  // measure 46
0100
0000
0010
0000
,  // measure 47
1000
1000
1000
0000
,  // measure 48
1001
0000
0000
0000
,  // measure 49
0010
0010
0010
0000
,  // measure 50
1000
0000
0100
0000
,  // measure 51
1000
1000
1000
0000
,  // measure 52
0001
0000
0100
0000
,  // measure 53
0110
0000
0000
0000
,  // measure 54
1000
0000
0010
0000
,  // measure 55
0100
0000
0001
0000
,  // measure 56
0010
0000
0001
0000
,  // measure 57
0010
0000
0100
0000
,  // measure 58
1000
0000
0010
0000
,  // measure 59
1000
0000
0001
0000
,  // measure 60
0100
0000
0010
0000
,  // measure 61
1000
0000
0001
0000
,  // measure 62
1001
0000
0000
0000
,  // measure 63
0110
0000
0000
0000
,  // measure 64
0010
0000
1000
0000
,  // measure 65
0100
0000
0000
0000
,  // measure 66
0010
0000
0001
0000
,  // measure 67
0100
0000
0000
0000
,  // measure 68
0001
0000
1000
0000
,  // measure 69
0001
0000
0000
0000
,  // measure 70
0010
0000
0010
0000
,  // measure 71
0010
0000
1001
0000
,  // measure 72
0100
0000
0000
0000
,  // measure 73
0001
0000
0000
0000
,  // measure 74
1000
0000
0010
0000
,  // measure 75
1000
0000
0000
0000
,  // measure 76
0001
0000
0001
0000
,  // measure 77
1000
0000
1000
0000
,  // measure 78
0010
0000
0100
0000
,  // measure 79
0110
0000
0000
0000
;
