#TITLE:TAKE ME HIGHER;
#ARTIST:DJ Shimamura;
#BANNER:TAKE ME HIGHER.png;
#BACKGROUND:TAKE ME HIGHER-bg.png;
#JACKET:TAKE ME HIGHER-jacket.png;
#MUSIC:TAKE ME HIGHER.ogg;
#SAMPLESTART:35.657;
#SAMPLELENGTH:20;
#DISPLAYBPM:140:175;
#BPMS:0=175,64=140,132=144,136=150,140=155,144=160,146=163,148=165,150=167,152=170,154=173,156=175;
#BGCHANGES:;

//---------------dance-single - ----------------
#NOTES:
     dance-single:
     :
     Beginner:
     4:
     :
0000
0000
0000
0000
,
0000
0000
0000
0000
,
0000
0000
0000
0000
,
0000
0000
0000
0000
,
0000
0000
0000
0000
,
0000
0000
0000
0000
,
0001
0000
0001
0000
,
0100
0000
0000
0000
,
0001
0000
0001
0000
,
0010
0000
0000
0000
,
1001
0000
0000
0000
,
0000
0000
0000
0000
,
1001
0000
0000
0000
,
0000
0000
0000
0000
,
2002
0000
0000
0000
,
3003
0000
0000
0000
,
1000
0000
0100
0000
,
1000
1000
0010
0000
,
0100
0000
0100
0000
,
0001
0000
0000
0000
,
0001
0000
0100
0000
,
0001
0001
0010
0000
,
0100
0000
0100
0000
,
1000
0000
0000
0000
,
1000
0000
0100
0000
,
0010
1000
0010
0000
,
0001
0000
0001
0000
,
1001
0000
0000
0000
,
0001
0000
0100
0000
,
0010
0001
0010
0000
,
1000
0000
1000
0000
,
1001
0000
0000
0000
,
0001
0000
0000
0000
,
0100
0000
0000
0000
,
0010
0000
0000
0000
,
1000
0000
0000
0000
,
1000
0000
0000
0000
,
0100
0000
0000
0000
,
0010
0000
0000
0000
,
0001
0000
0000
0000
,
0001
0000
0100
0000
,
0001
0001
0100
0000
,
1000
0000
1000
0000
,
0001
0000
0000
0000
,
1000
0000
0100
0000
,
1000
1000
0100
0000
,
0001
0000
0001
0000
,
1000
0000
0000
0000
,
1001
0000
0000
0000
,
1000
0010
1000
0000
,
0100
0000
0100
0000
,
0001
0000
0000
0000
,
1001
0000
0000
0000
,
0001
0010
0001
0000
,
0100
0000
0100
0000
,
1000
0000
0000
0000
,
1000
0000
1000
0000
,
0100
0100
0010
0000
,
0001
0000
0010
0000
,
0001
0000
0000
0000
,
0001
0000
0001
0000
,
0100
0100
0010
0000
,
1000
0000
0010
0000
,
1000
0000
0000
0000
,
1000
0000
0100
0000
,
0010
0010
0001
0000
,
0100
0000
0001
0000
,
1001
0000
0000
0000
,
0001
0000
0100
0000
,
0010
0010
1000
0000
,
1001
0000
0000
0000
,
0001
0000
1000
0000
,
1001
0000
0000
0000
,
0000
0000
0000
0000
;

//---------------dance-single - ----------------
#NOTES:
     dance-single:
     :
     Easy:
     8:
     :
0000
0000
0000
0000
,
0000
0000
0000
0000
,
0000
0000
0000
0000
,
0000
0000
0000
0000
,
0000
0000
0000
0000
,
0000
0000
0000
0000
,
0001
0000
0100
0000
0010
1000
0001
0000
,
1000
0000
0100
0000
0010
0001
1000
0000
,
0010
1000
0001
0100
,
2002
0000
0000
3003
,
0001
0000
0100
0000
0010
0100
0001
0000
,
1000
0000
0100
0000
0010
0100
1000
0000
,
0001
0010
0100
0000
1000
0010
0100
0000
,
0001
1000
0001
1000
0001
0000
1000
0000
,
2002
0000
0000
0000
,
0000
0000
0000
3003
,
1000
1000
0100
0000
,
1000
1000
0010
0000
,
1000
0100
0010
0001
,
0100
0001
1001
0000
,
0001
0000
0100
0000
0010
1000
0010
0000
,
1000
0010
1000
0000
0001
1000
0001
0000
,
1000
0100
0001
0100
,
2000
0000
0002
3003
,
1000
0000
0100
0010
0000
0100
0010
0000
,
0001
0100
1000
0100
,
0001
0000
0010
0100
0000
0010
0100
0000
,
1000
0010
0001
0010
,
1000
0000
0001
0010
0000
0100
1000
0000
,
0001
0100
0010
1000
,
0002
0000
2000
3003
,
0220
0000
0000
0330
,
1000
0000
0010
0000
0100
0001
0100
0000
,
0001
0000
0100
0000
0010
1000
0010
0000
,
1000
0000
0100
0000
0010
0001
0010
0000
,
0001
0000
0100
0000
0010
0100
0010
0000
,
1010
0000
0011
0000
,
1100
0000
0101
0000
,
1000
0100
0010
0001
,
2002
0000
0000
3003
,
1000
0010
0001
0010
,
1000
0010
0001
0010
,
1000
0100
0010
0001
,
2000
0000
0000
3000
,
0001
0010
1000
0010
,
0001
0010
1000
0010
,
0001
0100
0010
1000
,
0002
0000
0000
0003
,
1001
0001
0110
0000
,
1001
1000
0110
0000
,
0001
0010
0100
1000
,
0100
0010
0001
0000
,
0101
0001
0011
0000
,
1100
1000
1010
0000
,
0001
0100
0010
1000
,
0020
0000
0000
0030
,
1000
0100
1000
0100
,
0010
0000
0001
1000
0000
0001
0000
0000
,
0001
0100
0001
0100
,
0010
0000
1000
0001
0000
1000
0000
0000
,
0001
0100
0001
0010
,
0100
0000
1000
0010
0000
1000
0000
0000
,
1000
0100
0001
0100
,
2000
0000
0002
3003
,
0001
0110
1000
1000
,
0001
0110
1000
0000
,
1000
0110
0001
0001
,
1000
0110
0001
0000
,
0010
1001
0100
0100
,
0010
0000
0001
1000
0000
0100
0010
0002
,
0000
0000
0000
0003
,
0001
0000
1000
0001
0000
1000
0000
0000
,
1001
0000
0000
0000
,
0000
0000
0000
0000
;

//---------------dance-single - ----------------
#NOTES:
     dance-single:
     :
     Medium:
     13:
     :
0000
0000
0000
0000
,
0000
0000
0000
0000
,
0000
0000
0000
0000
,
0000
0000
0000
0000
,
0000
0000
0000
0000
,
0000
0000
0000
0000
,
1000
0000
0001
0000
1000
0000
0001
0000
0100
0000
0000
0100
0000
0000
0100
0000
,
0001
0000
1000
0000
0001
0000
1000
0000
0100
0000
0000
0100
0000
0000
0100
0000
,
0010
0001
0100
0000
0010
1000
0100
0000
,
2002
0000
0000
3003
,
1000
0100
1100
0000
0001
0100
0101
0000
,
1000
0010
1010
0000
0001
0010
0011
0000
,
0001
1000
0110
0000
1000
0001
0110
0000
,
0001
0010
0100
1000
0100
0010
0001
0000
,
2002
0000
0000
0000
,
0000
0000
0000
3003
,
0001
0000
0000
0100
0000
0000
0010
0000
0000
1000
0000
0000
0010
0000
0000
0000
,
1000
0000
0000
0100
0000
0000
0010
0000
0000
0001
0000
0000
0010
0000
0000
0000
,
0001
0000
0000
0100
0000
0000
1000
0000
0000
0100
0000
0000
0001
0000
0000
0000
,
1000
0000
0000
0100
0000
0000
0001
0000
0000
0100
0000
0000
1000
0000
0000
0000
,
1000
0000
0001
0010
0001
0000
0010
0000
1000
0000
0010
0000
0001
0000
0000
0000
,
1000
0010
0001
0000
0001
0010
1000
0000
,
0001
0100
0001
0100
0010
1000
0010
1000
,
0002
0000
0000
0003
,
0001
0000
0100
0000
0001
0000
0010
0001
0010
0000
0001
0000
1000
0000
0001
0000
,
1000
0000
0010
1000
0010
0000
1000
0000
0100
0000
1000
0000
1001
0000
0000
0000
,
0001
0000
0010
0100
0010
0000
0100
0000
1000
0000
0010
0000
0100
0000
0010
0000
,
0100
0000
0001
0100
0001
0000
1000
0000
0100
0000
0010
0000
1001
0000
0000
0000
,
1000
0000
0010
1000
0010
0000
1000
0000
0100
1000
0100
0000
1000
0000
0001
0000
,
0100
0000
0001
0010
0001
0000
0100
0000
0001
0000
0010
0000
1001
0000
0000
0000
,
1000
0100
0010
0010
0001
0100
0010
0010
,
2002
0000
0000
3003
,
1000
0100
0010
0000
0100
0010
0001
0000
,
0001
0100
0010
0000
0100
0010
1000
0000
,
1000
0100
0010
0000
0100
0010
0001
0000
,
0001
0100
0010
0000
0100
0010
1000
0000
,
0001
0100
1000
0100
0001
0010
0001
0000
,
1000
0100
0001
0100
1000
0010
1000
0000
,
0001
0100
0010
1000
0100
0010
0001
0100
,
0020
0000
0000
0030
,
1010
1100
1010
1100
,
0011
0101
0011
0101
,
1001
0110
1001
0110
,
2002
0000
0000
3003
,
1010
0011
1100
0101
,
0011
1100
1010
0101
,
0001
0000
0001
0010
0000
0010
0100
0000
0100
1000
0000
1000
,
0002
0000
0000
0003
,
1001
0000
0001
0100
1000
0100
1000
0001
,
0010
0100
0010
0001
0010
1000
0010
0000
,
1000
0100
0001
0100
1000
0100
0001
0100
,
1000
0001
1000
0000
2002
0000
3003
0000
,
1001
0000
1000
0100
0010
1000
0010
1000
,
0001
0100
0010
1000
0010
0001
0010
0000
,
0011
0100
1010
0100
,
2002
0000
0000
3003
,
1000
0010
1000
0010
0001
0010
0001
0010
,
1000
0100
0010
0001
0000
0001
0100
0000
,
0001
0100
0001
0100
1000
0100
1000
0100
,
0001
0010
0100
1000
0000
1000
0010
0010
,
1000
0100
0010
0001
0010
1000
0010
0001
,
1000
0100
0010
0011
0000
1001
0000
0000
,
0001
0000
0100
0000
0010
0000
1000
0000
0001
0000
0100
0000
0010
1000
0010
0000
,
2000
0000
0000
0002
0000
3003
0000
0000
,
1000
0000
1000
0000
0100
0000
0010
0000
0001
0000
0100
0000
0001
1000
0001
0000
,
0100
1000
0100
0001
0000
0001
1000
0000
,
0001
0000
0010
0000
0100
0000
0010
0000
0001
0000
1000
0000
0010
0100
0010
0000
,
1000
0001
0100
0010
0000
0010
0110
0000
,
1000
0000
0100
0000
0010
0000
0001
1000
0001
0000
0100
0000
0010
1000
0010
0000
,
0100
0001
1000
0010
0000
0100
0001
2000
,
0000
0000
0000
3000
,
0001
0000
0010
0100
0000
0110
0000
0000
,
1001
0000
0000
0000
,
0000
0000
0000
0000
;

//---------------dance-single - ----------------
#NOTES:
     dance-single:
     :
     Hard:
     16:
     :
0000
0000
0000
0000
,
0000
0000
0000
0000
,
0000
0000
0000
0000
,
0000
0000
0000
0000
,
0000
0000
0000
0000
,
0000
0000
0000
0000
,
0001
0000
0100
0000
0010
0000
1000
0000
0001
0000
0100
0010
0000
0010
0100
0000
,
0001
0000
0010
0000
0100
0000
1000
0000
0010
0000
0100
0010
0000
0010
0100
0000
,
0001
0100
0001
0101
1000
0010
1000
1010
,
0002
0000
0000
0003
,
1000
0000
0001
0010
0000
0001
0010
0000
0001
0000
1000
0010
0000
1000
0010
0000
,
1000
0000
0001
0100
0000
0001
0100
0000
0001
0000
1000
0100
0000
1000
0100
0000
,
1000
0000
0001
0010
0001
0010
0001
0000
0100
0000
0010
1000
0010
1000
0010
0000
,
0100
0000
0001
1000
0001
1000
0001
0000
0100
0010
0100
0010
0100
0000
0010
0000
,
2002
0000
0000
0000
,
0000
0000
0000
3003
,
1000
0000
0000
0010
0000
0000
0100
0000
0000
0001
0000
0000
1001
0000
0000
0000
,
0001
0000
0000
0010
0000
0000
0100
0000
0000
1000
0000
0000
1001
0000
0001
0010
,
0100
0000
0000
1000
0000
0000
0010
0000
0000
0100
0000
0000
0110
0000
0010
0000
,
0100
0000
0000
0001
0000
0000
0010
0000
0000
0100
0000
0000
0110
0000
0000
0000
,
1000
0000
0100
0010
1000
0000
0001
0000
0100
0000
1000
0000
0001
0000
0000
0000
,
0001
0000
0100
0010
0001
0000
0000
0000
1000
0000
0100
0010
1000
0000
0000
0000
,
1000
0010
1000
0010
0001
0010
0001
0010
,
1000
0100
0010
0000
1001
0000
0000
0000
0001
0100
0010
0000
1001
0000
0001
0000
,
1000
0000
0010
0001
0000
1000
0100
0000
0001
0010
0000
1000
0001
0000
0100
0000
,
0001
0000
1000
0010
0000
0001
0100
0000
1000
0001
0000
0010
1000
0000
0100
0000
,
0001
0000
0100
1000
0000
1000
0010
0000
0010
0001
0000
0001
1000
0000
0100
0000
,
0001
0000
0010
1000
0000
1000
0001
0000
0001
0100
0000
0100
1000
0000
0100
0010
,
0001
0000
0100
0010
0000
0100
1000
0000
0100
0010
0000
0100
0001
0000
1000
0100
,
0010
0000
0100
0010
0000
1000
0010
0000
0100
0010
0000
0001
0010
0000
0001
1000
,
0200
0000
0020
0330
,
2002
0000
0000
3003
,
1000
0000
0001
0010
0000
0100
0000
0010
0001
0000
1000
0010
0000
0100
0000
0010
,
1000
0000
0001
0100
0000
0010
0000
0100
0001
0000
1000
0100
0000
0010
0000
0100
,
1000
0000
0001
0010
0000
1000
0000
0010
0001
0000
0100
1000
0000
0100
0000
0001
,
1000
0000
0010
0001
0000
0010
0000
1000
0010
0000
1000
0100
0000
0001
0000
0100
,
1000
0100
0001
0100
1000
0100
0001
0100
,
1000
0010
0001
0010
1000
0010
0001
0010
,
1000
0100
0001
0100
1000
0010
0001
0010
,
2000
0000
0000
3000
,
0001
0100
0010
0000
0001
1000
0100
0000
0010
1000
0100
0000
0010
1000
0010
0000
,
0001
0010
0100
0000
0001
0100
1000
0000
0001
0100
0010
0000
0001
0010
1000
0000
,
0001
0100
0010
0000
0001
0010
0100
0000
1000
0100
0010
0000
1000
0001
0100
0000
,
2002
0000
0000
3003
,
1000
0010
0100
0000
1000
0001
0010
0000
0100
0001
0010
0000
0100
0001
0100
0000
,
1000
0100
0010
0000
1000
0010
0001
0000
1000
0010
0100
0000
1000
0100
0001
0000
,
1000
0100
1000
0010
0100
0010
0100
0001
0100
0001
1000
0001
,
2000
0000
0000
3000
,
0001
0010
0001
0001
0100
0100
0010
0010
,
1000
1000
0100
0100
0001
0100
1000
0000
,
0001
0000
1000
0000
0100
0000
0010
0001
0100
0000
1000
0000
0001
0000
0010
1000
,
0100
0000
0010
0001
0100
0000
0001
0000
0101
0000
0100
0000
0110
0000
0000
0000
,
1000
0010
1000
1000
0100
0100
0010
0010
,
0001
0001
0100
0100
1000
0100
0001
0000
,
1000
1000
0001
0001
,
2002
0000
0000
3003
,
0001
0000
0010
1000
0010
0000
0001
0000
0100
1000
0100
0000
0001
0000
0000
0000
,
1000
0100
0001
0100
0010
0000
0001
0000
0000
0000
0001
0000
1000
0000
0000
0000
,
0001
0000
0100
1000
0100
0000
0001
0000
0010
1000
0010
0000
0001
0000
0100
0000
,
1000
0100
0010
0100
0001
0000
1000
0000
0000
0000
1001
0000
0000
0000
0000
0000
,
1000
0000
0010
0001
1000
0000
0100
0000
0001
1000
0010
0000
0100
0000
0000
0000
,
0001
0010
0100
0001
0100
0000
1000
0000
0000
0000
1000
0000
0001
0000
0000
0000
,
1000
0000
0001
0100
1000
0000
0100
0000
0001
0000
0010
0000
0100
0001
1000
0010
,
0100
0000
1000
0010
0001
0000
0010
0000
0000
0000
1001
0000
0000
0000
0000
0000
,
1000
0000
1000
0000
1001
0000
0001
0000
0100
0010
0001
0000
1000
0000
1000
0000
,
0100
0001
0010
0000
0100
0000
0001
0000
0000
0000
0100
0000
1001
0000
0000
0000
,
1010
0000
0010
0000
0100
0000
0001
0000
0010
1000
0001
0000
0100
0000
1000
0010
,
0100
0000
1000
0100
0010
0000
1000
0000
0000
0000
0010
0000
1001
0000
0000
0000
,
1000
0010
0100
0000
0001
0000
0010
0100
0001
0000
1000
0000
0010
0001
0010
0000
,
0100
0001
0100
0110
0000
1001
0000
0220
,
0000
0000
0000
0330
,
1000
0000
1000
0001
0000
0001
0000
0000
,
1001
0000
0000
0000
,
0000
0000
0000
0000
;

//---------------dance-single - ----------------
#NOTES:
     dance-single:
     :
     Challenge:
     18:
     :
0000
0000
0000
0000
,
0000
0000
0000
0000
,
0000
0000
0000
0000
,
0000
0000
0000
0000
,
0000
0000
0000
0000
,
0000
0000
0000
0000
,
0110
0000
0110
0000
1001
0000
0110
0000
0001
0000
0010
0100
0000
0100
1000
0000
,
0001
0000
1000
0000
0010
0000
1000
0000
0100
0000
0010
0001
0000
0001
1000
0000
,
0101
0000
0010
0000
1000
0000
1100
0000
0101
0000
0010
0100
0000
0100
0001
0000
,
0011
0000
0100
0000
1100
0000
0101
0000
1001
0000
0010
1000
0100
0000
0001
0000
,
0110
0000
0001
0100
0000
0010
1000
0000
0100
0000
1000
0001
0000
0010
0100
0000
,
0110
0000
0001
1000
0000
0010
0100
0000
0001
0000
0010
0001
0000
0100
1000
0000
,
0110
0000
0001
0100
0010
1000
0100
0000
1001
0000
0010
1000
0001
1000
0100
0000
,
0011
0000
0001
0000
0101
0000
0100
0000
0010
1000
0100
0001
0010
0001
0100
1000
,
0002
0000
0000
2000
0000
0000
0000
0000
0000
0000
0000
0000
0000
0000
0000
0000
,
0003
0000
0000
0020
3000
0000
0030
0110
,
0001
0100
0000
0010
1000
0000
1100
0000
0000
1100
0000
0000
1100
0000
0000
0000
,
0001
1000
0000
0010
0100
0000
0101
0000
0000
0101
0000
0000
0101
0000
1000
0000
,
0010
0100
0000
0001
1000
0000
1010
0000
0000
1010
0000
0000
1010
0000
0100
0000
,
0010
0001
0000
0001
1000
0000
0020
0000
0000
2030
0000
0000
3001
0000
1010
0000
,
0101
0000
0010
0001
0100
0000
1000
0000
0010
1000
0100
1000
0001
0000
0100
0000
,
0010
0100
1000
0100
0001
0000
0010
0000
1000
0100
0001
0100
1000
0000
0000
0000
,
0001
0100
0010
0000
1000
0100
0010
0000
0001
0010
0100
0000
1000
0010
0100
0000
,
0001
1000
0100
1000
0001
1000
0100
0000
0010
0001
0010
0100
1000
0000
1001
0000
,
0010
1000
0100
1000
0001
0000
0010
1000
0100
1000
0001
0000
0010
0000
0100
0000
,
1000
0010
0100
0001
0010
0000
0001
1000
0000
1000
0100
0000
0010
0000
0011
0000
,
1100
0000
0001
0100
1000
0000
0010
1000
0000
0100
0010
0000
0001
0000
1000
0000
,
0010
0100
0010
1000
0001
0000
0010
0100
0000
0010
0001
0000
0100
0001
1000
0000
,
0010
0001
1000
0001
0100
0000
0010
0001
1000
0001
0100
0000
0110
0000
0110
0000
,
0110
0000
0010
1000
0001
0000
0010
0001
0000
0100
1000
0000
0010
0100
0001
0000
,
0010
0001
0010
0100
1000
0000
0001
0000
0100
0010
1000
0100
0001
0000
0010
0000
,
0001
0100
1000
2000
0000
0010
3100
0001
,
1000
0010
0000
1010
0000
0010
1000
0000
0001
0100
0000
0101
0000
0100
0001
0000
,
0010
0001
0000
0011
0000
0001
0010
0000
0100
0000
1000
0001
0000
0001
0100
0000
,
0010
0000
1000
0100
1000
0100
1000
0100
0010
0000
0001
0100
0001
0100
0001
0100
,
0010
0000
0010
0000
1000
0000
1000
0100
0001
0000
0001
0000
0010
0000
0010
0100
,
1000
0010
0100
0001
1000
0100
0010
0000
0001
1000
0001
0010
0001
0100
1000
0000
,
0010
1000
0010
0100
0001
0010
1000
0000
0001
1000
0001
0100
0010
1000
0100
0000
,
1000
0010
1000
0010
0100
0001
0100
0001
1000
0100
1000
0100
0010
0001
0010
0001
,
1000
0100
0001
0010
0000
0110
1001
0000
,
0010
0000
1000
0100
0010
0000
0001
1000
0001
0000
0100
0010
1000
0000
0100
0010
,
0001
0000
0010
0100
1000
0001
0100
0000
0010
1000
0100
0000
1000
0001
0100
0000
,
0010
1000
0100
0000
1000
0010
0001
0000
0100
0010
1000
0000
0100
1000
0010
1000
,
0001
0000
0100
0000
1010
0000
0101
0000
0000
0010
0001
0010
0100
1000
0010
0100
,
0001
0010
0100
0000
1000
0000
0001
0000
1000
0010
0100
0000
0001
0000
1000
0000
,
0010
1000
0001
0000
0010
0001
0100
0000
0001
0010
1000
0000
0100
0010
0001
1000
,
0100
1000
0001
0100
0001
1000
0100
1000
0001
0100
0001
1000
,
0010
0000
1000
0100
0000
0001
0100
0000
1000
0100
0000
0000
,
0010
0001
1000
0100
1000
0010
0001
0000
0100
0010
1000
0000
0001
0000
0100
0000
,
0010
1000
0010
0100
0001
0000
0010
0000
0001
1000
0100
1000
0001
0000
0100
0000
,
0010
1000
0100
0010
0001
0000
1100
0000
0010
1000
0100
0010
0001
0000
1100
0000
,
0001
0010
1000
0000
0001
0100
1000
0000
0010
0100
0010
1000
0001
1000
0100
0000
,
1001
0010
0100
0001
0110
0100
1000
0001
,
0010
0000
0001
0000
0100
0000
1000
0000
0110
0000
0001
0000
1000
0010
0100
0001
,
0010
0100
1000
0001
0100
0000
0010
0100
1000
0001
0100
0000
0010
0100
1000
0001
,
0100
0000
0010
1000
0010
0000
0100
0001
0010
0001
1000
0000
0100
0000
1010
0000
,
0001
0100
0000
0010
1000
0000
0100
0010
0000
0001
1000
0000
0010
0000
0100
0000
,
0001
0010
0100
0010
0001
0000
1000
0100
0000
1000
0010
0000
1000
0001
0100
0000
,
0010
1000
0100
0000
0010
0000
0001
0000
0100
0010
0100
0000
0001
0010
1000
0000
,
1100
0000
0011
0000
0101
0000
1010
0000
0000
0001
0010
0000
0001
0100
1000
0000
,
0010
0000
1000
0100
0001
0000
0010
0100
1000
0000
0001
0100
0001
0000
1000
0000
,
1010
0000
0110
0000
1001
0000
1100
0000
0000
0001
0010
0000
0001
1000
0010
0100
,
0001
0010
0100
0010
0001
1000
0001
1000
0001
0100
1000
0100
0010
1000
0100
0010
,
0001
0000
0100
0000
1000
0000
1000
0000
0010
0100
0010
0000
1000
0000
0000
0000
,
0100
1000
0001
0010
1000
0000
0100
1000
0001
0010
1000
0000
0100
1000
0001
0010
,
0100
0010
0001
0100
1000
0000
0010
0100
0010
1000
0001
0000
0010
0100
1000
0000
,
0001
0100
0010
0100
0001
0000
1000
0100
0000
1000
0010
0000
0100
0001
1000
0000
,
0010
1000
0001
0010
0100
0000
1000
0001
0000
0001
0100
0000
0010
1000
0010
0000
,
1000
0001
0010
0100
0001
0000
1000
0001
0010
0100
0001
0000
1000
0010
0001
0100
,
0010
1000
0100
1000
0001
0000
0010
0001
0000
0001
1000
0000
1010
0000
0102
0000
,
0000
0100
1000
0000
1000
0000
1003
0000
,
0010
0100
0001
0001
0000
0011
0001
0100
,
2002
0000
0000
0000
,
0000
0000
0000
3003
;

//---------------dance-double - ----------------
#NOTES:
     dance-double:
     :
     Easy:
     8:
     :
00000000
00000000
00000000
00000000
,
00000000
00000000
00000000
00000000
,
00000000
00000000
00000000
00000000
,
00000000
00000000
00000000
00000000
,
00000000
00000000
00000000
00000000
,
00000000
00000000
00000000
00000000
,
10000000
00000000
00100000
00000000
01000000
00100000
01000000
00000000
,
00010000
10000000
01000000
00010000
,
00001000
00010000
00000100
00001000
,
00000020
00000000
00000000
00000030
,
00001000
00000000
00000001
00000000
00000100
00000010
00000100
00000000
,
00000010
00010000
00001000
00010000
,
00100000
00000000
01000000
00000000
00010000
10000000
00010000
00000000
,
00100000
01000000
10000000
00000000
,
20020000
00000000
00000000
00000000
,
00000000
00000000
00000000
30030000
,
10000000
00000000
01000000
00000000
,
10000000
01000000
00100000
00000000
,
00010000
00000000
00100000
00000000
,
00001000
00010000
00001000
00000000
,
00010000
00000010
00001000
00001000
,
00000100
00000100
00000010
00000010
,
00000001
00000100
00000001
00000000
00001000
00000100
00001000
00000000
,
00000002
00000000
00000000
00000003
,
00000001
00000000
00000100
00000010
00000000
00000100
00000010
00000000
,
00000100
00001000
00010000
00001000
,
00100000
00000000
00010000
01000000
00000000
00010000
01000000
00000000
,
00010000
00100000
01000000
00000000
,
10000000
00000000
01000000
00100000
00000000
01000000
00100000
00000000
,
01000000
00010000
00001000
00010000
,
00000020
00000000
00000200
00000330
,
00002002
00000000
00000000
00003003
,
00000001
00000000
00001000
00000000
00000100
00000010
00000100
00000000
,
00010000
00001000
00011000
00000000
,
00001000
00000000
00010000
00000000
00100000
01000000
00100000
00000000
,
10000000
00010000
10010000
00000000
,
01100000
00000000
00001000
00000000
,
00011000
00000000
00000100
00000000
,
00000110
00000000
00000001
00000000
,
00002002
00000000
00000000
00003003
,
00000001
00000100
00000001
00000100
,
00001000
00010000
00001000
00010000
,
00100000
10000000
00100000
10000000
,
00020000
00000000
00000000
00030000
,
10000000
01000000
10000000
01000000
,
00010000
00001000
00010000
00001000
,
00000010
00000001
00000010
00000001
,
00002000
00000000
00000000
00003000
,
00000001
00000001
00000100
00000100
,
00000010
00010000
00001000
00000000
,
00010000
00010000
00001000
00001000
,
01000000
00010000
00100000
00000000
,
00010000
00010000
10010000
00000000
,
01000000
01000000
01100000
00000000
,
10000000
01000000
00010000
00001000
,
00020000
00000000
00000000
00030000
,
00001000
00010000
00000010
00001000
,
00000100
00000000
00000010
00000001
00000000
00000010
00000000
00000000
,
00000001
00000100
00000001
00000100
,
00001000
00000000
00010000
00001000
00000000
00010000
00000000
00000000
,
00001000
01000000
00010000
00100000
,
00010000
00000000
01000000
00100000
00000000
10000000
00000000
00000000
,
00010000
10000000
01000000
00100000
,
02200000
00000000
00000000
03300000
,
10000000
01100000
00010000
00010000
,
10000000
01000000
00010000
00001000
,
00100000
00011000
00001000
00010000
,
00000100
00011000
01000000
00001000
,
00010000
00001000
00000010
00000001
,
00000100
00000000
00000010
00001000
00000000
00000001
00000100
00000020
,
00000000
00000000
00000000
00000030
,
00000100
00000000
00001000
00010000
00000000
00010000
00000000
00000000
,
00011000
00000000
00000000
00000000
,
00000000
00000000
00000000
00000000
;

//---------------dance-double - ----------------
#NOTES:
     dance-double:
     :
     Medium:
     13:
     :
00000000
00000000
00000000
00000000
,
00000000
00000000
00000000
00000000
,
00000000
00000000
00000000
00000000
,
00000000
00000000
00000000
00000000
,
00000000
00000000
00000000
00000000
,
00000000
00000000
00000000
00000000
,
10000000
00000000
00100000
00000000
10000000
00000000
00100000
00000000
01000000
00000000
00000000
01000000
00000000
00000000
01000000
00000000
,
00010000
00000000
00100000
00000000
00010000
00000000
00100000
00000000
00001000
00000000
00000000
00001000
00000000
00000000
00001000
00000000
,
00010000
00000100
00001000
00000000
00000010
00000100
00000010
00000000
,
00002002
00000000
00000000
00003003
,
00000001
00000010
00000001
00000000
00001000
00000010
00001000
00000000
,
00000001
00000100
00001000
00000000
00011000
00000000
00011000
00000000
,
00001000
00100000
00010000
00000000
01000000
00100000
10000000
00000000
,
00100000
01000000
00100000
01000000
00100000
00000000
01100000
00000000
,
20020000
00000000
00000000
00000000
,
00000000
00000000
00000000
30030000
,
10000000
00000000
00000000
00100000
00000000
00000000
01000000
00000000
00000000
00100000
00000000
00000000
01000000
00000000
00000000
00000000
,
00100000
00000000
00000000
00010000
00000000
00000000
00001000
00000000
00000000
00010000
00000000
00000000
00001000
00000000
00000000
00000000
,
00010000
00000000
00000000
00000010
00000000
00000000
00001000
00000000
00000000
00000010
00000000
00000000
00000100
00000000
00000000
00000000
,
00000001
00000000
00000000
00000010
00000000
00000000
00000100
00000000
00000000
00001000
00000000
00000000
00000001
00000000
00000000
00000000
,
00001000
00000000
00000010
00000100
00000010
00000000
00001000
00000000
00000100
00000000
00010000
00000000
00001000
00000000
00000000
00000000
,
00010000
00100000
01000000
00000000
00010000
00100000
01000000
00000000
,
10000000
01000000
10000000
01000000
00010000
00001000
00010000
00001000
,
00020000
00000000
00000000
00030000
,
00001000
00000000
00000010
00000001
00000010
00000000
00000001
00000000
00001000
00000000
00000001
00000000
00000100
00000000
00000010
00000000
,
00000100
00000000
00001000
00010000
00001000
00000000
00010000
00000000
00000000
00000000
00100000
00000000
01100000
00000000
00000000
00000000
,
10000000
00000000
01000000
00100000
01000000
00000000
10000000
00000000
00100000
00000000
01000000
00000000
00100000
00000000
00010000
00000000
,
00001000
00000000
00010000
00001000
00010000
00000000
00001000
00000000
00000000
00000000
00000010
00000000
00000110
00000000
00000000
00000000
,
00000001
00000000
00001000
00000100
00001000
00000000
00000010
00000000
00010000
00000000
00000100
00000000
00001000
00000000
00000010
00000000
,
00010000
00000000
00001000
00010000
00001000
00000000
01000000
00000000
00000000
00000000
00010000
00000000
00110000
00000000
00000000
00000000
,
00010000
00100000
01000000
10000000
01000000
00100000
00001000
00000000
,
00022000
00000000
00000000
00033000
,
00001000
00010000
00000010
00000000
00001000
00000100
00000010
00000000
,
00000001
00000100
00000010
00000000
00001000
00000010
00010000
00000000
,
00001000
00100000
00010000
00000000
01000000
00010000
00100000
00000000
,
01000000
10000000
00010000
00000000
01000000
00100000
00010000
00000000
,
00001000
00010000
00000100
00000000
00001000
00000010
00000100
00000000
,
00000001
00000100
00000001
00000000
00000100
00000010
00000100
00000000
,
00000010
00000100
00001000
00000100
00001000
00010000
00001000
00000000
,
00020000
00000000
00000000
00030000
,
00011000
00000000
01001000
00000000
01000000
00010000
00100000
00000000
,
00110000
00000000
11000000
00000000
10000000
01000000
00010000
00000000
,
00001000
00000010
00000001
00001000
00000100
00000010
00000001
00000000
,
00002002
00000000
00000000
00003003
,
00000011
00000000
00001100
00000000
00001000
00000001
00000100
00000000
,
00000110
00000000
00010010
00000000
00010000
00001000
00011000
00000000
,
00001000
00000000
00001000
00010000
00000000
00010000
00100000
00000000
00100000
10000000
00000000
10000000
,
00020000
00000000
00000000
00030000
,
10010000
00000000
10000000
01000000
00100000
00010000
00100000
00001000
,
00010000
00001000
00000010
00000100
00000010
00000001
00001000
00000000
,
00000001
00000100
00001000
00010000
00000010
00000100
00001000
00010000
,
00000100
00000010
00001000
00010000
00001000
00000010
00000001
00000000
,
00001001
00000000
00000001
00000100
00000010
00001000
00000010
00010000
,
00001000
00010000
00100000
01000000
00100000
10000000
00010000
00000000
,
10000000
01000000
00010000
00001000
00100000
01000000
10000000
00000000
,
20020000
00000000
00000000
30030000
,
10000000
01000000
01000000
00010000
01000000
01000000
10000000
00100000
,
01000000
00001000
00010000
00001000
00000000
00001000
00010000
00000010
,
00001000
00000100
00000100
00000001
00000100
00000100
00001000
00000010
,
00000100
00000001
00000010
00000011
00000000
00001001
00000000
00000000
,
00000001
00000010
00000010
00001000
00000010
00000010
00000001
00000100
,
00000010
00010000
00001000
01000000
00000000
01010000
00000000
00000000
,
00010000
00100000
00100000
10000000
00100000
00100000
00010000
01000000
,
00100000
10000000
01000000
11000000
00000000
10010000
00000000
00000000
,
10000000
00000000
01000000
00000000
00100000
00000000
00010000
00000000
01000000
00000000
00100000
00000000
10000000
00010000
10000000
00000000
,
01000000
00010000
00001000
00000010
00000000
00000001
00001000
00000000
,
00000001
00000000
00000100
00000000
00000010
00000000
00001000
00000000
00000100
00000000
00000010
00000000
00000001
00001000
00000001
00000000
,
00000100
00001000
00010000
00100000
00000000
10000000
00010000
00000000
,
10000000
00000000
01000000
00000000
00010000
00000000
01000000
00100000
01000000
00000000
10000000
00000000
00010000
00100000
00010000
00000000
,
00100000
00001000
00010000
00001000
00000000
00000100
00000001
00002000
,
00000000
00000000
00000000
00003000
,
00000001
00000000
00000010
00001000
00000000
00010000
00000000
00000000
,
00011000
00000000
00000000
00000000
,
00000000
00000000
00000000
00000000
;

//---------------dance-double - ----------------
#NOTES:
     dance-double:
     :
     Hard:
     16:
     :
00000000
00000000
00000000
00000000
,
00000000
00000000
00000000
00000000
,
00000000
00000000
00000000
00000000
,
00000000
00000000
00000000
00000000
,
00000000
00000000
00000000
00000000
,
00000000
00000000
00000000
00000000
,
10000000
00000000
01000000
00000000
00100000
00000000
00010000
00000000
00100000
00000000
00001000
00010000
00000000
00010000
00001000
00000000
,
00000010
00000000
00000100
00000000
00001000
00000000
00000001
00000000
00000010
00000000
00000001
00000100
00000000
00000100
00000001
00000000
,
00001000
00000100
00000010
00000010
00001000
00010000
00001000
00001000
,
00022000
00000000
00000000
00033000
,
00010000
00000000
00100000
10000000
00000000
00100000
10000000
00000000
01000000
00000000
00010000
00001000
00000000
00010000
00001000
00000000
,
00000010
00000000
00000001
00000100
00000000
00000001
00000100
00000000
00001000
00000000
00010000
00001000
00000000
00010000
00001000
00000000
,
01000000
00000000
00010000
00100000
00010000
00100000
00010000
00000000
10000000
00000000
01000000
00100000
01000000
00100000
01000000
00000000
,
00100000
00001000
00100000
00000000
00001000
00010000
00001000
00000000
00010000
00000100
00010000
00000100
00001000
00000100
00001000
00000100
,
00000020
00000000
00000000
00000000
,
00000000
00000000
00000000
00000030
,
00000001
00000000
00000000
00000100
00000000
00000000
00000010
00000000
00000000
00001000
00000000
00000000
00001001
00000000
00000000
00000000
,
00000001
00000000
00000000
00000100
00000000
00000000
00001000
00000000
00000000
00010000
00000000
00000000
00100000
00000000
10000000
00010000
,
10000000
00000000
00000000
01000000
00000000
00000000
00100000
00000000
00000000
00010000
00000000
00000000
10010000
00000000
00000000
00000000
,
10000000
00000000
00000000
01000000
00000000
00000000
00010000
00000000
00000000
00001000
00000000
00000000
00000010
00000000
00000001
00001000
,
00000001
00000000
00000100
00000000
00010000
00000000
00000100
00000000
00000010
00001000
00000010
00010000
00001000
00000000
00000000
00000000
,
00100000
00001000
00010000
01000000
10000000
00000000
00000000
00000000
01000000
00010000
00001000
00000010
00000001
00000000
00000000
00000000
,
00001000
00000100
00000010
00000001
00000100
00001000
00010000
00100000
,
10000000
00100000
01000000
00000000
10010000
00000000
00000000
00000000
10000000
01000000
00100000
00000000
00001000
00000000
00001000
00000000
,
00010000
00000000
00001000
00000010
00000000
00000100
00010000
00000000
00001000
00000010
00000000
00000100
00010000
00000000
00001000
00000100
,
00000001
00000000
00000010
00001000
00000000
00001000
00010000
00000000
00010000
01000000
00000000
01000000
00100000
00000000
00000000
00000000
,
00001000
00000000
00010000
00100000
00000000
01000000
00001000
00000000
00010000
00100000
00000000
01000000
00001000
00000000
00010000
01000000
,
10000000
00000000
00100000
00010000
00000000
00010000
00001000
00000000
00001000
00000100
00000000
00000100
00000010
00000000
00000000
00000000
,
00001000
00000000
00000001
00000010
00000100
00000000
00010000
00000000
00001000
01000000
00010000
00000000
00100000
00000000
01000000
10000000
,
00100000
00000000
01000000
00100000
00010000
00000000
00001000
00000000
00000100
00000001
00000010
00000000
00000100
00000000
00010000
00001000
,
00020000
00000000
00002000
00033000
,
00022000
00000000
00000000
00033000
,
00001000
00000000
00010000
00100000
00000000
00100000
00000000
00010000
00001000
00000000
00010000
01000000
00000000
01000000
00000000
00010000
,
00001000
00000000
00001000
00000010
00000000
00000010
00000000
00001000
00010000
00000000
00001000
00000100
00000000
00000100
00000000
00001000
,
00010000
00000000
00100000
01000000
00000000
00010000
00100000
01000000
00010000
00000000
00001000
00000010
00000000
00000100
00001000
00000010
,
00000100
00000000
00001000
00010000
00000000
00100000
01000000
00100000
00010000
00000000
00001000
00000010
00000000
00000100
00000010
00000100
,
00010000
00100000
00010000
00100000
00001000
00000010
00001000
00000010
,
00001000
00010000
01000000
00010000
01000000
00001000
00000100
00001000
,
00000100
00000001
00000010
00001000
00010000
01000000
10000000
00100000
,
00020000
00000000
00000000
00030000
,
00010000
00100000
01000000
00000000
00100000
00010000
00001000
00000000
00010000
00001000
00000100
00000000
00000010
00000100
00001000
00000000
,
00010000
00001000
00000010
00000000
00000100
00001000
00000010
00000000
00001000
00000100
00000010
00000000
00001000
00010000
00001000
00000000
,
00010000
00100000
01000000
00000000
00010000
10000000
00010000
00000000
10000000
01000000
00100000
00010000
00100000
00000000
00001000
00000000
,
00022000
00000000
00000000
00033000
,
00001000
00000010
00000100
00000000
00000010
00001000
00010000
00000000
00001000
00010000
01000000
00000000
00100000
01000000
00010000
00000000
,
00001000
00010000
00100000
00000000
01000000
00010000
00100000
00000000
00010000
01000000
00100000
00000000
00010000
00001000
00010000
00000000
,
00001000
00000010
00000001
00001000
00000100
00000010
00000001
00000100
00001000
00010000
00000000
00000000
,
00022000
00000000
00000000
00033000
,
00010000
00001000
00100000
00100000
00010000
00010000
10000000
10000000
,
01000000
00010000
01000000
00010000
00001000
00010000
00001000
00000000
,
00010000
00000000
00001000
00000000
00000100
00000000
00000001
00000010
00000001
00000000
00000100
00000000
00001000
00000000
00010000
00001000
,
00010000
00100000
01000000
00100000
01000000
00001000
00011000
00000000
,
00001000
00010000
00000010
00000010
00001000
00001000
00000001
00000001
,
00000100
00001000
00000100
00001000
00010000
00001000
00010000
00000000
,
00001000
00000000
00010000
00000000
01000000
00000000
10000000
00100000
10000000
00000000
01000000
00000000
00010000
00000000
00001000
00010000
,
00001000
00000010
00000100
00000010
00000000
00000110
00000000
00000000
,
00000001
00000000
00000010
00000100
00000010
00000000
00001000
00000000
00010000
00001000
00010000
00000000
00001000
00000000
00000000
00000000
,
00010000
00000000
00100000
01000000
00100000
00000000
10000000
00000000
00000000
00000000
10000000
00000000
00010000
00000000
00000000
00000000
,
10000000
00000000
00100000
01000000
00100000
00000000
00010000
00000000
00001000
00010000
00001000
00000000
00010000
00000000
00000000
00000000
,
00001000
00000000
00000010
00000100
00000010
00000000
00000001
00000000
00000000
00000000
00001001
00000000
00000000
00000000
00000000
00000000
,
00000001
00000000
00000100
00001000
00010000
00000000
00001000
00000000
00000010
00001000
00010000
00000000
01000000
00000000
00000000
00000000
,
10000000
00100000
01000000
00001000
00010000
00000000
01000000
10000000
01000000
00010000
00001000
00000000
00010000
00000000
00000000
00000000
,
00100000
00000000
00010000
00001000
00000100
00000000
00000001
00000000
00001000
00000100
00000010
00000000
00000001
00000000
00000100
00000000
,
00000001
00000010
00000100
00000010
00001000
00000000
00010000
00000000
00000000
00000000
00011000
00000000
00000000
00000000
00000000
00000000
,
00001000
00000000
00001000
00000000
00011000
00000000
00010000
00100000
01000000
00000000
00010000
00100000
01000000
00000000
10000000
00000000
,
01000000
00100000
00001000
00010000
00001000
00000000
00010000
00001000
00000010
00000000
00000001
00000000
00001001
00000000
00000000
00000000
,
00000001
00000000
00000100
00001000
00000100
00000000
00010000
00000000
00000100
00001000
00000100
00000000
00000010
00010000
00001000
00010000
,
00001000
00000000
00010000
00100000
01000000
00000000
00010000
00000000
00000000
00000000
00010000
00000000
10010000
00000000
00000000
00000000
,
10000000
01000000
00100000
00000000
01000000
00000000
00010000
00001000
00010000
00000000
00000010
00000000
00001000
00000100
00000010
00000000
,
00000001
00000100
00001000
00010000
00000000
01100000
00000000
20020000
,
00000000
00000000
00000000
30030000
,
10000000
00000000
00100000
00010000
00000000
00001000
00000000
00000000
,
00011000
00000000
00000000
00000000
,
00000000
00000000
00000000
00000000
;
