#VERSION:0.83;
#TITLE:Surfing with the Alien;
#SUBTITLE:;
#ARTIST:Joe Satriani;
#TITLETRANSLIT:;
#SUBTITLETRANSLIT:;
#ARTISTTRANSLIT:;
#GENRE:;
#ORIGIN:;
#CREDIT:;
#BANNER:Surfing with the Alien-bn.png;
#BACKGROUND:Surfing with the Alien-bg.png;
#PREVIEWVID:;
#JACKET:Surfing with the Alien-jacket.png;
#CDIMAGE:;
#DISCIMAGE:;
#LYRICSPATH:;
#CDTITLE:;
#MUSIC:Surfing with the Alien.ogg;
#OFFSET:1.300000;
#SAMPLESTART:11.429000;
#SAMPLELENGTH:20.000000;
#SELECTABLE:YES;
#DISPLAYBPM:167.000000;
#BPMS:0.000=167.340;
#STOPS:;
#DELAYS:;
#WARPS:;
#TIMESIGNATURES:0.000=4=4;
#TICKCOUNTS:0.000=4;
#COMBOS:0.000=1;
#SPEEDS:0.000=1.000=0.000=0;
#SCROLLS:0.000=1.000;
#FAKES:;
#LABELS:0.000=Song Start;
#BGCHANGES:;
#KEYSOUNDS:;
#ATTACKS:
;

//---------------dance-single - ----------------
#NOTEDATA:;
#CHARTNAME:;
#STEPSTYPE:dance-single;
#DESCRIPTION:;
#CHARTSTYLE:;
#DIFFICULTY:Hard;
#METER:13;
#RADARVALUES:0.619086,0.696161,0.382888,0.696161,0.065265,498.000000,454.000000,44.000000,80.000000,0.000000,0.000000,0.000000,0.000000,0.000000,0.619086,0.696161,0.382888,0.696161,0.065265,498.000000,454.000000,44.000000,80.000000,0.000000,0.000000,0.000000,0.000000,0.000000;
#CREDIT:;
#DISPLAYBPM:167.000000;
#NOTES:
0000
0000
0000
0000
,
0000
0000
0000
0000
,
0000
0000
0000
0000
,
0000
0000
0000
0000
,
0000
0000
0000
0000
0000
0000
0000
1002
,
0000
1003
0010
1000
0100
0010
0001
0100
,
0001
1000
0100
0020
0000
0031
0100
0001
,
0010
0100
0010
0001
0100
0010
1000
0001
,
1000
0100
0010
0002
0000
0103
0010
2002
,
3000
0000
0103
0010
2000
0000
3001
1000
,
2100
0000
3001
0201
0000
0310
1000
0001
,
0000
1000
0010
1000
0100
0010
0001
0002
,
0000
0013
0001
0100
0000
0010
1000
0202
,
0300
0000
1003
0001
0020
0000
0130
1000
,
0010
0010
0100
0002
0000
1003
0001
0010
,
0000
0001
1000
0010
1000
0100
0010
0001
,
0100
0001
1000
0020
0000
0130
0010
2020
,
3000
0000
1030
0001
0200
0000
0301
0010
,
0012
0000
1003
2010
0000
3100
0010
0001
,
0000
1000
0010
0001
0010
1000
0100
0020
,
0000
0031
0100
0002
0000
1003
0100
0022
,
0003
0000
0130
0010
0002
1000
1003
0010
,
1000
0100
1000
2000
0000
3010
0100
0001
,
0000
0110
0000
0001
0100
1000
0100
0001
,
0010
0100
1000
0002
0000
0103
0010
1001
,
0000
0010
2000
0000
3001
1000
0000
1010
,
0000
0101
0000
0011
0000
0010
0001
0100
,
0002
0000
0010
0000
1000
0000
0013
0001
,
0100
1000
0100
0001
0020
0100
0130
1100
,
0000
1000
0002
0000
0013
0100
0000
0110
,
0000
0011
0000
1001
0000
0100
0010
1000
,
0002
0000
1000
0000
0100
0100
0103
0000
,
2010
0001
0001
0000
0100
3100
1000
1001
,
0000
0010
0200
0000
0310
1000
0000
1100
,
0000
0110
0000
0011
0000
0100
0010
1000
,
0200
0000
0001
0000
1000
1000
1000
0000
,
0310
0001
0100
1020
0000
0130
0010
1000
,
0001
0100
2000
0000
3001
1000
0000
0110
,
0000
1010
0000
0101
0000
0010
0001
0100
,
0001
0001
1000
1000
0100
0100
0010
0010
,
0011
0000
2200
0000
3300
0000
0000
2002
,
0003
0000
0000
3010
1000
0000
0000
1000
0100
0000
0000
0100
0010
0000
0000
0010
,
0001
0000
0000
0001
0100
0000
0000
0100
1000
0000
0000
1000
0100
0000
0000
0100
,
0010
0000
0000
0010
0100
0000
0000
0100
0001
0000
0000
0001
1000
0000
0000
1000
,
0100
0000
0000
0010
0001
0000
2000
0000
0000
0000
3001
0000
0100
0000
0001
0000
,
0000
0020
0000
0001
0031
0100
0001
1000
,
0100
0001
0100
1000
0100
0010
0001
0100
,
0010
0001
0010
1000
0010
0100
0010
0001
,
0020
0000
1030
0100
0010
0001
0100
2001
,
0000
0001
3001
0100
0020
0000
1030
0001
,
1000
1000
0010
0100
0000
0001
0010
0102
,
0000
1000
1003
0100
0001
0100
1000
0100
,
0001
0100
1000
0002
0000
0103
0010
1000
,
0002
0000
0013
0001
0200
0000
0310
1000
,
0020
0000
1030
0001
1000
2200
0300
0000
,
3002
0000
1003
0010
0010
0100
0010
1000
,
0001
0000
0010
0000
0001
0000
0100
0000
1000
0001
1000
0001
1000
0000
1001
0000
,
0000
1010
0000
0101
0000
0001
0001
0100
,
0010
1000
0100
1000
0010
0001
0010
1000
,
0100
0010
0001
0100
0001
1000
0010
0200
,
0000
0000
0310
2000
0000
3100
1000
0002
,
0000
0013
0001
0200
0000
0301
0010
2000
,
0000
3100
0010
0002
0000
0103
0001
0020
,
1000
0000
0001
0000
0100
0100
0130
0000
,
0110
0000
1001
0000
0100
0010
1000
0001
,
1001
0000
0001
0010
0200
0000
1000
0000
,
0310
0100
1000
0002
0000
0203
0000
0320
,
0000
2030
0000
0000
3001
0010
0001
0100
,
0001
1000
0010
0200
0000
0310
1000
2002
,
0003
0000
3010
1000
0002
0000
0013
0100
,
2100
0000
3001
0021
0000
0031
0100
1000
,
0000
0010
1000
0001
1000
0100
0010
0002
,
0000
0103
0001
2000
0000
3010
0100
0220
,
0300
0000
0130
0001
2000
0000
3001
1000
,
0100
0100
0010
0002
0000
1003
0001
1000
,
0000
0010
0001
0010
1000
0100
0010
0001
,
0100
0010
1000
0002
0000
0103
0000
2002
,
0000
0000
0000
0000
,
0000
0000
0000
0000
,
0000
0000
0000
0000
,
3003
0000
0000
0000
;

//---------------dance-single - ----------------
#NOTEDATA:;
#CHARTNAME:;
#STEPSTYPE:dance-single;
#DESCRIPTION:;
#CHARTSTYLE:;
#DIFFICULTY:Medium;
#METER:10;
#RADARVALUES:0.474881,0.556929,0.348080,0.922413,0.000000,382.000000,342.000000,40.000000,106.000000,0.000000,0.000000,0.000000,0.000000,0.000000,0.474881,0.556929,0.348080,0.922413,0.000000,382.000000,342.000000,40.000000,106.000000,0.000000,0.000000,0.000000,0.000000,0.000000;
#CREDIT:;
#DISPLAYBPM:167.000000;
#NOTES:
0000
0000
0000
0000
,
0000
0000
0000
0000
,
0000
0000
0000
0000
,
0000
0000
0000
0000
,
0000
0000
0000
0000
0000
0000
0000
1001
,
0000
0100
0010
0000
1000
0000
0001
0000
,
1000
0100
0010
0002
0000
0103
0010
0000
,
1000
0000
0001
0000
1000
0010
0100
0010
,
1000
0100
0010
0002
0000
0103
0000
2002
,
0003
0000
3001
0100
0020
0000
1030
0001
,
0020
0000
0000
0200
0000
0000
0000
0330
,
0000
1000
0010
0100
0001
1000
0001
0200
,
0000
0301
0010
0001
0000
0100
0000
2020
,
0030
0000
3010
1000
0002
0000
0013
0100
,
1000
0001
1000
0020
0000
0000
0000
0030
,
0000
0100
0010
0100
0001
1000
0100
0020
,
0000
0031
1000
0002
0000
0103
0000
0202
,
0003
0000
0310
0100
0002
0000
0013
0100
,
2000
0000
0000
0002
0000
0000
0000
3003
,
0000
0010
0001
0100
0010
1000
0001
0200
,
0000
0301
1000
0100
0000
0010
0000
0022
,
0030
0000
0103
0001
2000
0000
3010
1000
,
0001
1000
0001
0200
0000
0000
0000
0300
,
0000
0110
0000
0100
0001
1000
0001
0200
,
0000
0310
1000
0002
0000
1003
0000
1001
,
0000
0000
0201
0000
0301
1000
0000
1100
,
0000
0110
0000
0011
0000
0100
0010
1000
,
0002
0000
0000
0000
0000
0000
0000
0023
,
0000
0031
1000
0001
2000
0000
0000
3010
,
0000
0000
1020
0000
0130
0010
0000
0110
,
0000
1001
0000
0110
0000
1000
0010
0100
,
0002
0000
0000
0003
,
2010
0002
3000
0000
1003
0001
1000
1100
,
0000
0000
1002
0000
0013
0001
0000
0011
,
0000
0110
0000
1100
0000
0010
1000
0001
,
0200
0000
0000
0000
,
0301
1000
0100
0020
0000
0000
0000
0031
,
0000
0000
0201
0000
0301
1000
0000
1001
,
0000
1010
0000
2200
3000
0000
1300
0100
,
0020
0000
0001
0000
1000
0000
0031
1000
,
1100
0000
0202
0000
0000
0303
0000
2002
,
0003
3020
2030
3002
,
0203
2300
3200
0302
,
2003
3200
0320
0032
,
0203
0000
0301
2000
0000
3001
1000
0100
,
0000
0020
0000
0031
1000
0001
0100
0000
,
0010
1000
0100
0000
1000
0001
1000
0000
,
0010
0100
0001
1000
0001
1000
0100
0010
,
0002
0000
0000
0000
1003
0001
1000
1001
,
0000
0110
0000
1000
0002
0000
1003
0000
,
0001
0100
0001
1000
0000
0010
0100
0020
,
0000
1030
0010
1000
0001
0010
0100
0010
,
0001
1000
0001
0200
0000
0310
0000
1000
,
0002
0023
0032
0203
,
0320
0000
2030
0000
3001
1000
0200
0000
,
0320
0000
0000
0032
0000
1003
0001
1000
,
0010
0100
0020
0000
1030
0001
0100
0101
,
0000
2000
0000
3002
0000
0013
0000
0001
,
0100
0001
1000
0100
1000
0010
0100
0000
,
0001
1000
0100
1000
0010
0100
0001
2000
,
0000
0000
0000
3200
0000
0300
0000
0022
,
0030
0000
1003
0002
0000
0000
0013
0200
,
0000
0000
1300
0020
0000
0030
0000
0202
,
0300
1000
0100
1003
,
0110
0000
1001
0000
0010
0100
0010
0000
,
1010
0000
2000
0000
0002
0000
0000
3003
,
0000
0020
0000
0230
0000
2300
0000
3002
,
0000
0203
0000
0000
0301
1000
0001
0010
,
0100
1000
0010
0200
0000
0301
0000
2002
,
3000
0000
0013
0001
0200
0000
0310
0000
,
2020
0000
0030
0002
0000
0000
0000
3003
,
0000
1000
0100
0010
0001
1000
0001
0200
,
0000
0000
0310
1000
0000
0001
0000
0022
,
0003
0000
0130
1000
0002
0000
1003
0001
,
0100
0001
1000
0020
0000
0000
0000
0030
,
0000
0100
0010
1000
0001
0010
0001
2000
,
0000
0000
3100
0010
0000
0001
0000
2002
,
0000
0000
0000
0000
,
0000
0000
0000
0000
,
0000
0000
0000
0000
,
3003
0000
0000
0000
;

//---------------dance-single - ----------------
#NOTEDATA:;
#CHARTNAME:;
#STEPSTYPE:dance-single;
#DESCRIPTION:;
#CHARTSTYLE:;
#DIFFICULTY:Easy;
#METER:7;
#RADARVALUES:0.299598,0.417696,0.121828,0.417696,0.000000,241.000000,227.000000,14.000000,48.000000,0.000000,0.000000,0.000000,0.000000,0.000000,0.299598,0.417696,0.121828,0.417696,0.000000,241.000000,227.000000,14.000000,48.000000,0.000000,0.000000,0.000000,0.000000,0.000000;
#CREDIT:;
#DISPLAYBPM:167.000000;
#NOTES:
0000
0000
0000
0000
,
0000
0000
0000
0000
,
0000
0000
0000
0000
,
0000
0000
0000
0000
,
0000
0000
0000
0000
,
0001
0100
0001
1000
,
0100
0010
0001
0100
,
0001
1000
0010
1000
,
0100
0010
0001
0000
,
2000
3010
2000
3001
,
0200
0000
0000
0020
0000
0000
0000
0330
,
0000
1000
0001
1000
,
0100
0010
0001
0000
,
0200
0310
0200
0301
,
1000
1000
2000
0000
,
3000
0010
1000
0100
,
1000
0001
0010
0000
,
0002
0103
0002
0013
,
0002
0000
0000
2000
0000
0000
0000
3003
,
0000
0010
0100
0001
,
1000
0100
0010
0000
,
0200
0310
0200
1300
,
0001
0000
0001
0000
0002
0000
0000
0003
,
0000
0110
0000
0000
0001
0000
1000
0000
,
0001
0000
0100
0000
0010
0000
0000
1001
,
0000
0100
0010
0100
,
0001
0010
0001
1000
,
0020
0000
0000
0030
,
1000
0000
0001
0000
2000
0000
0000
3000
,
0000
0100
0010
0001
,
1000
0001
1000
0010
,
0200
0000
0000
0300
,
0220
0000
0000
0000
0000
0330
0000
1001
,
0000
0010
1000
0100
,
1000
0001
0010
0100
,
2000
0000
0000
3000
,
0001
0000
0100
0000
0020
0000
0000
0030
,
0000
0100
0001
0000
,
1000
0001
1000
0100
,
0020
0000
0000
0030
,
0002
0000
2000
0000
0000
3003
0000
1001
,
0000
0010
1000
0100
,
1000
0010
0100
0001
,
0010
0100
0010
0001
,
1000
0000
0001
0000
0200
0000
0000
0300
,
0000
0020
0000
0000
1000
0000
0130
0000
,
1000
0010
0100
0001
,
0010
0001
0100
0010
,
2000
0000
0000
0000
3001
0000
0000
0110
,
0000
0000
0010
0100
,
0010
1000
0001
0000
,
1000
0010
1000
0100
,
0010
0001
0002
0003
,
0200
0301
2000
3001
,
0020
0000
0130
0000
1000
0002
0000
0000
,
0023
0030
0001
1000
,
0001
0000
0100
0000
0010
0000
0000
0110
,
0000
1001
0000
0000
0010
0000
1000
0000
,
0001
0001
1000
1000
,
0100
1000
0010
0100
,
0002
0000
0000
2003
0000
0000
0000
3020
,
0000
0000
0000
2030
0000
0000
0000
3200
,
0000
0000
0000
0310
0000
0001
0000
0200
,
0000
0000
0000
0300
,
0110
1001
0100
0010
,
1001
0010
1000
0100
,
1000
0010
0100
0001
,
0110
0001
0100
0010
,
1000
0100
0010
0000
,
0002
0103
0020
1030
,
0002
0000
0000
2000
0000
0000
0000
3003
,
0000
0010
1000
0100
,
1000
0001
0010
0000
,
0020
0031
0200
0310
,
1000
0000
1000
0000
2000
0000
0000
3000
,
0000
0010
1000
0100
,
1000
0001
0110
0000
,
2002
0000
0000
0000
,
0000
0000
0000
0000
,
0000
0000
0000
0000
,
3003
0000
0000
0000
;

//---------------dance-single - ----------------
#NOTEDATA:;
#CHARTNAME:;
#STEPSTYPE:dance-single;
#DESCRIPTION:;
#CHARTSTYLE:;
#DIFFICULTY:Beginner;
#METER:4;
#RADARVALUES:0.183985,0.278464,0.069616,0.226252,0.000000,148.000000,140.000000,8.000000,26.000000,0.000000,0.000000,0.000000,0.000000,0.000000,0.183985,0.278464,0.069616,0.226252,0.000000,148.000000,140.000000,8.000000,26.000000,0.000000,0.000000,0.000000,0.000000,0.000000;
#CREDIT:;
#DISPLAYBPM:167.000000;
#NOTES:
// measure 0
0000
0000
0000
0000
,  // measure 1
0000
0000
0000
0000
,  // measure 2
0000
0000
0000
0000
,  // measure 3
0000
0000
0000
0000
,  // measure 4
0000
0000
0000
0000
,  // measure 5
0001
0000
0000
0000
,  // measure 6
0000
1000
1000
0000
,  // measure 7
0010
0000
1000
0000
,  // measure 8
0001
0001
0001
0000
,  // measure 9
0100
0000
0010
0000
,  // measure 10
2000
0000
0000
3000
,  // measure 11
0000
0001
0001
0002
,  // measure 12
0000
0000
0003
0000
,  // measure 13
1000
0000
0100
0000
,  // measure 14
0010
0020
0000
0030
,  // measure 15
0000
0001
0001
0002
,  // measure 16
0000
0000
0003
0000
,  // measure 17
0010
0000
0001
0000
,  // measure 18
0200
0000
0000
0300
,  // measure 19
0000
0010
0010
0020
,  // measure 20
0000
0000
0030
0000
,  // measure 21
0100
0000
0001
0000
,  // measure 22
1000
2000
0000
3000
,  // measure 23
0000
0000
0001
0002
,  // measure 24
0000
0000
0000
0003
,  // measure 25
0000
0010
0010
0000
,  // measure 26
0100
0100
0100
0000
,  // measure 27
0020
0000
0030
0000
,  // measure 28
0001
0001
0001
0000
,  // measure 29
0000
0100
0100
0000
,  // measure 30
0010
0010
0010
0000
,  // measure 31
2000
0000
3000
0000
,  // measure 32
2002
0000
0000
3003
,  // measure 33
0000
0100
0100
0000
,  // measure 34
0001
0001
0001
0000
,  // measure 35
0020
0000
0030
0000
,  // measure 36
0100
0200
0000
0300
,  // measure 37
0000
1000
1000
0000
,  // measure 38
0010
0010
0010
0000
,  // measure 39
0200
0000
0000
0300
,  // measure 40
0000
0220
0330
0000
,  // measure 41
0001
0001
0001
0000
,  // measure 42
0010
0000
0001
0000
,  // measure 43
0100
0000
0010
0000
,  // measure 44
1000
1000
2000
3000
,  // measure 45
0000
0001
0001
0000
,  // measure 46
0100
0000
0010
0000
,  // measure 47
0100
0000
0001
0000
,  // measure 48
2000
0000
3000
0000
,  // measure 49
1001
0000
0100
0000
,  // measure 50
0010
0010
0010
0000
,  // measure 51
1000
1000
1000
0000
,  // measure 52
0001
0001
0001
0000
,  // measure 53
0010
0000
0001
0000
,  // measure 54
0010
0000
0100
0000
,  // measure 55
1000
0000
0001
0000
,  // measure 56
1000
1000
1000
0000
,  // measure 57
0110
0000
1001
0000
,  // measure 58
0100
0100
0100
0000
,  // measure 59
1000
0000
0001
0000
,  // measure 60
1000
0000
0010
0000
,  // measure 61
0100
0000
0100
0000
,  // measure 62
0100
0000
0100
0000
,  // measure 63
0002
0000
0003
0000
,  // measure 64
1000
1000
1000
0000
,  // measure 65
0000
0100
0000
0100
,  // measure 66
0000
1000
0000
1000
,  // measure 67
0000
0001
0000
0001
,  // measure 68
0000
0110
0000
0000
,  // measure 69
0010
0000
0100
0000
,  // measure 70
0220
0000
0000
0330
,  // measure 71
0000
1000
1000
2000
,  // measure 72
0000
0000
3000
0000
,  // measure 73
0001
0000
1000
0000
,  // measure 74
0010
0010
0010
0000
,  // measure 75
0000
0100
0100
0200
,  // measure 76
0000
0000
0300
0000
,  // measure 77
2002
0000
0000
0000
,  // measure 78
0000
0000
0000
0000
,  // measure 79
0000
0000
0000
0000
,  // measure 80
3003
0000
0000
0000
;
