#VERSION:0.83;
#TITLE:Summer of '69;
#SUBTITLE:;
#ARTIST:Bryan Adams;
#TITLETRANSLIT:;
#SUBTITLETRANSLIT:;
#ARTISTTRANSLIT:;
#GENRE:;
#ORIGIN:;
#CREDIT:;
#BANNER:Summer of '69-bn.png;
#BACKGROUND:Summer of '69-bg.png;
#PREVIEWVID:;
#JACKET:Summer of '69-jacket.png;
#CDIMAGE:;
#DISCIMAGE:;
#LYRICSPATH:;
#CDTITLE:;
#MUSIC:Summer of '69.ogg;
#OFFSET:1.296000;
#SAMPLESTART:69.657997;
#SAMPLELENGTH:20.000000;
#SELECTABLE:YES;
#DISPLAYBPM:137.000000:142.000000;
#BPMS:0.000=138.920,
12.000=138.000,
28.000=138.460,
36.000=139.500,
40.000=139.000,
52.000=138.333,
60.000=140.000,
66.000=138.750,
84.000=137.000,
89.000=138.650,
100.000=137.540,
106.000=139.125,
120.000=141.000,
124.000=139.750,
131.000=138.555,
145.000=137.758,
154.000=138.421,
162.000=139.650,
168.000=138.458,
182.000=139.010,
204.000=139.875,
209.000=139.333,
225.000=138.543,
232.000=138.973,
243.000=140.200,
246.000=137.960,
251.000=137.430,
258.000=138.625,
264.000=138.023,
268.000=137.300,
273.000=142.000;
#STOPS:;
#DELAYS:;
#WARPS:;
#TIMESIGNATURES:0.000=4=4;
#TICKCOUNTS:0.000=4;
#COMBOS:0.000=1;
#SPEEDS:0.000=1.000=0.000=0;
#SCROLLS:0.000=1.000;
#FAKES:;
#LABELS:0.000=Song Start;
#BGCHANGES:;
#KEYSOUNDS:;
#ATTACKS:
;

//---------------dance-single - ----------------
#NOTEDATA:;
#CHARTNAME:;
#STEPSTYPE:dance-single;
#DESCRIPTION:;
#CHARTSTYLE:;
#DIFFICULTY:Hard;
#METER:10;
#RADARVALUES:0.473948,0.495073,0.197576,0.263435,0.004116,403.000000,379.000000,24.000000,32.000000,0.000000,0.000000,0.000000,0.000000,0.000000,0.473948,0.495073,0.197576,0.263435,0.004116,403.000000,379.000000,24.000000,32.000000,0.000000,0.000000,0.000000,0.000000,0.000000;
#CREDIT:;
#DISPLAYBPM:137.000000:142.000000;
#NOTES:
0000
0000
0000
0000
,
0000
0000
0000
0000
,
0000
0000
0000
0000
,
0010
0000
1000
0001
0000
1000
1000
0100
,
0020
0000
0032
0000
2003
0000
3010
0100
,
0001
0000
0010
0100
0000
1000
1000
0001
,
0200
0000
0320
0000
1030
0100
0001
0000
,
0010
0000
0001
1000
0000
0001
0001
0100
,
0020
0000
2030
0000
3100
0010
0001
0000
,
0100
0000
0001
1000
0001
0010
0100
0000
,
1000
0000
1000
0000
0001
0100
0010
0000
,
1001
0000
0100
0001
0000
0010
0000
0100
,
2000
0000
3002
0000
0013
0001
0100
0010
,
1000
0000
0100
0010
0001
0000
0100
0001
,
0020
0000
0230
0000
0310
0001
1000
0010
,
0100
0000
0001
1000
0110
0000
0001
0000
,
0010
0100
1000
0000
0002
0100
0103
0000
,
0010
0000
1000
0001
1000
0100
0000
0010
,
0001
0100
0001
0010
0001
0100
1000
0000
,
1100
0000
0001
1000
0000
0010
0010
0100
,
0001
1000
0001
0010
0000
0100
1000
0000
,
0001
0000
1000
0020
0000
0130
0010
0100
,
0002
0000
2003
0000
3001
0010
0100
1000
,
0110
0000
0001
0100
0000
0010
0000
1000
,
0100
1000
0001
0100
0010
1000
0001
0000
,
0010
0000
0001
2000
0000
3001
1000
0100
,
0010
0001
0100
0000
0010
1000
0001
0000
,
0100
0000
0001
1000
0000
0010
0000
0100
,
0002
0000
2003
0000
3100
0010
0001
0000
,
1001
0000
0100
0001
0000
0001
0010
0000
,
0001
0100
0000
0010
1000
0100
0001
0100
,
1000
0000
0010
0100
0000
0100
0001
1000
,
0001
0010
0001
0100
0010
1000
0100
0010
,
0011
0000
1000
0001
0000
0010
0100
0010
,
0001
0100
0010
1000
0100
0010
0001
0000
,
0101
0000
1000
0001
0000
0010
0001
0100
,
0020
0000
2030
0000
3100
1000
0001
0000
,
1010
0000
0100
0001
0100
0010
1000
0200
,
0000
0320
0000
0031
0010
0001
0100
0010
,
1000
0000
0001
1000
0000
0100
0100
0010
,
0011
0000
1100
0000
0001
0100
1000
0000
,
1001
0000
0010
0100
0000
0100
0001
1000
,
0001
0010
0001
0100
0010
1000
0001
0000
,
0101
0000
0100
0010
0000
1000
0100
0010
,
0001
0000
0100
0001
0010
0100
1000
0000
,
1100
0000
0010
2000
0000
3100
1000
0001
,
0100
0001
0010
0100
0000
1000
0001
0000
,
0100
0000
0001
0010
0000
0010
0100
1000
,
0010
1000
0100
0000
1000
0010
0001
0000
,
0100
0000
0001
1000
0000
0100
0000
0010
,
0002
0000
2003
0000
3001
0100
0010
0000
,
1001
0000
0100
0010
0000
1000
0001
0000
,
0010
0001
0000
0100
0001
0010
1000
0010
,
0001
0000
0100
0010
0000
1000
0001
0000
,
0010
0001
0100
0001
1000
0100
0001
0000
,
1010
0000
0100
0001
0000
1000
0100
0000
,
0010
0001
0000
1000
0100
0001
0100
1000
,
0010
0000
0100
0001
0000
1001
1001
0000
,
0010
0000
1000
0001
1000
0000
0100
0000
0010
0000
0000
0000
0002
0000
1000
0000
,
1003
0000
0010
0200
0000
0001
0301
1000
,
0001
0010
0100
1000
0100
0010
0001
0000
,
0110
0000
0001
0100
0000
0010
0000
1000
,
0100
0001
0000
1000
0001
1000
0100
0000
,
0010
0000
0001
1000
0000
0100
0200
0000
,
0310
0001
0100
0010
0000
1010
0000
1001
,
0000
0001
0100
0010
0000
0101
0000
1100
,
0000
0001
1000
0001
0010
0100
1000
0000
,
2002
0000
0000
0000
,
0000
0000
0000
3003
,
0220
0000
0000
0000
,
0000
0000
0000
0330
;

//---------------dance-single - ----------------
#NOTEDATA:;
#CHARTNAME:;
#STEPSTYPE:dance-single;
#DESCRIPTION:;
#CHARTSTYLE:;
#DIFFICULTY:Medium;
#METER:8;
#RADARVALUES:0.349287,0.407707,0.246970,0.246970,0.000000,297.000000,267.000000,30.000000,30.000000,0.000000,0.000000,0.000000,0.000000,0.000000,0.349287,0.407707,0.246970,0.246970,0.000000,297.000000,267.000000,30.000000,30.000000,0.000000,0.000000,0.000000,0.000000,0.000000;
#CREDIT:;
#DISPLAYBPM:137.000000:142.000000;
#NOTES:
0000
0000
0000
0000
,
0000
0000
0000
0000
,
0000
0000
0000
0000
,
0010
0000
0001
1000
0000
0000
0000
0000
,
0010
0010
1000
0001
,
0100
0000
0001
1000
0000
0000
0000
0000
,
0200
0320
0032
0003
,
0100
0000
0010
1000
0000
0000
0000
0000
,
0002
2003
3200
0300
,
0010
0000
0001
1000
0000
0000
0000
0000
,
0001
0000
0001
0000
1000
0001
0100
0000
,
1001
0000
0000
0010
0000
0010
0000
1000
,
0200
2300
3002
0003
,
0110
0000
0001
1000
0001
0000
0010
0100
,
1000
0010
1000
0000
,
0001
0000
1000
0010
1000
0000
0000
0000
,
0100
0010
0001
0000
1000
0000
1000
0000
,
0110
0000
0001
0100
0001
0000
0000
0000
,
0010
0100
1000
0000
1001
0000
0101
0000
,
1100
0000
0000
0001
0000
1000
0001
0000
,
0010
0100
0000
1000
0000
0000
0000
0000
,
0001
0000
0100
0010
0000
0100
0010
0000
,
1010
1010
0101
0101
,
1000
0000
0000
0001
0000
0001
0000
0010
,
0001
0000
1000
0001
0000
0000
0000
0000
,
0010
0000
0000
0002
0000
1003
0001
0000
,
0020
0230
2300
3002
,
0103
0000
0000
0010
0000
0100
0000
0001
,
2000
0010
0100
3001
,
1001
0000
0000
0100
0000
0010
1000
0000
,
0000
0100
0000
1000
0001
0000
0100
0000
,
0110
0000
0000
0001
0000
1000
0001
0000
,
0000
1000
0100
1000
0100
1000
0100
0000
,
1100
0000
0000
0101
0000
0000
0001
1000
,
0000
0001
1000
0000
0020
0000
0230
0000
,
0301
0000
0000
0010
0000
0001
1000
0000
,
0200
0320
0032
1003
,
0101
0000
1100
0000
0001
1000
0000
0100
,
0000
0100
0000
0010
0002
0000
2003
0000
,
3010
0000
0000
0010
0000
1000
0001
0000
,
0011
1100
0101
1100
,
0001
0000
0000
1000
0000
0010
1000
0000
,
0100
0010
0000
0001
0000
0000
0000
0000
,
0100
0000
0001
1000
0000
1000
0100
0000
,
1100
1100
0011
0011
,
0100
0000
0000
0020
0000
0000
1030
0001
,
1000
0100
0000
0010
0000
0000
0000
0000
,
0001
0000
1000
0002
0000
0013
0100
0000
,
1000
1000
0001
0001
,
0100
0000
0000
0010
0000
1000
0000
0001
,
2000
0100
0001
3010
,
1001
0000
0010
1000
0000
0010
1000
0000
,
0000
0100
0000
0000
0010
0001
0100
0000
,
0010
0000
1000
0001
0000
1000
0001
0000
,
0000
0100
0001
0100
0001
0100
0001
0000
,
1001
0000
0100
0010
0000
0100
0010
0000
,
0000
1000
0000
0000
0001
1000
0100
0000
,
0010
0000
0001
1000
0000
0001
1000
0000
,
0000
0010
1000
0010
1000
0010
1000
0000
,
0101
0000
0000
2000
0000
0000
3001
0000
,
1000
0100
0000
0010
0000
0001
0100
0000
,
0110
0000
0001
1000
0000
0100
0000
0000
,
1000
0010
0000
0100
0000
0001
0000
0000
,
0010
0000
0001
1000
0000
0010
0100
0000
,
0010
1000
0010
0100
0000
0001
0000
1000
,
0000
0001
0000
0000
0000
0010
0000
0100
,
0000
1000
0000
0000
0010
0100
0001
0000
,
2002
0000
0000
0000
,
0000
0000
0000
3003
,
0220
0000
0000
0000
,
0000
0000
0000
0330
;

//---------------dance-single - ----------------
#NOTEDATA:;
#CHARTNAME:;
#STEPSTYPE:dance-single;
#DESCRIPTION:;
#CHARTSTYLE:;
#DIFFICULTY:Easy;
#METER:5;
#RADARVALUES:0.231682,0.291219,0.115253,0.032929,0.000000,197.000000,183.000000,14.000000,4.000000,0.000000,0.000000,0.000000,0.000000,0.000000,0.231682,0.291219,0.115253,0.032929,0.000000,197.000000,183.000000,14.000000,4.000000,0.000000,0.000000,0.000000,0.000000,0.000000;
#CREDIT:;
#DISPLAYBPM:137.000000:142.000000;
#NOTES:
0000
0000
0000
0000
,
0000
0000
0000
0000
,
0000
0000
0000
0000
,
0000
0000
0000
0000
,
0001
0001
1000
1000
,
0000
0000
0010
0000
,
1000
0100
1000
0000
,
0000
0000
0001
0000
,
0100
0010
0100
0000
,
0000
0001
0010
0100
,
1000
1000
0001
0000
,
1001
0000
0100
0010
,
1000
1000
0100
0000
,
0000
0010
0001
0100
,
0001
1000
1000
0000
,
0000
0010
0110
0000
,
1000
1000
0001
1000
,
0000
0100
0010
0000
,
0001
0100
0001
0000
,
1001
0000
0000
0000
,
1000
0100
0001
0000
,
1000
0000
0001
0000
,
0010
0010
0100
0100
,
1001
0000
0010
0100
,
0010
1000
0001
0000
,
0010
0000
0100
0000
,
1000
1000
0001
0001
,
0100
0000
0001
0000
,
1000
0001
1000
0001
,
1001
0000
0010
0000
,
1000
0000
0100
1000
,
0001
0000
0100
0000
,
0010
0010
1000
0001
,
0110
0000
0110
0000
,
0001
0100
0001
1000
,
0100
0000
0100
1000
,
0001
1000
1001
0000
,
0010
1000
0001
0000
,
0100
0100
0001
0010
,
0100
0000
0100
0000
,
1001
0110
1000
0001
,
0100
0000
0010
1000
,
0010
0000
0110
0000
,
0001
0000
1000
0000
,
0100
1000
0001
0100
,
0010
0000
1000
0100
,
1000
0010
0001
0000
,
0100
0000
0010
0000
,
0100
0100
0001
0010
,
0001
0000
1000
0000
,
0010
0100
0010
0100
,
1001
0000
0001
0000
,
1000
0000
0001
0100
,
0010
0000
1000
0000
,
0100
0010
0100
1000
,
0001
1000
0001
0100
,
0010
0000
1000
1000
,
0001
0000
0010
0001
,
0100
0010
1000
0001
,
1000
0000
1000
0000
,
0001
0100
0001
0100
,
0010
1000
1000
0000
,
0100
1000
0001
0000
,
0100
0000
0000
0000
,
0010
1000
0100
0010
,
0001
0000
0000
1000
,
0001
0000
0100
0010
,
2002
0000
0000
0000
,
0000
0000
0000
3003
,
0220
0000
0000
0000
,
0000
0000
0000
0330
;

//---------------dance-single - ----------------
#NOTEDATA:;
#CHARTNAME:;
#STEPSTYPE:dance-single;
#DESCRIPTION:;
#CHARTSTYLE:;
#DIFFICULTY:Beginner;
#METER:3;
#RADARVALUES:0.144654,0.201693,0.098788,0.065859,0.000000,123.000000,111.000000,12.000000,8.000000,0.000000,0.000000,0.000000,0.000000,0.000000,0.144654,0.201693,0.098788,0.065859,0.000000,123.000000,111.000000,12.000000,8.000000,0.000000,0.000000,0.000000,0.000000,0.000000;
#CREDIT:;
#DISPLAYBPM:137.000000:142.000000;
#NOTES:
// measure 0
0000
0000
0000
0000
,  // measure 1
0000
0000
0000
0000
,  // measure 2
0000
0000
0000
0000
,  // measure 3
0000
0000
0000
0000
,  // measure 4
0001
0001
0001
0000
,  // measure 5
0000
0000
0000
0000
,  // measure 6
0100
0100
0100
0000
,  // measure 7
0000
0000
0000
0000
,  // measure 8
0010
0010
0010
0000
,  // measure 9
0000
0000
0000
0000
,  // measure 10
1000
1000
1000
0000
,  // measure 11
1001
0000
0000
0000
,  // measure 12
0001
0001
0001
0000
,  // measure 13
0100
0000
0000
0000
,  // measure 14
0010
0010
0010
0000
,  // measure 15
0000
0000
0110
0000
,  // measure 16
1000
0000
0001
0000
,  // measure 17
0000
0000
0100
0000
,  // measure 18
0010
0010
0010
0000
,  // measure 19
1001
0000
0000
0000
,  // measure 20
0001
0000
0000
0000
,  // measure 21
1000
0000
0000
0000
,  // measure 22
0010
0000
0100
0000
,  // measure 23
0110
0000
0000
0000
,  // measure 24
1000
0000
0001
0000
,  // measure 25
0010
0000
0000
0000
,  // measure 26
0001
0000
0100
0000
,  // measure 27
0010
0000
1000
0000
,  // measure 28
0110
0000
0000
0000
,  // measure 29
1001
0000
0000
0000
,  // measure 30
0001
0000
1000
0000
,  // measure 31
0100
0000
0000
0000
,  // measure 32
0100
0000
0010
0000
,  // measure 33
0001
0000
0000
0000
,  // measure 34
1000
0000
0001
0000
,  // measure 35
1000
0000
0010
0000
,  // measure 36
0100
0100
0100
0000
,  // measure 37
0001
0000
0010
0000
,  // measure 38
0100
0000
1000
0000
,  // measure 39
0010
0000
0000
0000
,  // measure 40
1000
1000
1000
0000
,  // measure 41
1001
0000
0100
0000
,  // measure 42
0010
0000
0100
0000
,  // measure 43
0001
0000
1000
0000
,  // measure 44
0001
0001
0001
0000
,  // measure 45
0110
0000
0100
0000
,  // measure 46
0010
0000
1000
0000
,  // measure 47
0100
0000
0010
0000
,  // measure 48
0100
0100
0100
0000
,  // measure 49
1000
0000
0010
0000
,  // measure 50
0110
0000
0000
0000
,  // measure 51
1001
0000
0000
0000
,  // measure 52
0010
0000
0100
0000
,  // measure 53
0010
0000
0000
0000
,  // measure 54
1000
0000
0001
0000
,  // measure 55
0010
0010
0000
0000
,  // measure 56
0100
0000
1000
0000
,  // measure 57
0010
0000
0000
0000
,  // measure 58
0100
0000
0001
0000
,  // measure 59
0010
0000
0010
0000
,  // measure 60
0001
0000
1000
0000
,  // measure 61
0020
0000
0030
0000
,  // measure 62
0200
0000
0300
0000
,  // measure 63
0010
0000
0000
0000
,  // measure 64
1000
1000
1000
0000
,  // measure 65
0002
0000
0003
0000
,  // measure 66
2000
0000
3000
0000
,  // measure 67
2002
0000
0000
0000
,  // measure 68
3003
0000
0000
0000
,  // measure 69
0220
0000
0000
0000
,  // measure 70
0330
0000
0000
0000
;
