#TITLE:Stupid Cupid;
#SUBTITLE:;
#ARTIST:Connie Francis;
#TITLETRANSLIT:;
#SUBTITLETRANSLIT:;
#ARTISTTRANSLIT:;
#GENRE:;
#CREDIT:;
#BANNER:Stupid Cupid-bn.png;
#BACKGROUND:Stupid Cupid-bg.png;
#LYRICSPATH:;
#CDTITLE:;
#MUSIC:Stupid Cupid.ogg;
#OFFSET:0.000000;
#SAMPLESTART:93.824997;
#SAMPLELENGTH:20.000000;
#SELECTABLE:YES;
#DISPLAYBPM:128.000000:142.000000;
#BPMS:0.000000=136.000000
,4.000000=132.000000
,10.000000=130.000000
,15.000000=135.000000
,18.000000=134.000000
,20.000000=137.000000
,32.000000=138.000000
,47.000000=134.300003
,49.500000=128.000000
,54.000000=135.699997
,60.000000=138.500000
,68.000000=135.949997
,72.000000=134.500000
,78.000000=136.666672
,95.500000=132.500000
,97.500000=128.000000
,102.000000=135.555557
,104.000000=138.199997
,107.000000=139.009995
,124.000000=134.819000
,128.000000=132.222229
,135.000000=137.781006
,140.000000=136.610001
,146.000000=137.123459
,155.000000=135.998001
,175.500000=131.199997
,181.000000=136.610001
,183.000000=137.817993
,192.000000=139.800003
,199.500000=142.000000
,204.000000=133.333328
,217.500000=128.000000
,220.000000=135.000000
,226.000000=136.671494
,234.000000=138.050995
,242.000000=137.246002
,245.000000=135.919189
,254.500000=130.500000
,257.500000=128.000000
,260.000000=136.156998
;
#STOPS:
;
#BGCHANGES:;
#KEYSOUNDS:;
#ATTACKS:;

//---------------dance-single - ----------------
#NOTES:
     dance-single:
     :
     Hard:
     13:
     0.591904,0.563221,0.230642,0.296540,0.102965,503.000000,475.000000,28.000000,36.000000,0.000000,0.000000,0.591904,0.563221,0.230642,0.296540,0.102965,503.000000,475.000000,28.000000,36.000000,0.000000,0.000000:
0000
0000
0000
0000
,
1001
0000
1000
1000
0001
0001
0010
0100
,
1000
0010
0000
0200
0000
0001
0301
1000
,
0001
0001
0010
0100
1000
0010
1000
0001
,
0100
0010
0000
2000
0000
0010
3010
0100
,
0010
0010
1000
0001
1000
0100
0010
0001
,
1000
0001
0000
0020
0000
0100
0130
1000
,
0100
0100
0010
0001
1000
0001
0010
0100
,
2000
0000
3010
0100
0000
0001
0001
1000
,
0001
0001
0101
0000
2100
0000
3010
0000
,
1000
0000
0001
0000
0010
0000
0100
0000
0000
0000
2000
0000
3010
0100
0001
0000
,
1001
0000
1000
0001
1000
0001
0000
0010
,
0001
0100
1000
0001
0000
0010
0010
0010
,
0001
0100
1000
0100
0001
0100
0010
1000
,
0200
0000
1300
0001
0000
0010
0010
0100
,
0010
0010
0001
0100
1000
0100
0001
1000
,
0100
0000
0000
0010
0000
0000
0001
0000
0000
0000
1000
0000
1000
0000
0001
0000
,
1000
1000
0010
0001
0010
0100
0010
1000
,
0200
0000
0310
0100
0000
1000
1000
0010
,
1000
1000
0100
0010
0100
1000
0001
0010
,
0002
0000
1003
0020
0000
0100
0130
0001
,
0100
0100
1010
0000
0102
0000
0013
0010
,
0100
0000
1000
0000
0001
0000
1000
0000
0000
0000
0020
0000
0130
0001
0010
0000
,
1001
0000
1000
0001
1000
0001
0000
0010
,
0001
0100
1000
0001
0000
0010
0010
0010
,
0110
0000
0001
0100
0001
0000
0010
0000
1000
0000
0010
0000
0001
0000
0100
0000
,
0010
0000
1010
0001
0010
0100
1000
0000
,
0001
0000
1000
0010
1000
0000
0100
0000
0001
0000
0100
0000
1000
0000
0020
0000
,
0000
0100
0130
0001
1000
0001
0001
0000
,
0011
0000
0100
1000
0100
0000
0010
0000
0001
0000
0100
0000
0001
0000
1000
0000
,
0020
0000
0130
0001
0000
1000
0100
0001
,
1010
0000
0100
0001
0011
0000
0100
0000
,
0110
0000
0000
0000
0000
0000
0001
0000
0100
0000
0010
0000
1000
0000
0000
0100
0000
0000
0001
0000
0000
0100
0000
0000
,
1000
0010
1000
0100
1001
0010
0100
0001
,
0010
0100
1000
0001
0000
0100
0100
0001
,
0100
0100
0010
1000
0010
0001
0010
1000
,
0002
0000
1003
0100
0000
0010
0010
0001
,
0010
0010
0100
0010
0001
1000
0001
0100
,
0020
0000
1030
0100
0000
0001
0001
0010
,
0001
0001
0100
1000
0100
0010
1000
0100
,
0001
0010
0001
2000
0000
0100
3100
0010
,
0100
0100
1100
0000
0012
0000
1003
1000
,
0001
0000
0010
0000
0100
0000
1000
0000
0000
0000
0020
0000
1030
0001
0100
0000
,
1001
0000
1000
0001
1000
0001
0000
0010
,
0001
0000
0100
0000
1000
0000
0001
0000
0110
0000
1000
0000
0010
0100
0001
0000
,
0010
0000
0001
1000
0001
0000
0100
0000
0010
0000
1000
0000
0001
0000
0100
0000
,
0001
0010
0002
0203
0310
1000
0010
0100
,
0001
0000
0010
0000
0200
0000
1300
0010
1000
0000
0002
0000
0013
0001
0100
0000
,
0020
2030
3001
0100
0000
0200
0301
1000
,
0000
0000
0010
1000
0010
0100
0001
0000
2000
0000
0000
3200
0000
0000
0310
0000
,
0000
0000
0001
1000
0010
0100
0001
0000
0010
0000
0100
1000
0000
0001
1000
0000
,
0101
0000
1100
0000
,
0110
0001
0001
1000
1000
0001
0100
0010
,
1000
0010
1000
0100
1001
0010
0001
0100
,
0002
0000
0013
0001
0000
1000
1000
0010
,
1000
1000
0001
0100
0010
0001
0010
1000
,
0002
0000
0013
0100
0000
1000
1000
0100
,
1000
1000
0001
0100
0001
0010
1000
0010
,
0002
0000
1003
0001
0000
0010
0010
0100
,
0010
0010
0001
0100
1000
0100
0001
2000
,
0000
0000
3100
0000
0000
1000
0000
0000
0001
0000
1000
0000
1000
0000
0010
0000
,
1000
1000
0101
0000
2010
0000
3001
0001
,
0010
0000
0000
0001
0000
0000
1000
0000
0000
0000
2000
0000
3010
0100
0001
0000
,
1001
0000
1000
0001
1000
0001
0000
0010
,
0001
0100
1000
0001
0000
0010
0010
0010
,
0100
0000
1100
0000
0102
0000
0013
0010
,
0100
0000
0000
1000
0000
0000
0001
0000
0000
0000
0020
0000
0031
1000
0010
0000
,
1001
0000
1000
0001
1000
0001
0000
0010
,
0001
0100
1000
0001
0000
0000
0000
0000
;

//---------------dance-single - ----------------
#NOTES:
     dance-single:
     :
     Medium:
     10:
     0.441280,0.450577,0.230642,0.444811,0.012356,375.000000,347.000000,28.000000,54.000000,0.000000,0.000000,0.441280,0.450577,0.230642,0.444811,0.012356,375.000000,347.000000,28.000000,54.000000,0.000000,0.000000:
0000
0000
0000
0000
,
1001
1000
0001
0010
,
0001
1000
0000
0200
0000
0000
1300
0001
,
1000
0000
0101
0000
0001
0100
1000
0000
,
0010
0100
0000
0002
0000
0000
1003
0100
,
1000
0000
0010
0100
0001
0000
0010
0100
,
1000
0000
0001
0100
0000
0000
0010
1000
,
0010
0000
0100
0001
1000
0000
0010
1000
,
0200
0000
0310
0001
0000
0000
1000
0010
,
1000
0101
2200
3300
,
0001
1000
0000
0010
0000
0200
0300
0010
,
1001
0000
1000
0000
1000
0001
0000
0000
,
0010
0001
0100
0001
0000
0000
1000
0001
,
1000
0000
0100
0001
0010
0000
0001
1000
,
0020
0000
1030
0001
0000
0000
0010
0100
,
0010
0001
0010
0000
0100
1000
0100
0000
,
1000
0000
0101
0000
1010
0000
0100
0001
,
0100
0000
0110
0000
1000
0010
0001
0000
,
0200
0000
0301
1000
0000
0000
0001
0010
,
0001
0100
0001
0000
1000
0010
1000
0000
,
0200
0000
1300
0001
0000
0000
0100
0010
,
0100
1010
0022
0033
,
1000
0001
0000
0010
0000
0200
0300
0010
,
1001
0000
1000
0000
1000
0001
0000
0000
,
0010
0001
0100
0001
0000
0000
1000
0010
,
1000
0200
2300
3002
,
0023
0000
0031
1000
0000
1000
0001
0000
,
0202
0000
0303
0010
1000
0100
0000
2000
,
0000
3001
0100
0001
0100
0001
0100
0000
,
0010
1000
0002
0000
0000
0010
0000
0103
,
0020
0000
1030
0010
0000
0000
0000
0100
,
1010
0100
0011
0100
,
2000
0000
3001
0100
0002
0000
0023
0000
,
0130
0000
1000
0001
1001
0000
0100
0010
,
2000
0000
3100
0001
0000
0000
0010
0001
,
0010
0000
0100
1000
0001
0000
1000
0010
,
2000
0000
3001
0100
0000
0000
0010
0100
,
0010
0000
1000
0100
0001
0000
0010
0001
,
2000
0000
3001
1000
0000
0000
0001
0010
,
0001
0000
1000
0010
1000
0000
0001
0200
,
0000
0310
0100
0002
0000
0000
1003
0100
,
1000
1010
0202
0303
,
0010
1000
0000
0001
0000
0200
0300
0010
,
1001
0000
1000
0000
1000
0001
0000
0000
,
0010
0001
0100
0001
0000
1000
1000
0001
,
0110
0000
1000
0010
1000
0001
0010
0100
,
2000
0000
3002
0203
0310
0000
1000
0001
,
0000
0010
0002
0100
0103
0020
1000
1030
,
0200
0010
0310
0001
0000
2000
3000
0000
,
0000
0000
0010
0000
0010
0000
1000
0000
0002
0000
0000
0203
0000
0000
0300
0000
,
0000
0000
0001
0000
0001
0000
1000
0000
0200
0000
0000
0320
0000
0000
0031
0000
,
0101
0000
1100
0000
,
0001
1000
0001
1000
0001
1000
0001
1000
,
0010
0000
1000
0001
1001
0000
0100
0010
,
2000
0000
3100
0010
0000
0000
0001
1000
,
0001
0010
0100
0000
1000
0010
0100
0000
,
0002
0000
1003
0100
0000
0000
1000
0010
,
1000
0000
0001
0010
1000
0000
0100
0010
,
0200
0000
1300
0001
0000
0000
0010
0001
,
0010
0100
1000
0001
1000
0010
0100
0002
,
0000
0000
0013
0000
0000
0100
0000
0000
0020
0000
0000
0000
0031
0000
0100
0000
,
0001
0011
2200
3300
,
0010
1000
0000
0001
0000
0200
0300
0010
,
1001
0000
1000
0000
1000
0001
0000
0000
,
0010
0001
0100
0001
0000
0000
1000
0100
,
1000
1001
0220
0330
,
0001
1000
0000
0010
0000
0200
0300
0010
,
1001
0000
1000
0000
1000
0001
0000
0000
,
0010
0001
0100
0001
0000
0000
0000
0000
;

//---------------dance-single - ----------------
#NOTES:
     dance-single:
     :
     Easy:
     7:
     0.283596,0.309205,0.230642,0.280066,0.000000,241.000000,213.000000,28.000000,34.000000,0.000000,0.000000,0.283596,0.309205,0.230642,0.280066,0.000000,241.000000,213.000000,28.000000,34.000000,0.000000,0.000000:
0000
0000
0000
0000
,
1001
1000
0010
0100
,
0001
0010
0100
0000
,
1000
0001
1000
0010
,
1000
0100
0001
0000
,
0010
0001
0100
0001
,
1000
1000
1000
0000
,
0001
0010
0100
0010
,
0100
1000
0001
0000
,
0000
1010
0202
0303
,
1000
0001
0010
0100
,
1001
0100
0100
0000
,
0001
1000
0000
0000
,
0010
0010
1000
0001
,
1000
1000
0100
0000
,
1000
0010
0100
0100
,
0001
0010
1000
0000
,
0000
0001
0010
0001
,
1000
0100
0100
0000
,
0010
1000
0001
0010
,
0100
0100
1000
0000
,
0000
0011
2200
3300
,
0010
1000
0100
0001
,
1001
0100
0100
0000
,
0001
1000
0000
0000
,
0010
1000
0001
1000
,
0010
0100
0001
0100
,
0202
0303
2200
3300
,
0022
0030
1000
0103
,
1000
0002
0000
1003
,
0010
0100
0001
0000
,
1010
0000
0011
0000
,
2000
3002
2003
3002
,
0013
0100
1001
0010
,
1000
0100
0001
0000
,
0010
0001
1000
1000
,
0001
1000
0100
0000
,
0000
1000
0010
0001
,
0100
0001
0100
0000
,
0010
0010
1000
0001
,
0000
0200
0000
0020
0000
0000
0330
0000
,
0000
0101
2200
3300
,
1000
0010
0001
0100
,
1001
0100
0100
0000
,
0001
1000
0000
0010
,
0010
1000
0100
1000
,
1010
1100
0001
0001
,
0000
0000
0020
0000
0000
0032
0000
0000
,
2003
0000
0000
3010
0000
0100
0000
0000
,
0000
0001
0022
0033
,
1000
0100
1000
0001
,
0101
0000
1100
0000
,
0020
0230
0320
0230
,
0301
1000
1001
0010
,
1000
0100
0001
0000
,
0000
0010
0001
0100
,
0001
1000
0100
0000
,
1000
0010
1000
1000
,
0100
0010
0001
0000
,
0100
0010
0100
0001
,
0000
2000
0000
0000
0002
0000
3003
0000
,
0000
0011
2020
3030
,
0100
0001
1000
0010
,
1001
0100
0100
0000
,
0001
1000
0000
0000
,
0000
1100
0022
0033
,
0100
0001
0010
1000
,
1001
0100
0100
0000
,
0001
1000
0000
0000
;

//---------------dance-single - ----------------
#NOTES:
     dance-single:
     :
     Beginner:
     3:
     0.145917,0.193163,0.115321,0.016474,0.000000,124.000000,110.000000,14.000000,2.000000,0.000000,0.000000,0.145917,0.193163,0.115321,0.016474,0.000000,124.000000,110.000000,14.000000,2.000000,0.000000,0.000000:
// measure 0
0000
0000
0000
0000
,  // measure 1
1001
0000
0000
0000
,  // measure 2
0000
0000
0000
0010
,  // measure 3
0010
0000
1000
0000
,  // measure 4
0100
0000
0000
0001
,  // measure 5
0001
0000
1000
0000
,  // measure 6
0010
0000
0000
0100
,  // measure 7
0100
0000
0010
0000
,  // measure 8
0100
0000
0001
0000
,  // measure 9
0000
1000
1000
0000
,  // measure 10
0001
0000
0100
0000
,  // measure 11
1001
0000
0000
0000
,  // measure 12
0000
0000
0000
0000
,  // measure 13
0100
0000
0010
0000
,  // measure 14
0100
0000
0001
0000
,  // measure 15
1000
0000
0010
0000
,  // measure 16
1000
0000
0100
0000
,  // measure 17
0010
0000
0001
0000
,  // measure 18
0100
0000
0010
0000
,  // measure 19
1000
0000
1000
0000
,  // measure 20
1000
0000
0001
0000
,  // measure 21
0000
0010
0010
0000
,  // measure 22
0001
0000
0100
0000
,  // measure 23
1001
0000
0000
0000
,  // measure 24
0000
0000
0000
0000
,  // measure 25
0000
0000
1000
0000
,  // measure 26
0010
0000
1000
0000
,  // measure 27
0100
0000
0100
0000
,  // measure 28
0001
0000
0000
0000
,  // measure 29
0000
0110
0000
0000
,  // measure 30
1000
1000
0000
0000
,  // measure 31
0110
0000
0110
0000
,  // measure 32
2000
0000
0000
3000
,  // measure 33
0000
0000
1001
0000
,  // measure 34
0100
0000
0001
0000
,  // measure 35
0000
0000
0010
0000
,  // measure 36
0001
0000
0100
0000
,  // measure 37
0000
1000
1000
0000
,  // measure 38
0001
0000
0100
0000
,  // measure 39
0010
0010
0010
0000
,  // measure 40
0000
2000
0000
3000
,  // measure 41
0000
0100
0100
0000
,  // measure 42
0010
0000
1000
0000
,  // measure 43
1001
0000
0000
0000
,  // measure 44
0000
0000
0000
0001
,  // measure 45
0001
0000
0000
1000
,  // measure 46
1000
1000
0000
0000
,  // measure 47
0000
0010
0000
0100
,  // measure 48
0000
0001
0000
0000
,  // measure 49
0000
1000
1000
0000
,  // measure 50
0000
0010
0010
0000
,  // measure 51
0110
0000
0110
0000
,  // measure 52
0001
0000
0000
0000
,  // measure 53
1001
0000
0000
0000
,  // measure 54
0000
0000
0000
1000
,  // measure 55
1000
0000
0001
0000
,  // measure 56
0010
0000
0100
0000
,  // measure 57
0000
0010
0010
0000
,  // measure 58
0001
0000
0100
0000
,  // measure 59
0001
0001
0001
0000
,  // measure 60
0000
0000
1001
0000
,  // measure 61
0000
0100
0100
0000
,  // measure 62
0010
0000
1000
0000
,  // measure 63
1001
0000
0000
0000
,  // measure 64
0000
0000
0000
0000
,  // measure 65
0000
0010
0010
0000
,  // measure 66
1000
0000
0100
0000
,  // measure 67
1001
0000
0000
0000
;
