#VERSION:0.83;
#TITLE:Strokin';
#SUBTITLE:(It's More Than a Feeling);
#ARTIST:Bill McClintock ft. Clarence Carter & Boston;
#TITLETRANSLIT:;
#SUBTITLETRANSLIT:;
#ARTISTTRANSLIT:;
#GENRE:;
#ORIGIN:;
#CREDIT:;
#BANNER:Strokin' (It's More Than a Feeling)-bn.png;
#BACKGROUND:Strokin' (It's More Than a Feeling)-bg.png;
#PREVIEWVID:;
#JACKET:Strokin' (It's More Than a Feeling)-jacket.png;
#CDIMAGE:;
#DISCIMAGE:;
#LYRICSPATH:;
#CDTITLE:;
#MUSIC:Strokin' (It's More Than a Feeling).ogg;
#OFFSET:0.000000;
#SAMPLESTART:52.000000;
#SAMPLELENGTH:20.000000;
#SELECTABLE:YES;
#DISPLAYBPM:115.000000;
#BPMS:0.000=114.870;
#STOPS:;
#DELAYS:;
#WARPS:;
#TIMESIGNATURES:0.000=4=4;
#TICKCOUNTS:0.000=4;
#COMBOS:0.000=1;
#SPEEDS:0.000=1.000=0.000=0;
#SCROLLS:0.000=1.000;
#FAKES:;
#LABELS:0.000=Song Start;
#BGCHANGES:0.000=Strokin' (It's More Than a Feeling).avi=1.000=0=0=1=====,
99999=-nosongbg-=1.000=0=0=0 // don't automatically add -songbackground-
;
#KEYSOUNDS:;
#ATTACKS:
;

//---------------dance-single - 10acious_D----------------
#NOTEDATA:;
#CHARTNAME:10acious_D;
#STEPSTYPE:dance-single;
#DESCRIPTION:10acious_D;
#CHARTSTYLE:;
#DIFFICULTY:Beginner;
#METER:3;
#RADARVALUES:0.121283,0.156676,0.092616,0.030872,0.000000,110.000000,98.000000,12.000000,4.000000,0.000000,0.000000,0.000000,0.000000,0.000000,0.121283,0.156676,0.092616,0.030872,0.000000,110.000000,98.000000,12.000000,4.000000,0.000000,0.000000,0.000000,0.000000,0.000000;
#CREDIT:10acious_D;
#DISPLAYBPM:115.000000;
#NOTES:
0000
0000
0000
0000
,
0000
0000
0000
0000
,
0000
0000
0000
0000
,
0000
0000
0000
0000
,
0000
0000
0000
0000
,
0000
0000
0000
0000
,
0020
0000
0030
0000
,
1000
1000
0000
0000
,
0002
0000
0003
0000
,
0100
0100
0000
0000
,
0010
0000
1000
0000
,
0100
0000
1000
0000
,
0001
0000
0100
0000
,
0010
0010
0010
0000
,
1000
0000
0001
0000
,
0100
0000
0000
0000
,
0010
0010
0010
0000
,
1000
0000
0001
0000
,
0200
0000
0300
0000
,
0010
0010
0000
0000
,
1001
0000
0000
0000
,
0001
0001
0001
0000
,
1001
0000
0000
0000
,
0100
0000
0010
0000
,
0110
0000
0000
0000
,
1000
1000
1000
0000
,
0001
0000
0001
0000
,
1000
0000
1000
0000
,
0001
0000
0100
0000
,
0010
0010
0010
0000
,
0110
0000
0000
0000
,
1000
0000
0001
0000
,
1001
0000
0000
0000
,
0110
0000
0000
0000
,
0001
0000
0100
0000
,
0010
0000
0000
0000
,
1000
0000
0100
0000
,
1000
0000
0001
0000
,
0010
0000
0001
0000
,
1000
0000
0010
0000
,
0100
0100
0100
0000
,
0001
0000
1000
0000
,
2000
0000
3000
0000
,
0001
0001
0000
0000
,
0110
0000
0000
0000
,
0001
0001
0001
0000
,
1001
0000
0000
0000
,
1000
0000
0010
0000
,
0110
0000
0100
0000
,
0010
0010
0010
0000
,
1000
0000
1000
0000
,
0001
0000
0001
0000
,
1000
0000
0010
0000
,
0100
0100
0000
0000
,
0110
0000
0000
0000
,
0001
0000
0010
0000
,
1001
0000
0010
0000
,
1000
0000
0001
0000
,
1001
0000
0000
0000
;

//---------------dance-single - 10acious_D----------------
#NOTEDATA:;
#CHARTNAME:10acious_D;
#STEPSTYPE:dance-single;
#DESCRIPTION:10acious_D;
#CHARTSTYLE:;
#DIFFICULTY:Easy;
#METER:6;
#RADARVALUES:0.187438,0.223822,0.069462,0.169796,0.000000,170.000000,161.000000,9.000000,22.000000,0.000000,0.000000,0.000000,0.000000,0.000000,0.187438,0.223822,0.069462,0.169796,0.000000,170.000000,161.000000,9.000000,22.000000,0.000000,0.000000,0.000000,0.000000,0.000000;
#CREDIT:10acious_D;
#DISPLAYBPM:115.000000;
#NOTES:
0000
0000
0000
0000
,
0000
0000
0000
0000
,
0000
0000
0000
0000
,
0000
0000
0000
0000
,
0000
0000
0000
0000
,
0000
0000
0000
0000
,
0020
0000
1000
1030
,
0010
0000
0100
0000
0000
0001
0000
1000
,
0002
0000
0100
0103
,
0001
0000
1000
0000
0000
0010
0000
0100
,
0001
0100
0010
0000
,
1000
0100
0001
0000
,
0010
0001
1000
1000
,
0010
0100
0001
0000
,
0010
0001
1000
0000
,
0010
0000
0100
0000
0000
0001
0000
1000
,
0100
0100
1000
0001
,
1000
0010
0200
0000
,
0301
1001
0100
0100
,
0010
1000
0200
0300
,
1000
1000
0000
0000
0000
0000
0000
0000
,
0001
0010
2000
0000
,
3100
0100
0000
0000
0000
0000
0000
0000
,
0100
0010
2000
0000
,
3001
0001
0000
0000
0000
0000
0000
0000
,
0100
0001
0020
0000
,
0130
1000
1100
0000
,
0001
0100
0101
0000
,
0010
0010
1000
0001
,
0100
0010
0000
0110
0000
0000
0000
0000
,
1000
1000
0000
0000
0000
0000
0000
0000
,
0100
1000
0002
0000
,
0103
0100
0000
0000
0000
0000
0000
0000
,
0010
0000
2000
0002
0000
0000
3003
0000
,
0010
0001
0100
0000
,
0001
0000
0010
0000
0000
1000
0000
0001
,
0100
0010
1000
0001
,
0010
0001
0200
0300
,
0010
1000
0100
0000
,
1000
0010
0001
0000
,
0100
0100
0010
1000
,
0001
0100
0020
0000
,
1030
1001
0010
0010
,
1000
0100
0002
0003
,
0010
0010
0000
0000
0000
0000
0000
0000
,
0001
1000
0200
0000
,
1300
1000
0000
0000
0000
0000
0000
0000
,
0001
0100
0020
0000
,
0130
0100
0000
0000
0000
0000
0000
0000
,
0001
1000
0002
0000
,
0013
0001
0011
0000
,
1000
0010
1010
0000
,
0010
0010
1000
0001
,
0100
0010
0000
0110
0000
0000
0000
0000
,
0010
0010
0000
0000
0000
0000
0000
0000
,
1000
0100
0002
0000
,
0013
0010
0000
0000
0002
0000
2003
0000
,
3020
2030
3002
0003
,
1001
0000
0000
0000
;

//---------------dance-single - 10acious_D----------------
#NOTEDATA:;
#CHARTNAME:10acious_D;
#STEPSTYPE:dance-single;
#DESCRIPTION:10acious_D;
#CHARTSTYLE:;
#DIFFICULTY:Medium;
#METER:8;
#RADARVALUES:0.283361,0.335734,0.100334,0.270131,0.027013,257.000000,244.000000,13.000000,35.000000,0.000000,0.000000,0.000000,0.000000,0.000000,0.283361,0.335734,0.100334,0.270131,0.027013,257.000000,244.000000,13.000000,35.000000,0.000000,0.000000,0.000000,0.000000,0.000000;
#CREDIT:10acious_D;
#DISPLAYBPM:115.000000;
#NOTES:
// measure 0
0000
0000
0000
0000
,  // measure 1
0000
0000
0000
0000
,  // measure 2
0000
0000
0000
0000
,  // measure 3
0000
0000
0000
0000
,  // measure 4
0000
0000
0000
0000
,  // measure 5
0000
0000
0000
0000
,  // measure 6
0010
1000
0001
0001
,  // measure 7
0010
0001
0010
0100
0000
1000
0000
1000
,  // measure 8
0010
0100
0001
0001
,  // measure 9
1000
0001
0010
0100
0000
1000
0000
0001
,  // measure 10
0100
0010
1000
0001
0000
0010
0000
0001
,  // measure 11
0100
0010
1000
0002
0000
0000
0003
0000
,  // measure 12
0010
0001
1000
0010
0000
0100
0000
0001
,  // measure 13
1000
0000
0000
1000
0000
0000
2000
0000
0000
0000
0000
0000
3000
0000
0010
0000
,  // measure 14
1000
0100
1000
0002
0000
0000
0003
0010
,  // measure 15
0001
0100
0010
0000
0000
1000
0000
0001
,  // measure 16
0010
0000
0000
0010
0000
0000
0020
0000
0000
0000
0000
0000
0130
0000
0000
0000
,  // measure 17
1000
0001
0000
0022
0000
0000
0033
0001
,  // measure 18
0100
0010
1000
1000
,  // measure 19
0100
1000
0001
1000
0000
0010
0000
0010
,  // measure 20
0100
0100
0000
0000
0001
0000
1000
0000
,  // measure 21
0001
0000
0000
0001
0000
0000
0002
0000
0000
0000
0000
0000
0003
0000
0010
0000
,  // measure 22
0100
0100
0000
0000
1000
0000
0001
0100
,  // measure 23
0001
0010
0100
2000
0000
3020
0000
0130
,  // measure 24
0001
0001
0000
0000
0100
0000
0010
0000
,  // measure 25
1000
0000
0000
1000
0000
0000
2000
0000
0000
0000
0000
0000
3000
0000
0100
0000
,  // measure 26
1000
0001
0100
0000
0110
0000
1001
0000
,  // measure 27
0010
1000
0001
0000
0110
0000
1001
0000
,  // measure 28
1000
0100
0010
0000
0001
0100
0010
0000
,  // measure 29
1000
0001
0000
0101
0000
0000
0000
0010
,  // measure 30
1000
1000
0000
0000
0100
0000
0010
0000
,  // measure 31
0001
0100
0001
2000
0000
3020
0000
0130
,  // measure 32
0001
0001
0000
0000
0010
0000
0100
0000
,  // measure 33
2000
0000
0001
0002
0000
0000
3003
0000
,  // measure 34
0010
0001
1000
0200
0000
0000
0300
0010
,  // measure 35
0001
1000
0002
0000
0000
0000
0003
0000
,  // measure 36
0010
0100
0000
0010
0000
0001
1000
0010
,  // measure 37
0000
2000
0000
0200
0000
0000
3300
0010
,  // measure 38
0001
0100
0010
2000
0000
0000
3000
0010
,  // measure 39
1000
0010
1000
0200
0000
0000
0300
0010
,  // measure 40
0001
0000
0000
0001
0000
0000
0002
0000
0000
0000
0000
0000
1003
0000
0000
0000
,  // measure 41
0010
0100
0000
2020
0000
0000
3030
0001
,  // measure 42
0100
0010
1000
1000
,  // measure 43
0100
0000
0010
0001
2000
0000
3000
0010
,  // measure 44
1000
1000
0000
0000
0001
0000
0100
0000
,  // measure 45
0010
0000
0000
0010
0000
0000
0020
0000
0000
0000
0000
0000
0030
0000
0100
0000
,  // measure 46
0001
0001
0000
0000
1000
0000
0001
1000
,  // measure 47
0100
0010
0100
2000
0000
3002
0000
1003
,  // measure 48
0010
0010
0000
0000
0200
0000
0300
0001
,  // measure 49
1000
0000
0000
1000
0000
0000
2000
0000
0000
0000
0000
0000
3000
0000
0010
0000
,  // measure 50
0100
0001
1000
0000
0110
0000
1001
0000
,  // measure 51
0001
1000
0010
0000
0110
0000
1001
0000
,  // measure 52
0001
0010
0100
0000
1000
0001
0100
0000
,  // measure 53
0010
1000
0000
1100
0000
0000
0000
0001
,  // measure 54
0100
0100
0000
0000
0010
0000
1000
0100
,  // measure 55
1000
0010
0100
0002
0000
2003
0000
3001
,  // measure 56
0010
0010
0000
0001
0200
0000
0320
0000
,  // measure 57
2030
0000
3001
1000
0200
0000
0300
0000
,  // measure 58
1001
0000
0000
0000
;

//---------------dance-single - 10acious_D----------------
#NOTEDATA:;
#CHARTNAME:10acious_D;
#STEPSTYPE:dance-single;
#DESCRIPTION:10acious_D;
#CHARTSTYLE:;
#DIFFICULTY:Hard;
#METER:10;
#RADARVALUES:0.404644,0.402880,0.169796,0.370465,0.150501,367.000000,345.000000,22.000000,48.000000,0.000000,0.000000,0.000000,0.000000,0.000000,0.404644,0.402880,0.169796,0.370465,0.150501,367.000000,345.000000,22.000000,48.000000,0.000000,0.000000,0.000000,0.000000,0.000000;
#CREDIT:10acious_D;
#DISPLAYBPM:115.000000;
#NOTES:
// measure 0
0000
0000
0000
0000
,  // measure 1
0000
0000
0000
0000
,  // measure 2
0000
0000
0000
0000
,  // measure 3
0000
0000
0000
0000
,  // measure 4
0000
0000
0000
0000
,  // measure 5
0000
0000
0000
0000
,  // measure 6
0010
1000
0100
1000
0001
0000
0001
0000
,  // measure 7
0010
0100
1000
0001
0000
0101
0000
1010
,  // measure 8
0100
1000
0010
1000
0001
0000
0001
0000
,  // measure 9
1000
0001
0010
0100
0000
1100
0000
0011
,  // measure 10
0100
0010
1000
0002
0000
0013
0001
0100
,  // measure 11
0010
1000
0001
0100
0000
0110
0000
1001
,  // measure 12
0001
0010
0100
2000
0000
3002
0000
0103
,  // measure 13
0010
1000
0100
0020
0000
0031
0000
1000
,  // measure 14
1000
0001
0100
0020
0000
0000
1030
0001
,  // measure 15
0010
0000
0001
0100
0001
0000
1000
0000
0000
0000
1100
0000
0000
0000
1010
0000
,  // measure 16
0020
0000
0000
2030
0000
0000
3002
0000
0100
0000
0000
0000
0103
0010
0000
0000
,  // measure 17
1000
0000
0001
0000
0100
0000
0020
0000
1000
0000
1000
0000
1030
0000
0010
0100
,  // measure 18
0010
0000
1010
0100
0001
0000
0001
0000
,  // measure 19
0010
0000
0001
1000
0000
0010
0000
0200
0000
0000
0310
0000
0000
0010
1000
0000
,  // measure 20
0100
0100
1000
0001
0010
0000
0010
0100
,  // measure 21
2000
0000
0000
3020
0000
0000
0230
0000
0000
0000
0301
0000
0000
0100
0010
0000
,  // measure 22
1000
1000
0001
0010
0100
0000
0100
1000
,  // measure 23
0001
0000
0100
0000
0010
0000
2000
0000
0000
0000
3002
0000
0000
0013
0001
0000
,  // measure 24
0100
0100
0001
1000
0100
0000
0100
0010
,  // measure 25
0002
0000
0000
0203
0000
0000
0320
0000
0000
0000
1030
0000
0000
0001
1000
0000
,  // measure 26
0010
0000
0100
0000
0001
0000
0100
0000
0020
0000
0000
0000
0030
1000
0001
0000
,  // measure 27
0010
0000
0001
0000
0100
0000
0010
0000
1000
0000
1100
0000
0000
0001
1000
0000
,  // measure 28
0010
0100
0010
0100
1000
0100
0001
0000
,  // measure 29
0010
0000
0001
0000
0000
1000
0100
0000
0000
0000
0110
0000
0000
0001
1000
0000
,  // measure 30
0001
0001
0010
0001
0100
0000
0100
0010
,  // measure 31
1000
0000
0100
0000
0010
0000
0002
0000
0000
0000
0203
0000
0000
0310
1000
0000
,  // measure 32
0100
0100
1000
0001
0100
0000
0100
0010
,  // measure 33
1001
0000
0100
2000
0000
0010
0000
3001
,  // measure 34
0001
1000
0001
0200
0000
0310
1000
0001
,  // measure 35
0010
0100
0000
2000
0000
0000
3001
0000
0000
0000
0101
0000
0000
0000
1100
0000
,  // measure 36
0001
0010
0001
2000
0000
3010
0100
0002
,  // measure 37
0000
2003
0000
3020
0000
0130
0000
0100
,  // measure 38
0001
0010
0001
2000
0000
0000
3010
0100
,  // measure 39
0010
0000
1000
0000
0001
0010
0000
0000
0000
0000
0011
0000
0000
0000
1010
0000
,  // measure 40
0200
0000
0000
2300
0000
0000
3002
0000
0010
0000
0000
0000
0013
0100
0000
0000
,  // measure 41
1000
0000
0010
0000
0100
0000
0002
0000
0010
0000
0010
0000
0013
0000
0001
1000
,  // measure 42
0001
0000
0101
1000
0100
0000
0100
0000
,  // measure 43
1000
0000
0010
0100
0000
0001
0000
0020
0000
0000
0031
0000
0000
1000
0100
0000
,  // measure 44
1000
1000
0010
0100
0001
0000
0001
1000
,  // measure 45
0020
0000
0000
2030
0000
0000
3200
0000
0000
0000
0301
0000
0000
0100
1000
0000
,  // measure 46
0001
0001
0010
0001
1000
0000
1000
0100
,  // measure 47
1000
0000
0010
0000
0100
0000
0002
0000
0000
0000
0023
0000
0000
0130
1000
0000
,  // measure 48
0001
0001
1000
0001
0200
0000
0310
0100
,  // measure 49
2000
0000
0000
3200
0000
0000
0320
0000
0000
0000
1030
0000
0000
0001
0010
0000
,  // measure 50
0100
0000
0001
0000
0100
0000
1000
0000
0020
0000
0000
0000
0030
1000
0001
0000
,  // measure 51
0010
0000
0001
0000
0100
0000
0010
0000
1000
0000
1100
0000
0000
0010
0100
0000
,  // measure 52
0001
0100
0010
0100
1000
0100
0010
0000
,  // measure 53
1000
0000
0010
0000
0000
0100
0001
0000
0000
0000
0011
0000
0000
1000
0001
0000
,  // measure 54
0010
0010
0001
0100
0110
0000
1001
0001
,  // measure 55
0010
0000
0100
0000
0010
0000
0002
0000
0000
0000
2003
0000
0000
3001
0100
0000
,  // measure 56
0010
0010
0000
1000
0100
0001
0100
0010
,  // measure 57
0200
0000
0000
0000
1300
0001
1000
0000
0020
0000
0000
0000
0030
0000
0000
0000
,  // measure 58
1001
0000
0000
0000
;

//---------------dance-single - 10acious_D----------------
#NOTEDATA:;
#CHARTNAME:10acious_D;
#STEPSTYPE:dance-single;
#DESCRIPTION:10acious_D;
#CHARTSTYLE:;
#DIFFICULTY:Challenge;
#METER:12;
#RADARVALUES:0.471901,0.425263,0.239258,0.270131,0.266272,428.000000,397.000000,31.000000,35.000000,0.000000,0.000000,0.000000,0.000000,0.000000,0.471901,0.425263,0.239258,0.270131,0.266272,428.000000,397.000000,31.000000,35.000000,0.000000,0.000000,0.000000,0.000000,0.000000;
#CREDIT:10acious_D;
#DISPLAYBPM:115.000000;
#NOTES:
0000
0000
0000
0000
,
0000
0000
0000
0000
,
0000
0000
0000
0000
,
0000
0000
0000
0000
,
0000
0000
0000
0000
,
0000
0000
0000
0000
,
0010
0000
1000
0100
1000
0000
0001
0100
0001
0000
0000
0000
0001
0000
0000
0000
,
0010
0000
0001
1000
0001
0000
0100
0000
0000
0000
1010
0000
0000
0000
0101
0000
,
0010
0000
0001
0100
0001
0000
1000
0100
1000
0000
0000
0000
1000
0000
0000
0000
,
0010
0000
1000
0001
1000
0000
0100
0000
0000
0000
0011
0000
0000
0000
1100
0000
,
0001
0100
0010
2000
0000
3100
1000
0001
,
0100
0010
1000
0001
0000
1001
0000
0110
,
1000
0000
0100
0010
0100
0000
2000
0000
0000
0000
3002
0000
0000
0000
0103
0000
,
0010
0000
1000
0001
1000
0000
0020
0000
0000
0000
0130
0000
0001
0000
1000
0000
,
0001
0010
0100
2000
0000
3010
0100
0001
,
1000
0000
0001
0010
0001
0000
0100
0000
0000
0000
0110
0000
0000
0000
1001
0000
,
0002
0000
0000
0023
0000
0000
1030
0100
2000
0000
0000
0000
3010
0100
0000
0000
,
0001
0000
1000
0010
1000
0000
0002
0000
0100
0000
0100
0000
0103
0000
0010
1000
,
0010
0000
0000
0000
0101
0000
0001
0100
0001
0000
0000
0000
1000
0000
0000
0000
,
0010
0000
1000
0100
1000
0000
0001
0000
0000
0000
0011
0000
0000
0100
1000
0000
,
0001
0000
0001
0000
0010
0000
0100
1000
0100
0000
0000
0000
0010
0000
0001
0000
,
2000
0000
0000
3002
0000
0000
0103
0010
0200
0000
0001
0000
0000
0310
1000
0000
,
0001
0000
0001
0000
1000
0000
0010
0100
0010
0000
0000
0000
0010
0000
1000
0000
,
0100
0000
1000
0000
0001
0000
1010
0000
0000
0000
1100
0000
0000
0001
1000
0000
,
0010
0000
0010
0000
1000
0000
0001
0100
0001
0000
0000
0000
0001
0000
1000
0000
,
0020
0000
0000
0230
0000
0000
0301
1000
0002
0000
0010
0000
0003
0001
1000
0000
,
0010
0000
1000
0000
0100
0000
0010
0000
0001
0000
0000
0000
0001
0010
0100
0000
,
1000
0000
0010
0000
0100
0000
0010
0000
1000
0000
0101
0000
0000
0010
0100
0000
,
0001
0100
1000
0100
0001
0100
0010
0000
,
1100
0000
0001
0000
1000
0010
1000
0000
0000
0000
0110
0000
0000
0001
1000
0000
,
0010
0000
0010
0000
0100
0000
0001
0010
0001
0000
0000
0000
1000
0000
0010
0000
,
0100
0000
1000
0000
0100
0000
0002
0000
0000
0000
2003
0000
0000
3010
0100
0000
,
0001
0000
0001
0000
0010
0000
0001
1000
0001
0000
0000
0000
0100
0010
1000
0000
,
1002
0000
0000
0000
0100
0000
1003
0000
0001
0100
0001
0000
0000
0000
0010
0000
,
0100
0010
0001
2000
0010
0000
3010
0100
,
0001
1000
0000
0001
1000
0000
0010
0000
0000
0000
0101
0000
0000
0000
1100
0000
,
0001
0010
0001
0200
0000
0310
1000
0001
,
1000
0000
0100
0010
0100
0000
1000
0000
0000
0000
1010
0000
0000
0000
0011
0000
,
0100
0000
1000
0001
1000
0000
0020
0000
0100
0000
0000
0000
0130
0000
0001
0000
,
0010
0000
0001
1000
0001
0000
0100
0000
0000
0000
0110
0000
0000
0000
1001
0000
,
2000
0000
0000
3200
0000
0000
0301
0010
0002
0000
0000
0000
1003
0001
0000
0000
,
0100
0000
0001
1000
0001
0000
0020
0000
0100
0000
0100
0000
0130
0000
1000
0001
,
1000
0000
0000
0000
0101
0000
0001
0100
0001
0000
0000
0000
1000
0000
0000
0000
,
0010
0000
1000
0001
0000
0100
0000
0020
0000
0000
1030
0000
0000
1000
0001
0000
,
0100
0000
0100
0000
0010
0000
1000
0001
1000
0000
0000
0000
1000
0000
0010
0000
,
0200
0000
0000
0302
0000
0000
1003
0100
2000
0000
0001
0000
0000
3010
0100
0000
,
0001
0000
0001
0000
1000
0000
0010
1000
0010
0000
0000
0000
0010
0000
0100
0000
,
1000
0000
0100
0000
0001
0000
0011
0000
0000
0000
1100
0000
0000
0010
0100
0000
,
0010
0000
0010
0000
1000
0000
0100
0010
0200
0000
0000
0000
1300
0000
0001
0000
,
0200
0000
0000
0320
0000
0000
1030
0010
2000
0000
0001
0000
3000
0100
0001
0000
,
0010
0000
0100
0000
1000
0000
0010
0000
0100
0000
0000
0000
0001
1000
0001
0000
,
0010
0000
1000
0000
0010
0000
0001
0000
0100
0000
1001
0000
0000
0010
1000
0000
,
0001
0100
1000
0100
0010
0100
0001
0000
,
0011
0000
0100
0000
1000
0010
1000
0000
0000
0000
0110
0000
0000
0001
1000
0000
,
0100
0000
0100
0000
1000
0000
0100
0010
0001
0000
0000
0000
0001
0000
1000
0000
,
0010
0000
1000
0000
0100
0000
1100
0000
0000
0000
0011
0000
0000
1000
0001
0000
,
0100
0000
0100
0000
0010
0000
1000
0000
1000
0000
0100
0000
0010
0001
0100
0000
,
0020
0000
0000
0000
1030
0001
1000
0000
0200
0000
0010
0000
1300
0000
0001
0000
,
1001
0000
0000
0000
;
