#TITLE:Story of My Life;
#SUBTITLE:(Shred);
#ARTIST:"One Direction";
#TITLETRANSLIT:;
#SUBTITLETRANSLIT:;
#ARTISTTRANSLIT:;
#GENRE:;
#CREDIT:10acious_D;
#BANNER:Story of My Life (Shred)-bn.png;
#BACKGROUND:Story of My Life (Shred)-bg.png;
#LYRICSPATH:;
#CDTITLE:;
#MUSIC:Story of My Life (Shred).ogg;
#OFFSET:-0.040000;
#SAMPLESTART:63.223000;
#SAMPLELENGTH:20.000000;
#SELECTABLE:YES;
#DISPLAYBPM:121.000000;
#BPMS:0.000000=121.000000
;
#STOPS:
;
#BGCHANGES:0.000=Story of My Life (Shred).mp4=1.000=0=0=1=====,
99999=-nosongbg-=1.000=0=0=0 // don't automatically add -songbackground-
;
#KEYSOUNDS:;
#ATTACKS:;

//---------------dance-single - ----------------
#NOTES:
     dance-single:
     :
     Hard:
     14:
     0.509645,0.653693,0.197738,0.148303,0.655006,433.000000,409.000000,24.000000,18.000000,0.000000,0.000000,0.509645,0.653693,0.197738,0.148303,0.655006,433.000000,409.000000,24.000000,18.000000,0.000000,0.000000:
// measure 0
0000
0000
0000
0000
,  // measure 1
0000
0000
0000
0000
,  // measure 2
0000
0000
0000
0000
,  // measure 3
0000
0000
0000
0000
,  // measure 4
0000
0000
0000
0000
,  // measure 5
0000
0000
0000
0000
,  // measure 6
0000
0000
0000
0000
,  // measure 7
0000
0000
0000
0000
,  // measure 8
0001
1000
0000
0010
0000
1000
0000
0100
0000
0000
0000
0010
0000
0000
0001
0000
,  // measure 9
0100
0000
0000
0010
0000
0000
0000
1000
0001
0000
0000
0010
0000
0000
0100
0000
,  // measure 10
1000
0000
0000
0010
0000
0010
0100
0000
0001
0000
1000
0100
0000
0100
0010
0000
,  // measure 11
0001
0000
0000
1000
0000
1000
0010
0000
1001
0000
0000
0100
0000
0000
0001
0000
,  // measure 12
1000
0000
0000
0010
0000
0000
0100
0000
0001
0000
0000
0010
0000
0000
0001
0000
,  // measure 13
1000
0000
0000
0100
0000
0000
0010
0000
0100
0000
0000
1000
0000
0000
0001
0000
,  // measure 14
0100
0000
0001
1000
0000
0001
1000
0000
0010
0000
0100
0001
0000
0100
0001
0000
,  // measure 15
1000
0000
0100
0010
0000
0100
0010
0000
0001
0000
0000
0000
0000
0000
0000
1000
,  // measure 16
0001
0000
0100
0000
0010
0000
0000
1000
0000
0100
0000
1000
0000
0000
0001
0000
,  // measure 17
0010
0000
0001
0000
0100
0000
0010
1000
0000
0100
0000
0000
1000
0001
0000
0100
,  // measure 18
0000
0000
0000
0010
0000
0000
1000
0001
0000
0000
0000
0010
0000
0001
0100
0000
,  // measure 19
0010
0000
1000
0001
0000
1000
0100
0000
0010
0000
0000
0001
0000
0100
0010
0000
,  // measure 20
1000
0000
0100
0010
0000
0001
0000
1000
0001
0000
0100
0000
0000
0010
0000
1000
,  // measure 21
0100
0010
0001
1000
0001
0100
0010
1000
,  // measure 22
0100
0010
0000
0001
0000
1000
0001
0000
0100
0000
0010
1000
0000
0010
1000
0000
,  // measure 23
0001
0000
0000
0011
0000
0100
1000
0000
0001
0000
0100
0010
0000
0000
1000
0000
,  // measure 24
0200
0000
0000
0001
0000
0000
1000
0000
0310
0000
0000
0000
0000
0001
0000
1000
,  // measure 25
0000
0000
0010
0100
0000
0000
0100
0000
0001
0000
1000
0010
0000
0000
0100
0000
,  // measure 26
0002
0000
0000
0000
0013
0000
0100
0000
1000
0001
1000
0000
0000
0010
0000
0100
,  // measure 27
0000
0000
0001
0100
0000
0000
0010
0000
1000
0000
0100
0010
0000
0000
0001
0000
,  // measure 28
2000
0000
0000
0000
3001
0000
1000
0000
0010
0000
0200
0000
0000
0301
0000
0100
,  // measure 29
0000
0000
0000
0010
0000
0000
1000
0000
0100
0000
1000
0000
0001
0000
0100
0000
,  // measure 30
0010
0000
0000
1000
0000
0000
0001
0000
1000
0000
0000
0100
0010
0000
0001
0000
,  // measure 31
0100
0000
0000
0010
0000
0000
0100
0000
0001
0000
0000
0000
0000
0000
1000
0000
,  // measure 32
1000
0000
0010
0100
0000
0100
0001
0000
2020
0000
0000
0000
0030
0000
0001
0000
,  // measure 33
3001
0000
0000
0010
0000
0000
0100
0000
1100
0000
0000
1000
0000
0001
0100
0000
,  // measure 34
0010
0000
0000
1000
0000
0000
0110
0000
0001
0000
0000
0000
0100
0000
0010
0000
,  // measure 35
1000
0000
0000
0001
0000
0000
0101
0000
0010
1000
0000
1000
0100
0000
0010
0000
,  // measure 36
0001
0000
0000
1000
0010
1000
0100
0000
0010
0000
0000
0001
1000
0001
0100
0000
,  // measure 37
2010
0000
0000
3002
0000
0000
0203
0000
0000
0320
0000
0000
1030
0100
1000
0000
,  // measure 38
0001
0000
0010
0001
0100
0000
0010
0000
1000
0000
0000
0100
1000
0001
0100
0000
,  // measure 39
1001
0000
0000
0000
0010
0000
0100
0000
0001
0000
1000
0001
0000
1000
0100
0000
,  // measure 40
0010
0001
0000
0100
0000
0010
1000
0000
0101
0000
0000
0010
0000
1000
0001
0000
,  // measure 41
1000
0000
0010
0100
0000
0100
0001
0000
0011
0000
0000
0001
1000
0100
1000
0000
,  // measure 42
0010
0000
1000
0001
0100
0000
0010
0000
0110
0000
0000
1000
0010
0100
0001
0000
,  // measure 43
1000
0100
0000
0100
0010
0000
0001
0000
1000
0000
0001
0000
0100
0000
0010
0000
,  // measure 44
1000
0000
0100
0000
0001
0000
0010
0000
1100
0000
0000
0100
0000
1000
0001
0000
,  // measure 45
0100
0000
0000
0010
1000
0010
1000
0000
0001
0000
0100
0010
0000
0010
1000
0000
,  // measure 46
0100
0000
1000
0001
0000
1000
0100
0000
0010
0000
0001
0100
0000
0010
1000
0000
,  // measure 47
0100
0000
0000
1000
0001
1000
0010
0000
0100
0001
0000
0010
0000
0001
1000
0000
,  // measure 48
0010
0000
0000
0102
0000
0000
1000
0000
1000
0000
0000
0100
0000
0103
0001
0000
,  // measure 49
0110
0000
0000
0010
0000
0000
1000
0100
1000
0000
0001
0000
0100
0010
1000
0010
,  // measure 50
0100
0000
0001
0010
0001
0010
0100
0000
1100
0000
0000
1000
0000
0001
0100
0000
,  // measure 51
1001
0000
0000
0010
1000
0100
0010
0000
0001
0100
0000
0001
0000
1000
0001
0100
,  // measure 52
0010
0000
0000
2010
0000
0000
0100
0000
0100
0000
0000
0001
0000
0000
0010
0000
,  // measure 53
3001
0000
1000
0100
1000
0001
0010
0000
0011
0000
0000
0001
0100
0000
0010
1000
,  // measure 54
0001
0000
0010
0001
1000
0001
0100
0000
0110
0000
0010
1000
0000
1000
0001
0000
,  // measure 55
1010
0000
0100
0010
0100
0000
0001
0000
2000
0000
0000
3200
0000
0000
0320
0000
,  // measure 56
0000
0000
0031
0000
2000
0000
0000
3100
0000
0000
0000
0000
0000
1100
0000
0000
,  // measure 57
0000
0000
0000
0000
,  // measure 58
0000
0000
0000
0000
0000
0011
0000
0101
0000
0100
0010
0000
1000
0000
0000
0000
,  // measure 59
0000
0000
0000
0000
0000
0000
0000
0000
0000
0000
0000
0000
0000
0002
0000
0000
,  // measure 60
0000
2003
0000
0000
0010
0000
0010
0000
0000
0000
3010
0000
0100
0001
0100
0001
,  // measure 61
0000
1001
0000
0000
0000
0000
0000
0000
0000
0000
0000
0000
0000
0000
0000
0000
0000
0000
0000
0000
0000
0000
0000
0000
0000
0000
0000
0000
0000
0000
0000
0000
;

//---------------dance-single - ----------------
#NOTES:
     dance-single:
     :
     Medium:
     10:
     0.358988,0.402272,0.148303,0.214216,0.197738,305.000000,287.000000,18.000000,26.000000,0.000000,0.000000,0.358988,0.402272,0.148303,0.214216,0.197738,305.000000,287.000000,18.000000,26.000000,0.000000,0.000000:
// measure 0
0000
0000
0000
0000
,  // measure 1
0000
0000
0000
0000
,  // measure 2
0000
0000
0000
0000
,  // measure 3
0000
0000
0000
0000
,  // measure 4
0000
0000
0000
0000
,  // measure 5
0000
0000
0000
0000
,  // measure 6
0000
0000
0000
0000
,  // measure 7
0000
0000
0000
0000
,  // measure 8
0001
0010
0001
0010
0100
0000
1000
0000
,  // measure 9
0001
0000
1000
0010
1000
0000
0100
0010
,  // measure 10
0001
0000
0000
1000
0000
0000
0001
0000
0100
0000
0000
0010
0000
0000
0100
0000
,  // measure 11
0010
0000
0000
1000
0000
0000
0001
0000
1001
0000
0000
0000
0000
0000
0100
0000
,  // measure 12
0010
0000
1000
0001
1000
0000
0100
0010
,  // measure 13
0001
0000
0100
0001
1000
0000
0010
1000
,  // measure 14
0100
0000
0000
0010
0000
0000
0100
0000
1000
0000
0000
0001
0000
0000
1000
0000
,  // measure 15
0010
0000
0000
0100
0000
0000
0010
0000
1000
0000
0000
0000
0000
0000
0000
0000
,  // measure 16
0001
0010
0001
0100
0010
1000
0001
0000
,  // measure 17
1000
0100
0010
0001
0100
0010
0100
0001
,  // measure 18
1000
0000
0000
0100
0000
0000
1000
0000
0001
0000
0000
0100
0000
0000
0001
0000
,  // measure 19
0010
0000
0000
0100
0000
0000
1000
0000
0001
0000
0000
0100
0000
0000
0010
0000
,  // measure 20
1000
0100
0010
0001
0010
0100
1000
0000
,  // measure 21
0001
1000
0010
1000
0100
0010
0001
0100
,  // measure 22
0001
0000
0000
0010
0000
0000
0001
0000
1000
0000
0000
0010
0000
0000
1000
0000
,  // measure 23
0100
0000
0000
0010
0000
0000
0001
0000
0100
0000
0000
0010
0000
0000
1000
0000
,  // measure 24
0002
0000
0000
0000
1003
0010
0100
0001
,  // measure 25
0010
0000
0000
0001
1000
0010
1000
0100
,  // measure 26
1000
0000
0000
0000
0001
0000
0200
0000
0000
0000
0000
0000
0000
0310
0000
1000
,  // measure 27
0000
0100
0000
0000
1000
0001
0010
0001
,  // measure 28
0100
0000
0000
0000
0010
0000
1000
0000
0002
0000
0000
0000
0000
0013
0000
0100
,  // measure 29
0000
0000
0000
1000
0010
1000
0100
0010
,  // measure 30
0001
0000
0000
0010
0000
0000
0001
0000
0100
0000
0000
0010
0000
0000
1000
0000
,  // measure 31
0100
0000
0000
1000
0000
0000
0001
0000
0100
0000
0000
0000
0000
0000
0010
0000
,  // measure 32
0010
0000
0000
1000
0000
0000
0001
0000
0202
0000
0000
0000
0300
0000
1000
0000
,  // measure 33
1003
0000
0000
0100
0000
0000
0010
0000
0022
0000
0000
0000
0003
0000
0001
0000
,  // measure 34
0031
0000
0000
1000
0000
0000
0010
0000
2020
0000
0000
0000
3000
0000
0100
0000
,  // measure 35
0130
0000
0000
0001
0000
0000
1000
0000
0200
0000
0000
0000
0310
0000
0000
0000
,  // measure 36
0110
0000
0001
0100
0001
0000
1000
0010
,  // measure 37
0102
0000
0000
1000
0000
0000
0100
0000
0000
1000
0000
0000
0203
0000
0000
0000
,  // measure 38
0310
0000
1000
0000
0100
0000
0000
0000
0010
0000
0000
0001
0000
0000
0100
0000
,  // measure 39
1001
0000
0000
0000
0010
0000
1000
0000
0001
0000
0000
0010
0000
0000
0001
0000
,  // measure 40
0100
0010
1000
0001
0022
0000
0030
0100
,  // measure 41
0103
0000
0000
0010
0000
0000
1000
0000
2200
0000
0000
0000
0300
0000
0001
0000
,  // measure 42
3001
0000
0000
1000
0000
0000
0010
0000
2020
0000
0000
0000
3000
0000
0100
0000
,  // measure 43
0130
0000
0000
0001
0000
0000
0010
0000
0001
0000
0100
0000
1000
0000
0000
0000
,  // measure 44
0010
0000
1000
0000
0100
0000
1000
0000
0001
0000
0000
0001
0000
0000
0001
0000
,  // measure 45
0100
0000
0000
0010
0000
0000
1000
0000
1000
0000
0001
0000
0010
0000
0100
0000
,  // measure 46
0000
0000
0110
0000
0000
0000
0001
0000
1000
0000
0000
0010
0000
0000
1000
0000
,  // measure 47
0100
0000
0000
0010
0000
0000
0001
0000
0100
0000
0010
0000
0100
0000
0001
0000
,  // measure 48
0000
0000
0000
0102
0000
0000
1000
0000
1000
0000
0000
0000
0000
0000
0100
0000
,  // measure 49
0100
0000
0000
0000
0000
0000
1000
0000
1003
0000
0000
0010
0000
0000
0100
0000
,  // measure 50
0001
0000
0000
0010
0000
0000
0100
0000
1100
0000
0000
0000
0001
0000
1000
0000
,  // measure 51
1010
0000
0100
0001
0010
0001
1000
0010
,  // measure 52
0000
0000
0000
0201
0000
0000
0010
0000
0010
0000
0000
0000
0000
0000
0001
0000
,  // measure 53
0001
0000
0000
0010
0010
0000
0301
1000
,  // measure 54
0100
0000
0000
1000
0000
0000
0001
0000
0011
0000
0000
0000
0010
0000
0100
0000
,  // measure 55
1000
0000
0000
0000
0001
0000
0100
0000
0020
0000
0000
2030
0000
0000
3002
0000
,  // measure 56
0000
0000
0203
0000
0000
0000
0300
0000
0000
0110
0000
0000
0000
0000
0000
0000
,  // measure 57
0000
0000
0000
0000
,  // measure 58
0000
0000
0000
0000
0000
0001
0000
0001
0000
0000
1000
0000
0000
0000
0000
0000
,  // measure 59
0000
0000
0000
0000
0000
0000
0000
0000
0000
0000
0000
0000
0000
0020
0000
0000
,  // measure 60
0000
0000
0230
0000
0000
0000
0301
0000
0000
0000
1000
0000
0000
0001
0000
0000
,  // measure 61
0000
1001
0000
0000
0000
0000
0000
0000
0000
0000
0000
0000
0000
0000
0000
0000
0000
0000
0000
0000
0000
0000
0000
0000
0000
0000
0000
0000
0000
0000
0000
0000
;

//---------------dance-single - ----------------
#NOTES:
     dance-single:
     :
     Easy:
     6:
     0.210685,0.251291,0.148303,0.189498,0.008239,179.000000,161.000000,18.000000,23.000000,0.000000,0.000000,0.210685,0.251291,0.148303,0.189498,0.008239,179.000000,161.000000,18.000000,23.000000,0.000000,0.000000:
// measure 0
0000
0000
0000
0000
,  // measure 1
0000
0000
0000
0000
,  // measure 2
0000
0000
0000
0000
,  // measure 3
0000
0000
0000
0000
,  // measure 4
0000
0000
0000
0000
,  // measure 5
0000
0000
0000
0000
,  // measure 6
0000
0000
0000
0000
,  // measure 7
0000
0000
0000
0000
,  // measure 8
0001
0010
0001
0100
,  // measure 9
0010
1000
0010
0100
,  // measure 10
0001
0000
1000
0000
,  // measure 11
0010
0000
1001
0000
,  // measure 12
0100
0010
0100
0001
,  // measure 13
1000
0100
0010
0001
,  // measure 14
0100
0000
0010
0000
,  // measure 15
1000
0100
1000
0000
,  // measure 16
0001
0010
0001
0001
,  // measure 17
1000
0010
1000
0100
,  // measure 18
0010
0000
0001
0000
,  // measure 19
0100
0000
0010
0000
,  // measure 20
1000
0100
1000
1000
,  // measure 21
0010
0100
0001
1000
,  // measure 22
0001
0000
0010
0000
,  // measure 23
0100
0000
1000
0001
,  // measure 24
0200
0000
0310
1000
,  // measure 25
0100
0000
1000
0001
,  // measure 26
1000
0100
0020
0000
,  // measure 27
0031
0000
1000
0010
,  // measure 28
1000
0100
0010
0001
,  // measure 29
0100
0000
0010
1000
,  // measure 30
0001
0000
0001
0000
,  // measure 31
1000
0000
0100
0000
,  // measure 32
1000
0010
2020
3030
,  // measure 33
0100
0001
0202
0303
,  // measure 34
0001
0010
0022
0033
,  // measure 35
1000
0001
1000
0010
,  // measure 36
0110
0100
0001
0000
,  // measure 37
2000
0000
0010
3100
,  // measure 38
1100
0000
0001
0000
,  // measure 39
1001
0001
0100
0000
,  // measure 40
0010
1000
2200
3300
,  // measure 41
0010
0001
0202
0303
,  // measure 42
0001
0010
0022
0033
,  // measure 43
0100
1000
0010
0100
,  // measure 44
0110
0001
1000
0100
,  // measure 45
1000
0000
0010
0100
,  // measure 46
1010
0000
0001
0000
,  // measure 47
0010
0000
0001
1000
,  // measure 48
0010
0102
0100
0100
,  // measure 49
1000
1000
0010
0103
,  // measure 50
0001
0010
0001
0100
,  // measure 51
1000
0000
0010
1000
,  // measure 52
0100
2100
0010
0010
,  // measure 53
0001
0001
0100
3010
,  // measure 54
1000
0001
1000
0010
,  // measure 55
0100
0001
0010
0100
,  // measure 56
1000
0001
0220
0000
,  // measure 57
0330
0000
0000
0000
,  // measure 58
0000
0000
0000
0000
0000
0001
0000
0001
0000
0000
0000
0000
0000
0000
0000
0000
,  // measure 59
0000
0000
0000
0000
0000
0000
0000
2020
,  // measure 60
0000
3030
0000
0202
0000
0303
0000
0000
,  // measure 61
1001
0000
0000
0000
;

//---------------dance-single - ----------------
#NOTES:
     dance-single:
     :
     Beginner:
     2:
     0.084745,0.150775,0.032956,0.016478,0.000000,72.000000,68.000000,4.000000,2.000000,0.000000,0.000000,0.084745,0.150775,0.032956,0.016478,0.000000,72.000000,68.000000,4.000000,2.000000,0.000000,0.000000:
// measure 0
0000
0000
0000
0000
,  // measure 1
0000
0000
0000
0000
,  // measure 2
0000
0000
0000
0000
,  // measure 3
0000
0000
0000
0000
,  // measure 4
0000
0000
0000
0000
,  // measure 5
0000
0000
0000
0000
,  // measure 6
0000
0000
0000
0000
,  // measure 7
0000
0000
0000
0000
,  // measure 8
0001
0000
0001
0000
,  // measure 9
1000
0000
1000
0000
,  // measure 10
0100
0000
0000
0000
,  // measure 11
0000
0000
0000
0000
,  // measure 12
1000
0000
1000
0000
,  // measure 13
0001
0000
0001
0000
,  // measure 14
0100
0000
0000
0000
,  // measure 15
0000
0000
0000
0000
,  // measure 16
0010
0000
0010
0000
,  // measure 17
0100
0000
0100
0000
,  // measure 18
0001
0000
0000
0000
,  // measure 19
0000
0000
0000
0000
,  // measure 20
0010
0000
0010
0000
,  // measure 21
0100
0000
0100
0000
,  // measure 22
1000
0000
0000
0000
,  // measure 23
0000
0000
0000
0000
,  // measure 24
0001
0000
0001
0000
,  // measure 25
0001
0000
0000
0000
,  // measure 26
0100
0000
0100
0000
,  // measure 27
0100
0000
0000
0000
,  // measure 28
0010
0000
0010
0000
,  // measure 29
0010
0000
1000
0000
,  // measure 30
0001
0000
0000
0000
,  // measure 31
0000
0000
0000
0000
,  // measure 32
0100
0000
0100
0000
,  // measure 33
0010
0000
0010
0000
,  // measure 34
1000
0000
1000
0000
,  // measure 35
0001
0000
0001
0000
,  // measure 36
0010
0000
0000
0000
,  // measure 37
1001
0000
0000
0000
,  // measure 38
0100
0000
0000
0000
,  // measure 39
1001
0000
0000
0000
,  // measure 40
0001
0000
0001
0000
,  // measure 41
0010
0000
0010
0000
,  // measure 42
0100
0000
0100
0000
,  // measure 43
1000
0000
1000
0000
,  // measure 44
0010
0000
0000
0000
,  // measure 45
0000
0000
0100
0000
,  // measure 46
0001
0000
0000
0000
,  // measure 47
0000
0000
1000
0000
,  // measure 48
0020
0000
0000
0000
,  // measure 49
0030
0000
1000
0000
,  // measure 50
0001
0000
0000
0000
,  // measure 51
0000
0000
1000
0000
,  // measure 52
0200
0000
0000
0000
,  // measure 53
0300
0000
0010
0000
,  // measure 54
0001
0000
0100
0000
,  // measure 55
0010
0000
1000
0000
,  // measure 56
0100
0000
1001
0000
,  // measure 57
0000
0000
0000
0000
,  // measure 58
0000
0000
0000
0000
,  // measure 59
0000
0000
0000
0000
,  // measure 60
0000
0000
0000
0000
,  // measure 61
1001
0000
0000
0000
;
