#TITLE:Steppin' Out;
#ARTIST:Joe Jackson;
#BANNER:Steppin' Out-bn.png;
#BACKGROUND:Steppin' Out-bg.png;
#JACKET:Steppin' Out-jacket.png;
#MUSIC:Steppin' Out.ogg;
#SAMPLESTART:72.17;
#SAMPLELENGTH:20;
#DISPLAYBPM:158:162;
#BPMS:0=159.706,32=159,48=160,56=159.75,72=159.3,88=161,96=159.2,112=158,116=160.754,124=159.375,144=160.54,156=157.79,160=158.95,164=161.2,176=160.153,184=158.5,196=159.573,200=159.01,204=158.675,208=162,216=157.8,224=158.993,232=160.15,248=159.72,264=160.14,276=159.47,292=159.963;
#BGCHANGES:;

//---------------dance-single - ----------------
#NOTES:
     dance-single:
     :
     Beginner:
     2:
     :
0000
0000
0000
0000
,
0000
0000
0000
0000
,
0000
0000
0000
0000
,
0000
0000
0000
0000
,
0000
0000
0000
0000
,
0000
0000
0000
0000
,
0100
0000
0000
0000
,
0010
0000
0000
0000
,
1000
0000
0000
0000
,
0001
0000
0000
0000
,
0020
0000
0000
0000
,
0030
0000
0001
0000
,
0200
0000
0000
0000
,
0000
0000
0300
0000
,
0010
0000
0000
0000
,
1000
0000
0000
0000
,
0001
0000
0000
0000
,
0100
0000
0000
0000
,
0002
0000
0000
0000
,
0003
0000
1000
0000
,
0200
0000
0000
0000
,
0000
0000
0300
0000
,
1000
0000
0001
0000
,
0200
0000
0300
0000
,
0001
0000
1000
0000
,
0020
0000
0030
0000
,
2000
0000
0000
0000
,
3000
0000
0001
0001
,
0001
0000
0010
0000
,
0001
0000
0100
0000
,
0020
0000
0000
0000
,
0030
0000
0000
0000
,
1000
0000
0100
0000
,
1000
0000
0001
0000
,
0100
0000
0000
0010
,
0010
0000
0000
0000
,
1001
0000
0100
0000
,
0001
0000
0000
1000
,
1000
0000
0000
0000
,
0001
0000
1000
0000
,
0020
0000
0000
0000
,
0030
0000
0100
0000
,
0002
0000
0000
0000
,
0000
0000
0003
0000
,
1000
0000
0001
0000
,
0020
0000
0030
0000
,
0001
0000
0100
0000
,
2000
0000
3000
0000
,
0200
0000
0000
0000
,
0300
0000
1000
1000
,
1000
0000
0010
0000
,
0100
0000
0001
0000
,
2000
0000
3000
0000
,
0002
0000
0003
0000
,
0010
0000
0001
0000
,
0100
0000
0010
0000
,
1000
0000
0000
0001
,
0001
0000
0000
0000
,
1001
0000
0010
0000
,
0100
0000
0000
0010
,
0010
0000
0000
0000
,
1000
0000
0100
0000
,
1000
0000
0002
0000
,
0003
0000
0100
0100
,
0100
0000
0020
0000
,
0000
0000
0030
0000
,
1000
0000
0100
0000
,
0020
0000
0030
0000
,
0001
0000
1000
0000
,
0002
0000
0003
0000
,
0010
0000
0200
0000
,
0300
0000
1000
1000
,
1000
0000
0020
0000
,
0000
0000
0030
0000
,
0100
0000
0001
0000
,
2000
0000
3000
0000
,
0100
0000
1000
0000
,
0002
0000
0003
0000
,
1000
0000
0020
0000
,
0000
0000
0000
0030
;

//---------------dance-single - ----------------
#NOTES:
     dance-single:
     :
     Easy:
     7:
     :
0000
0000
0000
0000
,
0000
0000
0000
0000
,
0000
0000
0000
0000
,
0000
0000
0000
0000
,
0000
0000
0000
0000
,
0000
0000
0000
0000
,
0100
0000
0000
0010
0000
0000
2000
0000
,
0002
0000
0000
3003
,
0010
0000
0000
0100
0000
0000
2000
0000
,
0002
0000
0000
3003
,
0200
0000
0000
0020
0000
0000
0000
0000
,
0000
0300
1000
1030
,
0002
0000
0000
2000
0000
0000
0000
0000
,
0000
0000
0000
3003
,
0001
0000
0000
0010
0000
0000
0200
0000
,
2000
0000
0000
3300
,
0001
0000
0000
1000
0000
0000
0020
0000
,
0200
0000
0330
0000
0000
0001
1000
0001
,
2000
0000
0000
0020
0000
0000
0000
0000
,
0000
3000
0100
0130
,
0002
0000
0000
0020
0000
0000
0003
0000
,
0100
0100
0001
0130
,
1000
0000
0000
0010
0000
0000
0100
0000
,
0002
0010
1000
0013
,
0100
0000
0000
0010
0000
0000
1000
0000
,
0200
0001
0010
0301
,
0220
0000
0000
0330
,
1000
0001
0100
0100
,
0010
1000
0100
0010
,
0001
0100
0001
1000
,
2020
0000
0000
3030
,
0001
0010
0001
0100
,
0010
0100
0001
0010
,
0001
0100
1000
0010
,
0202
0000
0303
1000
,
2200
0000
0000
3300
,
0022
0033
0001
0100
,
0002
0000
0000
1003
,
2002
0000
0000
3003
,
0010
1000
0100
0001
,
0020
0000
0000
0200
0000
0000
0030
0000
,
1000
1000
0001
1300
,
0002
0000
0000
0200
0000
0000
0003
0000
,
0010
0010
1000
0301
,
0010
0000
0000
0001
0000
0000
0100
0000
,
2000
0001
0010
3001
,
0100
0000
0000
0010
0000
0000
1000
0000
,
0002
0010
1000
0103
,
0220
0000
0000
0330
,
0010
1000
0001
0001
,
0010
0001
0100
0010
,
1000
0100
1000
0001
,
0022
0000
0000
0033
,
2200
0000
0000
3300
,
0001
0100
0001
0010
,
0100
1000
0010
0100
,
0202
0000
0303
0010
,
2020
0000
0000
3030
,
0200
0000
1300
0001
,
0020
0000
0000
0130
,
2002
0000
0000
3003
,
0010
0001
0100
1000
,
0002
0000
0000
0200
0000
0000
0003
0000
,
0010
0010
0001
0310
,
0002
0000
0000
2000
0000
0000
0003
0000
,
0100
0010
0100
3100
,
1000
0000
0000
0001
0000
0000
0100
0000
,
0020
0100
1000
0130
,
0001
0000
0000
0010
0000
0000
0001
0000
,
0200
0010
1000
0301
,
2000
0000
0000
0200
0000
0000
3000
0000
,
0001
0010
0001
1300
,
0002
0000
0000
0020
0000
0000
0003
0000
,
1000
0100
0001
0031
,
0100
0000
0000
0010
0000
0000
1000
0000
,
0002
0010
0100
0013
,
1000
0000
0000
0001
0000
0000
1000
0000
,
0020
0100
1000
0130
,
1000
0000
0000
0020
0000
0000
0000
0000
,
0000
0000
0000
0030
;

//---------------dance-single - ----------------
#NOTES:
     dance-single:
     :
     Medium:
     9:
     :
0000
0000
0000
0000
,
0000
0000
0000
0000
,
0000
0000
0000
0000
,
0000
0000
0000
0000
,
0000
0000
0000
0000
,
0000
0000
0000
0000
,
0100
0000
0000
0010
0000
0000
1000
0000
,
0001
0010
0100
0000
1000
0000
0101
0000
,
0010
0000
0000
1000
0000
0000
0001
0000
,
0010
0001
0100
0000
1000
0000
1010
0000
,
0002
0000
0000
2000
0000
0000
3003
0000
,
0010
1000
0100
0000
2000
0000
3002
0000
,
0023
0000
0000
0200
0000
0000
0330
0000
,
1000
0010
1000
0000
0001
0100
0001
0000
,
0020
0000
0000
0032
0000
0000
2003
0000
,
3020
0000
0100
0000
1030
0001
0100
0000
,
0002
0000
0000
0023
0000
0000
0230
0000
,
2300
0000
0001
0000
0000
3100
0010
0100
,
0020
0000
0000
0032
1000
0000
0100
0000
,
1000
0013
0101
1100
,
2000
0000
0000
3020
0100
0000
1000
0000
,
0001
0000
0130
0000
0010
1000
0001
0000
,
0020
0000
0000
0032
0000
0000
2003
0000
,
3020
0100
1000
0130
,
0002
0000
0000
2003
0000
0000
3200
0000
,
0320
1000
0001
0130
,
2100
0001
0000
3001
,
0000
1000
0010
0100
0001
0000
0001
0000
,
0020
0000
0031
0100
0000
0000
0010
1000
,
0000
0100
0000
0010
0000
0000
0001
1000
,
0020
0100
0000
0130
,
0001
0010
0001
1000
,
0010
1000
0000
0110
0000
0000
0001
2000
,
0000
0000
3100
0020
0000
0000
0031
1000
,
0200
1000
0310
0011
,
2100
0001
0100
3001
,
0101
0000
0000
0000
1000
0010
0100
0010
,
2000
0001
3100
1100
,
0012
0100
0000
1003
,
1001
0000
0010
0200
0000
0000
0301
1000
,
0002
0000
0000
0200
0000
0000
0303
0000
,
0010
1000
0001
0000
0020
0000
0230
0000
,
2300
0000
0000
0002
0000
0000
3003
0000
,
1000
0100
1000
0000
0001
0010
0001
0000
,
2000
0000
0000
3002
0000
0000
0023
0000
,
0230
0001
1000
0310
,
0002
0000
0000
0203
0000
0000
0320
0000
,
2030
0100
0001
3010
,
0102
1000
0000
1003
,
0000
0010
0100
0001
1000
0000
1000
0000
,
0200
0000
1300
0001
0000
0000
0010
0100
,
0000
0010
0000
0001
0000
1000
0000
0010
,
0200
0001
0000
0301
,
2010
0001
0100
3001
,
0010
0100
0000
1000
0000
0000
0001
2000
,
0000
0000
3010
0200
0000
0000
0301
0010
,
0002
0000
0100
0000
0000
0000
1003
0100
,
0020
0001
0000
0130
,
0110
0000
0000
0000
0001
1000
0010
1000
,
0002
0100
0013
0101
,
2100
0010
0000
3010
,
1001
0000
1000
0100
0000
0010
0000
0001
,
0200
0000
0000
0020
0000
0000
0330
0000
,
1000
0001
0100
0000
1010
0000
0101
0000
,
0020
0000
0000
0002
0000
0000
0033
0000
,
1000
0001
0100
0000
0010
0000
1001
0000
,
0200
0000
0000
0302
0000
0000
1003
0000
,
1020
0100
1000
0031
,
0020
0000
0000
2030
0000
0000
3001
0000
,
2100
0001
0100
3010
,
1001
0000
0000
2000
0002
0000
3003
0000
,
0010
0001
0100
0000
0101
0000
1100
0000
,
0011
0000
0000
2000
0002
0000
3003
0000
,
0010
0001
0100
0000
1000
0000
0101
0000
,
0002
0000
0000
2003
0000
0000
3010
0000
,
0210
1000
0001
0310
,
0200
0000
0000
0320
0000
0000
1030
0000
,
1002
1000
0010
0103
,
2000
0000
0000
0020
0000
0000
0000
0000
,
0000
0000
0000
3030
;

//---------------dance-single - ----------------
#NOTES:
     dance-single:
     :
     Hard:
     12:
     :
0000
0000
0000
0000
,
0000
0000
0000
0000
,
0000
0000
0000
0000
,
0000
0000
0000
0000
,
0000
0000
0000
0000
,
0000
0000
0000
0000
,
0100
0000
0010
1000
0000
0001
0100
0000
,
0010
1000
0100
1000
0010
1000
0001
0000
,
0010
0000
0001
0100
0000
0010
1000
0000
,
0100
0010
0001
0100
0010
0100
0001
0000
,
1000
0000
0010
0100
0001
0000
1000
0000
,
0010
1000
0100
1000
0001
0100
0010
0000
,
1010
0000
0001
0100
0010
0000
1000
0000
,
0100
0010
0001
1000
0100
1000
0010
0000
,
0101
0000
0010
1000
0000
0001
0100
0000
,
0001
0010
0001
0100
0010
1000
0001
0000
,
0011
0000
0001
1000
0000
0010
0100
0000
,
0010
0100
0001
1000
0001
0100
0100
0010
,
2000
0000
3001
0200
0010
0000
1000
0000
,
0301
0100
0010
0000
1000
0100
0001
0000
,
0020
0000
0031
2000
0010
0000
0100
0000
,
3010
1000
0100
0010
0001
0100
0010
0000
,
0101
0000
0010
1000
0000
0100
0001
0000
,
0020
0000
0031
1000
0010
1000
0100
0000
,
0110
0000
0001
0100
0000
0010
1000
0000
,
0200
0000
0310
0001
0100
0010
1000
0000
,
2100
0010
0001
0100
,
3010
1000
0100
0010
0001
0000
1000
0010
,
0010
0000
0100
0001
0020
0000
0031
0100
,
0020
0000
1030
0100
0002
0000
0013
0100
,
2000
0000
0001
0000
3010
0001
0100
0010
,
1000
0000
0100
0000
1000
0001
0100
0010
,
0100
0001
0000
0010
0200
0000
1300
0001
,
0020
0000
0031
1000
0020
0000
0130
0001
,
0020
0000
0100
0000
0031
1000
0100
0000
,
0110
0001
1000
0000
0010
1000
0001
0000
,
0102
0000
0013
0000
1000
0100
0001
0100
,
1000
0010
0200
0000
0301
0010
1000
0000
,
1100
0010
0001
0000
0100
0010
1000
0000
,
1010
0000
0001
0100
0020
0000
1030
0001
,
1001
0000
0010
0200
0001
0000
1000
0000
,
0301
0100
0010
0100
1000
0100
0001
0000
,
0011
0000
0100
2000
0001
0000
0100
0000
,
3001
1000
0010
0100
1000
0100
0001
0000
,
0020
0000
0031
0200
0000
0310
2000
0000
,
3002
0000
0013
0001
0100
0010
1000
0000
,
0200
0000
0310
0002
0000
1003
0020
0000
,
0230
0000
0310
1000
0100
0010
0001
1000
,
0020
0100
0001
1000
,
0130
0010
0100
0001
1000
0000
0001
0100
,
0100
0010
1000
0001
0020
0000
0031
0100
,
2000
0000
3010
0100
0001
1000
0100
0010
,
0002
0000
0100
0000
1003
0010
0100
0001
,
0001
0000
0010
0000
0001
0100
0010
1000
,
0100
0010
0000
0001
0200
0000
0310
1000
,
0002
0000
1003
0001
0020
0000
0031
0100
,
2000
0000
0010
0000
3001
0010
0100
1000
,
0010
0100
0001
0000
1000
0100
0010
0000
,
0012
0000
0103
0000
1000
0010
0001
0010
,
2000
0000
0001
0000
3100
0010
1000
0000
,
1001
0010
0100
0000
0001
0010
1000
0000
,
0100
0010
0001
0100
0010
1000
0001
1000
,
0200
0000
0310
0002
1000
0000
0010
0000
,
1003
0001
0010
0001
0100
0010
1000
0000
,
0020
0000
1030
0200
0001
0000
0010
0000
,
1300
0001
0100
0010
1000
0100
0001
0000
,
0020
0000
0031
2000
0000
3001
0200
0000
,
0320
0000
1030
0010
0100
0010
1000
0000
,
0002
0000
0013
0200
0000
1300
0020
0000
,
2030
0000
3001
0100
1000
0100
0010
0000
,
0101
0000
0010
0002
1000
0000
0100
0000
,
0013
0100
0010
0001
0100
0010
1000
0000
,
1100
0000
0001
0020
1000
0000
0100
0000
,
0031
0100
0010
0100
1000
0100
0001
0000
,
0012
0000
0103
0020
0000
1030
0200
0000
,
0320
0000
1030
0010
0001
1000
0100
0000
,
2001
0000
3001
0200
0000
0310
2000
0000
,
3002
0000
0013
0001
0100
0010
1000
0001
,
2000
0000
0000
0020
0000
0000
0000
0000
,
0000
0000
0000
3030
;
