#VERSION:0.83;
#TITLE:Stella Sinistra, Deus Dextera;
#SUBTITLE:;
#ARTIST:Akhuta Philharmonic Orchestra;
#TITLETRANSLIT:;
#SUBTITLETRANSLIT:;
#ARTISTTRANSLIT:;
#GENRE:;
#ORIGIN:;
#CREDIT:;
#BANNER:Stella Sinistra, Deus Dextera-bn.png;
#BACKGROUND:Stella Sinistra, Deus Dextera-bg.png;
#PREVIEWVID:;
#JACKET:Stella Sinistra, Deus Dextera-jacket.png;
#CDIMAGE:;
#DISCIMAGE:;
#LYRICSPATH:;
#CDTITLE:;
#MUSIC:Stella Sinistra, Deus Dextera.ogg;
#OFFSET:-0.615000;
#SAMPLESTART:73.108002;
#SAMPLELENGTH:20.000000;
#SELECTABLE:YES;
#DISPLAYBPM:65.000000:195.000000;
#BPMS:0.000=145.000,
4.000=150.000,
7.000=129.000,
10.000=135.000,
13.000=130.000,
16.000=138.000,
20.000=132.000,
22.000=129.000,
23.000=111.000,
24.000=140.000,
25.000=130.000,
26.000=126.000,
29.000=150.000,
31.000=135.000,
39.000=125.000,
43.000=103.000,
46.000=130.000,
49.000=133.000,
55.000=125.000,
56.000=130.000,
65.000=150.000,
67.000=138.000,
72.000=125.000,
73.000=130.000,
79.000=135.000,
84.000=132.000,
88.000=137.000,
94.000=135.000,
95.000=126.000,
97.000=125.000,
99.000=120.000,
101.000=126.000,
102.000=130.000,
103.000=124.000,
105.000=117.000,
107.000=114.000,
113.000=118.000,
116.000=80.800,
124.000=80.000,
134.000=76.000,
136.000=75.000,
137.000=65.000,
138.000=180.000,
412.000=170.000,
415.000=160.000,
424.000=80.000,
425.000=160.000,
426.000=170.000,
427.000=175.000,
429.000=170.000,
430.000=173.000,
431.000=180.000,
433.000=195.000,
434.000=185.000,
437.000=175.000,
439.000=180.000,
447.000=170.000,
450.000=180.000,
454.000=175.000,
456.000=180.000,
472.000=165.000,
474.000=175.000,
480.000=185.000,
483.000=180.000,
496.000=165.000,
499.000=180.000,
501.000=185.000,
504.000=181.000,
509.000=180.000,
511.000=171.000,
514.000=160.000,
517.000=155.000,
519.000=150.000,
520.000=145.000,
521.000=140.000,
522.000=137.000,
523.000=133.000,
525.000=130.000,
527.000=116.000,
528.000=120.000,
529.000=180.000;
#STOPS:138.000=1.865,
424.000=0.365,
529.000=5.000;
#DELAYS:;
#WARPS:;
#TIMESIGNATURES:0.000=4=4;
#TICKCOUNTS:0.000=4;
#COMBOS:0.000=1;
#SPEEDS:0.000=1.000=0.000=0;
#SCROLLS:0.000=1.000;
#FAKES:;
#LABELS:0.000=Song Start;
#BGCHANGES:;
#KEYSOUNDS:;
#ATTACKS:
;

//---------------dance-single - ----------------
#NOTEDATA:;
#CHARTNAME:;
#STEPSTYPE:dance-single;
#DESCRIPTION:;
#CHARTSTYLE:;
#DIFFICULTY:Challenge;
#METER:17;
#RADARVALUES:0.637868,0.937224,0.237830,0.299206,0.937896,1164.000000,1102.000000,62.000000,78.000000,0.000000,0.000000,0.000000,0.000000,0.000000,0.637868,0.937224,0.237830,0.299206,0.937896,1164.000000,1102.000000,62.000000,78.000000,0.000000,0.000000,0.000000,0.000000,0.000000;
#CREDIT:;
#DISPLAYBPM:65.000000:195.000000;
#NOTES:
0000
0000
0000
0000
,
0000
0000
0000
0000
,
0000
0000
0000
0000
,
0000
0000
0000
0000
,
0000
0000
0000
0000
,
0000
0000
0000
0000
,
0000
0000
0000
0000
,
0000
0000
0000
0000
,
0000
0000
0000
0000
,
0000
0000
0000
0000
0000
0000
0000
0000
0000
0000
0000
0000
0000
0000
0000
0000
0000
0000
0000
0000
0000
0000
0000
0000
0000
0000
0000
0000
0000
0000
0000
0000
0000
0000
0000
0000
0000
0000
0000
0000
0000
0000
0000
0000
0000
0000
0000
0000
2000
0000
0000
0000
0000
0000
0000
0000
0000
0000
0000
0000
0000
0000
0000
0000
0000
0000
0000
0000
0000
0000
0000
0000
0000
0000
0000
0000
0000
0000
0000
0000
0000
0000
0000
0000
0000
0000
0000
0000
0000
0000
0000
0000
0000
0000
0000
0000
0000
0000
0000
0000
0000
0000
0000
0000
0000
0000
0000
0000
0000
0000
0000
0000
0000
0000
0000
0000
0000
0000
0000
0000
0000
0000
0000
0000
0000
0000
0000
0000
0000
0000
0000
0000
0000
0000
0002
0000
0000
0000
0000
0000
0000
0000
0000
0000
0000
0000
0000
0000
0000
0000
0000
0000
0000
0000
0000
0000
0000
0000
0000
0000
0000
0000
0000
0000
0000
0000
0000
0000
0000
0000
0000
0000
0000
0000
0000
0000
0000
0000
0000
0000
0000
0000
0000
0000
0000
0000
0000
0000
0000
0000
0000
0000
,
3000
0023
0230
2300
,
0000
0000
3001
0100
,
0010
0200
0000
0310
,
2000
0000
0000
3200
0000
0000
0320
0000
,
0000
0032
0000
0000
2003
0000
0000
3002
,
0000
0000
0000
0000
0000
0000
0000
0000
0000
0000
0000
0000
0000
0000
0000
0000
0013
0000
0000
0000
0000
0000
0000
0000
0000
0000
0000
0000
0000
0000
0000
0000
0000
0000
0000
0000
0000
0000
0000
0000
0100
0000
0000
0000
0000
0000
0000
0000
0000
0000
0000
0000
0000
0000
0000
0000
0000
0000
0000
0000
0000
0000
0000
1000
,
0000
0000
0000
1000
0000
0000
0002
0000
,
0000
0023
0000
0000
0032
0000
0000
0103
,
0000
0000
0010
0000
0000
1000
0000
0000
,
0001
0000
0000
0001
0000
0000
0200
0000
,
0000
0320
0000
0000
0230
0000
0302
0000
,
2003
3200
0010
0010
,
1300
0002
2003
3020
,
0100
1000
0130
0001
,
0010
0001
0100
1000
,
0010
1000
0001
2000
,
0001
0001
0010
3200
,
0000
0000
2300
0010
,
0001
0010
0100
3100
,
0002
0000
0000
0000
,
0000
0000
0000
0003
,
0011
0100
1000
0001
1010
0100
0001
1000
,
0101
0010
1000
0001
1100
0000
0000
0000
,
0101
0010
0100
0001
1010
0100
1000
0010
,
1100
0000
0000
0000
0010
0000
0000
0000
0001
0000
0000
0000
0100
0000
0000
0000
0022
0000
0000
0030
0000
0000
0000
0000
0103
0000
0000
0000
0000
0000
0000
0000
,
1001
0000
0010
1000
0010
0100
0001
0000
0010
0001
1000
0010
,
0100
0000
0000
0110
0000
0100
0001
0010
0100
1000
0010
0100
,
0001
0000
1000
0001
1000
0010
0100
0000
0000
0001
1000
0010
,
1000
0010
0100
0001
0010
0100
0010
0100
0010
0001
1000
0010
,
0100
0001
0100
0001
1000
0001
0010
0000
0100
1000
0000
0010
,
1000
0000
0001
0100
0000
0001
0010
0001
1000
0100
0010
0100
,
1000
0000
0001
1000
0001
0010
0100
0000
1000
0100
1000
0001
,
0010
0000
0000
1100
0000
0100
1000
0000
0001
1000
0000
0001
,
0100
0000
0100
0010
0100
0001
1000
0000
0000
0001
0000
0000
,
0101
0000
1000
0001
0000
1000
0100
0000
0010
0100
1000
0001
,
0100
0000
0000
1010
0000
0000
0101
0000
0000
0001
0010
0100
,
1000
0000
0000
0110
0000
0010
0001
0010
0100
1000
0000
0000
,
0011
0000
1000
0001
0100
0010
0100
0001
0010
0100
1000
0001
,
1000
0000
0000
0000
0010
0000
0000
0000
0100
0000
0000
0000
0001
0000
0000
0000
0000
0000
0000
0000
0000
0000
0000
0000
2002
0000
0000
0000
0000
0000
0000
0000
0000
0000
0000
0000
0003
0000
0000
0000
0000
0000
3010
0000
0000
0100
0000
0000
,
0002
0000
0000
0000
0000
0000
0013
0100
1000
0010
0100
0001
,
1000
0001
0010
0001
0010
0100
2000
0000
0000
3001
0100
0010
,
1000
0100
1000
0010
0000
0000
0100
0001
0100
0001
1000
0100
,
1000
0010
0100
0010
1000
0001
0100
0010
1000
0001
0000
0010
,
0001
0100
0001
0010
0100
1000
0001
1000
0001
0010
0100
1000
,
0010
0100
0001
1000
0000
0000
0101
0000
0000
0010
1000
0001
,
0020
0000
0000
0000
0000
0000
0130
0010
0100
1000
0000
0000
,
0001
1000
0010
0100
0001
0010
0100
1000
0001
0100
0001
1000
,
0100
1000
0001
0020
0000
0000
1000
0000
0000
0031
0010
0001
,
0200
0000
0000
0010
0000
0310
1000
0000
0000
0001
0010
0001
,
0010
0000
0000
0000
0100
0000
0000
0000
1000
0000
0000
0000
0010
0000
0000
0000
1000
0000
0000
0000
0010
0000
0000
0000
0100
0000
0000
0000
0001
0000
0000
0000
1000
0000
0000
0000
0010
0000
0000
0000
0000
0000
0100
0000
0000
0001
0000
0000
,
0010
0000
0000
0100
0000
0000
1000
0000
0000
0001
0000
0000
0200
0000
0000
0000
0000
0000
0000
0000
0000
0000
0000
0000
0301
0000
0000
0000
0000
0000
0000
0000
1000
0000
0000
0000
0001
0000
0000
0000
0010
0000
0000
0000
0100
0000
0000
0000
,
1000
0000
0010
1000
0010
0100
0001
0000
0010
0001
0000
0100
,
0001
0100
0010
1000
0100
0010
0001
0000
1000
0001
0000
0010
,
0001
1000
0010
0100
0001
0100
0001
0010
0001
0010
0100
1000
,
0010
0100
0010
0100
0010
1000
0100
0010
0001
1000
0010
1000
,
0010
1000
0001
1000
0000
0100
0010
0000
0001
0010
0000
0001
,
0010
0100
1000
0001
0100
0001
0010
0001
0100
0001
0010
0100
,
1000
0000
1000
0001
0100
0001
1000
0000
0000
1010
0000
0000
,
0101
0000
1000
0001
0000
1000
0100
0000
0010
0001
0010
0001
,
1000
0000
0000
0110
0000
0000
1001
0000
0100
0001
0000
0001
,
1000
0000
0010
1000
0001
1000
0100
0000
0000
0011
0000
0000
,
1100
0000
0000
0010
1000
0001
0100
0000
0000
1010
0000
0000
,
0001
0010
0001
1000
0000
0000
0011
0000
0010
0100
0010
0001
,
1000
0010
1000
0001
0010
0100
0010
0001
1000
0010
0000
0000
,
1002
0000
0000
0103
0000
0010
1000
0000
0100
0020
0000
0000
,
0031
1000
0001
1000
0000
0010
0200
0000
0000
0301
0000
0001
,
1000
0000
0000
0110
0000
0010
1000
0010
0100
0002
0000
0000
,
0013
0000
0010
0001
0000
0001
1000
0000
0010
0100
0000
0010
,
0100
0001
1000
0100
0000
0010
0001
0010
0001
1000
0010
1000
,
0100
0000
1000
0001
0000
1000
0010
0100
0001
0010
0000
0000
,
0100
0000
0100
0010
0001
1000
0001
0100
0010
1000
0100
1000
,
0001
0010
0001
0100
0000
0010
1000
0000
0001
1000
0001
0010
,
0100
0000
1000
0100
0010
0001
0100
0001
0100
0010
0000
0000
,
1000
0010
1000
0100
0010
0100
1000
0000
1000
0001
0010
0001
,
0100
0001
0100
0010
0000
0000
1000
0001
1000
0001
0010
0001
,
0010
0100
1000
0100
0010
0100
1000
0010
0100
0001
0000
0000
,
0010
0001
0010
0001
1000
0010
0100
0000
0100
0001
0000
0100
,
0001
1000
0010
0100
0000
0001
1000
0000
0100
0010
0100
1000
,
0001
0100
0010
0100
0001
1000
0100
0010
0001
0100
0000
0000
,
0001
0010
0001
0010
0100
1000
0100
1000
0100
1000
0001
0100
,
0010
0000
0010
0100
0000
0001
1000
0100
1000
0010
0100
0001
,
0010
0001
0100
0010
1000
0100
0010
0001
1000
0001
0000
0000
,
0001
0100
0010
1000
0001
1000
0001
0010
0100
1000
0100
0010
,
0001
1000
0001
0100
0000
0000
0010
1000
0010
1000
0100
1000
,
0001
0000
0010
0001
0000
0010
0100
1000
0010
0100
0000
0000
,
0001
0000
0001
0010
0100
1000
0010
0000
0100
0001
0010
0001
,
1000
0001
0010
0100
0000
0100
1000
0100
0010
0001
0000
0000
,
0100
0000
0001
1000
0001
0100
0010
0000
0000
0101
0000
0000
,
1000
0010
1000
0100
0010
0100
1000
0000
0001
1000
0100
0010
,
0001
0000
0000
1100
0000
0000
0001
0100
0001
0100
0000
0010
,
0100
0000
0001
1000
0000
0001
0010
0001
1000
0200
0000
0000
,
1300
0010
1000
0010
0100
0001
0010
0000
0000
0100
1000
0100
,
1000
0001
0100
0010
0000
0000
0120
0000
0000
1000
0000
0000
,
0130
0101
1100
0022
,
0000
0000
0000
0000
,
0000
0000
0000
0030
,
1003
0000
0100
0000
0100
1000
0001
1000
,
0010
0000
0200
0000
0000
0001
0301
0000
,
0010
0000
0100
1000
0001
0000
0001
0000
,
0010
0100
2000
0000
3001
0000
0100
0001
,
1000
0000
0020
0000
0000
0100
0130
0000
,
0002
0000
0010
0000
1000
0000
0103
0001
,
1000
0000
1010
0000
1001
0000
0010
1000
,
0010
0100
0001
0000
0010
0001
1000
0000
,
0001
0100
1000
0100
0001
0000
0010
0000
,
0001
0100
1000
0000
0010
0000
1000
0001
,
1000
0000
0011
0000
0100
1000
0010
0000
,
0100
0001
1000
0001
0010
0000
0100
1000
,
0100
0000
0110
0000
2000
0001
3001
1000
,
0100
0000
0020
0000
0000
0001
0031
0000
,
0101
0000
1000
0100
0001
0000
1000
0010
,
1000
0001
0100
0000
1010
0000
0100
0001
,
1000
0000
0001
0010
1000
0010
0002
0000
,
0203
0000
0010
0000
1300
0100
0001
0010
,
0100
1000
0002
0000
,
0100
0000
2003
0000
0000
0010
3010
0000
,
0100
0000
0001
0010
0001
0000
1000
0000
,
0010
1000
0100
0000
2100
0000
0001
0000
,
3100
0012
1000
0103
,
2010
0100
3001
1002
,
0010
1003
1100
0101
,
0000
0011
1010
0000
,
1100
0000
0000
0000
0000
0000
0000
0000
2020
0000
0000
0030
0000
0000
0000
0000
3001
0000
0000
0000
0010
0000
0001
0000
0010
0000
0100
0000
1000
0000
0010
0000
,
0100
0001
1000
0001
0100
0000
0010
1000
0010
1000
0100
0010
0001
1000
0010
0100
,
0001
0000
0000
0010
0000
0000
0001
0000
0000
0000
0000
0000
1000
0000
0000
0000
0100
0000
0000
0000
0010
0000
0000
0000
0001
0000
0000
0000
0000
0000
0000
0000
0000
0000
0000
0000
1001
0000
0000
0000
0000
0000
0000
0000
0000
0000
0000
0000
,
0110
0000
1000
0001
0000
0000
0011
0000
0010
0001
0100
0010
,
1000
0000
0010
1000
0001
1000
0100
0010
0001
0100
0000
0000
,
0001
0000
1000
0001
0010
0100
1000
0000
0010
0100
0010
1000
,
0100
0000
0000
0000
0010
0000
0000
0000
0001
0000
0000
0000
0100
0000
0000
0000
0000
0000
0000
0000
0000
0000
0000
0000
0001
0000
0000
1000
0000
0000
0001
0000
0000
1000
0000
0000
0001
0000
0000
0000
0010
0000
0000
0000
0100
0000
0000
0000
,
1000
0000
0000
0000
0000
0000
0010
0000
0000
1000
0000
0000
0100
0000
0000
0010
0000
0000
0001
0000
0000
0100
0000
0000
0001
0000
0000
0000
1000
0000
0000
0000
0010
0000
0000
0000
0100
0000
0000
0000
0000
0000
0002
0000
0000
0000
0000
0000
,
0023
0230
2300
3020
0230
0300
0101
0000
,
1100
0000
0001
1000
0000
0000
0001
0010
0001
1000
0010
1000
,
0100
0010
0100
1000
0010
0100
0001
0000
0000
0011
0000
0000
,
1000
0001
0010
0001
0100
0010
1000
0100
0010
0100
0010
0001
,
1000
0001
1000
0100
0000
0000
1000
0010
0100
0010
1000
0001
,
0100
0000
0000
0001
0010
0001
1000
0010
1000
0100
0000
0100
,
0010
0001
0010
0001
0000
1000
0001
0000
1000
0001
0100
0010
,
1000
0000
0100
1000
0002
0000
0000
0000
0203
0000
0000
0000
0310
0000
1000
0001
,
0010
0000
0000
0000
0000
0000
0001
0000
0000
1000
0000
0000
0200
0000
0000
0000
0000
0000
0000
0000
0000
0000
0000
0000
0310
0000
0000
0000
0000
0000
0000
0000
0010
0000
0000
0000
0002
0000
0000
0000
0000
0000
0000
0000
0000
0000
0000
0000
,
0000
0000
0000
0000
,
0000
0000
0000
0000
0000
0000
0000
0000
0000
0000
0000
0000
0000
0000
0000
0000
0000
0000
0000
0000
0000
0000
0000
0000
0000
0000
0000
0000
0000
0000
0000
0000
0000
0000
0000
0000
0000
0000
0000
0000
0000
0000
0000
0000
0000
0000
0000
0000
0000
0000
0000
0000
0000
0000
0000
0000
0000
0000
0000
0000
0000
0000
0000
0000
0000
0000
0000
0000
0000
0000
0000
0000
0000
0000
0000
0000
0000
0000
0000
0000
0000
0000
0000
0000
1003
0000
0000
0000
0000
0000
0000
0000
0001
0000
0000
0000
0000
0000
0000
0000
0000
0000
0000
0000
0000
0000
0000
0000
0000
0000
0000
0000
0000
0000
0000
0000
0000
0000
0000
0000
0000
0000
0000
0000
0000
0000
0000
0000
0000
0000
0000
0000
0000
0000
0000
0000
0000
0000
0000
0000
0000
0000
0000
0000
0000
0000
0000
0000
0000
0000
0000
0000
0000
0000
0000
0000
0100
0000
0000
0000
0000
0000
0000
0000
0000
0000
0000
0000
0000
0000
0000
0000
0000
0000
0000
0000
0000
0000
0000
0000
0000
0000
0000
0000
0000
0000
0000
0000
0000
0000
0010
0000
,
0000
0000
0000
0000
0000
0000
0000
0000
0000
0000
0000
0000
0000
0000
0000
0000
0000
0000
0000
0000
0000
0000
0000
0000
0000
1000
0000
0000
0000
0000
0000
0000
0000
0000
0000
0000
0000
0000
0000
0000
0000
0000
0000
0000
0000
0000
0000
0000
0000
0000
0000
0000
0100
0000
0000
0000
0000
0000
0000
0000
0000
0000
0000
0000
0000
0000
0000
0000
0010
0000
0000
0000
0000
0000
0000
0000
0000
0000
0000
0000
0000
0000
0000
0000
0001
0000
0000
0000
0000
0000
0000
0000
0000
0000
0000
0000
0000
0000
0000
0000
1000
0000
0000
0000
0000
0000
0000
0000
0000
0000
0000
0000
0000
0000
0000
0000
0010
0000
0000
0000
0000
0000
0000
0000
0000
0000
0000
0000
0000
0000
0000
0000
0100
0000
0000
0000
0000
0000
0000
0000
0000
0000
0000
0000
0000
0000
0001
0000
0000
0000
0000
0000
0000
0000
0000
0000
0000
0000
0000
0000
1000
0000
0000
0000
0000
0000
0000
0000
0000
0000
0000
0000
0000
0000
0000
0000
0000
0000
0000
0000
0100
0000
0000
0000
0000
0000
0000
0000
0000
0000
0000
0000
,
0000
0000
0000
0000
0000
0000
0010
0000
0000
0000
0000
0000
0000
0000
0000
0000
0000
0000
0000
0000
0000
0000
0000
0000
0000
0001
0000
0000
0000
0000
0000
0000
0000
0000
0000
0000
0000
0000
0000
0000
0000
0000
1000
0000
0000
0000
0000
0000
0000
0000
0000
0000
0000
0000
0000
0000
0000
0000
0000
0000
0001
0000
0000
0000
0000
0000
0000
0000
0000
0000
0000
0000
0000
0000
0000
0000
0000
0000
0000
0000
0100
0000
0000
0000
0000
0000
0000
0000
0000
0000
0000
0000
0000
0000
0000
0000
0010
0000
0000
0000
0000
0000
0000
0000
0000
0000
0000
0000
0000
0000
0000
0000
1000
0000
0000
0000
0000
0000
0000
0000
0000
0000
0000
0000
0000
0000
0000
0000
0001
0000
0000
0000
0000
0000
0000
0000
0000
0000
0000
0000
0000
0000
0000
0000
1000
0000
0000
0000
0000
0000
0000
0000
0000
0000
0000
0000
0000
0000
0000
0000
0000
0000
0000
0000
0000
0000
0000
0000
0100
0000
0000
0000
0000
0000
0000
0000
0000
0000
0000
0000
0000
0000
0000
0000
1000
0000
0000
0000
0000
0000
0000
0000
,
0010
1000
0010
1000
0010
1000
0010
1000
0010
1000
0200
0000
0000
0000
0000
0000
,
0000
0000
0000
0000
,
0000
0000
0000
0000
,
0300
0000
0000
0000
,
0020
0000
0000
0031
0010
1000
0001
0100
1000
0001
0010
1000
,
0001
0100
1000
0001
1000
0001
0100
0000
0000
0010
1000
0010
,
0100
0000
0001
1010
0000
0000
0100
1000
0001
0010
0001
0100
,
0001
0000
0000
0010
0001
1000
0100
0000
1000
0011
0000
0000
,
0100
0001
0010
0001
0100
0010
0101
0000
0000
1000
0100
0010
,
0100
1000
0100
0010
0001
0100
1001
0000
0000
0110
0000
0000
,
2002
0000
0000
0000
0000
0000
0000
0000
0000
0000
0000
0000
0000
0000
0000
0000
0000
0000
0000
0000
0000
0000
0000
0000
3000
0000
0000
0000
0000
0000
0000
0000
0000
0103
0000
0000
0002
0000
0000
0000
2000
0000
0000
0000
0000
0000
0000
0000
,
0000
0000
0000
0000
,
0000
0000
0000
0000
,
0000
0000
0000
0000
,
0000
0000
0000
0000
,
0000
0000
3003
0000
;

//---------------dance-single - ----------------
#NOTEDATA:;
#CHARTNAME:;
#STEPSTYPE:dance-single;
#DESCRIPTION:;
#CHARTSTYLE:;
#DIFFICULTY:Hard;
#METER:15;
#RADARVALUES:0.547996,0.743316,0.214815,0.329894,0.667459,1000.000000,944.000000,56.000000,86.000000,0.000000,0.000000,0.000000,0.000000,0.000000,0.547996,0.743316,0.214815,0.329894,0.667459,1000.000000,944.000000,56.000000,86.000000,0.000000,0.000000,0.000000,0.000000,0.000000;
#CREDIT:;
#DISPLAYBPM:65.000000:195.000000;
#NOTES:
0000
0000
0000
0000
,
0000
0000
0000
0000
,
0000
0000
0000
0000
,
0000
0000
0000
0000
,
0000
0000
0000
0000
,
0000
0000
0000
0000
,
0000
0000
0000
0000
,
0000
0000
0000
0000
,
0000
0000
0000
0000
,
0000
0000
0000
0000
0000
0000
0000
0000
0000
0000
0000
0000
0000
0000
0000
0000
0000
0000
0000
0000
0000
0000
0000
0000
0000
0000
0000
0000
0000
0000
0000
0000
0000
0000
0000
0000
0000
0000
0000
0000
0000
0000
0000
0000
0000
0000
0000
0000
2000
0000
0000
0000
0000
0000
0000
0000
0000
0000
0000
0000
0000
0000
0000
0000
0000
0000
0000
0000
0000
0000
0000
0000
0000
0000
0000
0000
0000
0000
0000
0000
0000
0000
0000
0000
0000
0000
0000
0000
0000
0000
0000
0000
0000
0000
0000
0000
0000
0000
0000
0000
0000
0000
0000
0000
0000
0000
0000
0000
0000
0000
0000
0000
0000
0000
0000
0000
0000
0000
0000
0000
0000
0000
0000
0000
0000
0000
0000
0000
0000
0000
0000
0000
0000
0000
0002
0000
0000
0000
0000
0000
0000
0000
0000
0000
0000
0000
0000
0000
0000
0000
0000
0000
0000
0000
0000
0000
0000
0000
0000
0000
0000
0000
0000
0000
0000
0000
0000
0000
0000
0000
0000
0000
0000
0000
0000
0000
0000
0000
0000
0000
0000
0000
0000
0000
0000
0000
0000
0000
0000
0000
0000
0000
,
3000
0023
0230
2300
,
0000
0000
3010
1000
,
0001
0200
0000
0310
,
0002
0000
0000
2003
0000
0000
3200
0000
,
0000
0320
0000
0000
0032
0000
0000
0203
,
0000
0000
0000
0000
0000
0000
0000
0000
0000
0000
0000
0000
0000
0000
0000
0000
0320
0000
0000
0000
0000
0000
0000
0000
0000
0000
0000
0000
0000
0000
0000
0000
0000
0000
0000
0000
0000
0000
0000
0000
2030
0000
0000
0000
0000
0000
0000
0000
0000
0000
0000
0000
0000
0000
0000
0000
0000
0000
0000
0000
0000
0000
0000
3200
,
0000
0000
0000
0320
0000
0000
0032
0000
,
0000
0203
0000
0000
0302
0000
0000
2003
,
0000
0000
3010
0000
0000
0010
0000
0000
,
1000
0000
0000
0001
0000
0000
0100
0000
,
0000
0010
0000
0000
2000
0000
3002
0000
,
2003
3020
0100
1000
,
0130
0002
2003
3002
,
0010
1000
0013
0200
,
0320
2030
3200
0320
,
0032
0203
0320
2030
,
0000
0000
0000
3002
,
0000
0000
0203
0320
,
0230
0320
2030
3002
,
0023
0000
0000
0000
,
0000
0000
0000
0030
,
0001
0100
0010
1000
0001
0010
0100
1000
,
0010
0100
0001
1000
1100
0000
0000
0000
,
0010
1000
0001
0100
0001
1000
0100
0010
,
0100
1000
0001
0010
0011
0000
0110
0000
,
1001
0000
0000
0010
1000
0001
0100
0000
0000
0001
0010
0100
,
1000
0000
0000
1010
0000
0000
0001
0000
0001
1000
0010
1000
,
0100
0000
0000
0100
0010
0001
1000
0000
0000
0011
0000
0000
,
0100
0010
1000
0001
0000
0010
0100
0000
0100
1000
0010
1000
,
0001
0000
0100
0010
0100
0010
1000
0000
0001
1000
0000
1000
,
0100
0000
0000
1000
0010
0100
0001
0000
0010
0001
0000
0000
,
0100
0010
1000
0010
0000
0000
0101
0000
0000
0010
0100
0001
,
1000
0000
0000
1100
0000
0000
0010
0000
0001
0010
0100
0010
,
0001
0000
0000
1000
0100
1000
0001
0000
0000
0101
0000
0000
,
1000
0000
1000
0100
0000
0100
0010
0000
0010
0001
1000
0001
,
0100
0000
0000
1001
0000
0000
0110
0000
0000
1000
0001
1000
,
0010
0000
0000
0101
0000
0000
0010
0100
0001
0100
0000
0000
,
1010
0000
0000
0001
1000
0001
0010
0000
0010
0100
1000
0001
,
0100
0000
0000
0000
0001
0000
0000
0000
1000
0000
0000
0000
0100
0000
0000
0000
0000
0000
0000
0000
0000
0000
0000
0000
2002
0000
0000
0000
0000
0000
0000
0000
0000
0000
0000
0000
0003
0000
0000
0000
0000
0000
3001
0000
0000
0100
0000
0000
,
0002
0003
0011
1100
,
0010
1000
0010
0100
0001
1000
0100
0000
0000
0010
0001
0010
,
0001
0010
0001
0100
0000
0000
0010
1000
0010
1000
0010
0000
,
0100
0001
0000
0001
1000
0000
0010
1000
0001
0100
0000
0000
,
0010
1000
0001
1000
0100
0000
0010
0001
0010
0001
0100
0001
,
1000
0001
1000
0200
0000
0000
0000
0000
0000
1300
0001
1000
,
0020
0030
0110
1001
,
0001
0010
0100
1000
0000
0000
0010
1000
0001
0010
0001
1000
,
0010
0100
0010
2000
0000
0000
0001
0000
0000
3001
1000
0001
,
0200
0000
0000
0010
0000
0000
0310
0000
0000
0100
0001
0100
,
0001
0100
0001
1000
0100
0010
0001
1000
0001
1000
0100
0010
,
0001
0010
0100
2000
0000
0000
3001
0000
0000
1000
0001
0010
,
0100
0000
0000
0010
0001
1000
0010
0000
0000
1010
0000
0000
,
0100
0000
0100
0010
0100
0001
1000
0000
0000
0001
0010
0001
,
0100
0000
0000
0011
0000
0000
0100
0000
0100
1000
0010
1000
,
0001
0000
0000
1000
0010
1000
0001
0010
0100
1000
0000
0001
,
1000
0000
0001
0100
0000
0100
0010
0000
0010
1000
0000
0100
,
0010
0100
0010
0001
0000
0000
0010
0001
0010
0100
1000
0100
,
1000
0000
0000
0010
1000
0001
0100
0000
0000
0110
0000
1000
,
0010
0000
1000
0010
0000
0100
0001
0000
0010
0001
0010
0100
,
1000
0000
0000
1100
0000
0000
0010
0000
1000
0010
0000
0100
,
0001
0000
0010
0001
1000
0010
0100
0000
0000
0101
0000
0000
,
1100
0000
0000
0010
0100
0001
1000
0000
0000
0011
0000
0000
,
0100
0010
0100
1000
0000
0000
1001
0000
0000
0001
0010
0001
,
0100
0000
0100
0010
0000
0010
1000
0100
1000
0001
0000
0000
,
0012
0000
0000
1003
0000
0001
0100
0000
0000
1020
0000
0000
,
0130
0000
0001
1000
0000
0000
1200
0000
0000
0310
0000
0010
,
0001
0000
0000
0201
0000
0000
0310
1000
0001
0100
0000
0000
,
0001
0000
0001
1000
0000
1000
0100
0000
0010
0001
0000
0010
,
0001
0000
1000
0100
0000
1000
0010
0000
0100
0010
0000
0100
,
0010
0000
0100
0001
0000
0100
0001
0010
0001
1000
0000
0000
,
0001
0000
0100
0010
0000
0100
0001
0000
0010
0001
0000
0001
,
1000
0001
0100
0010
0000
0010
1000
0000
1000
0001
0000
0010
,
0001
0000
0100
0001
0000
0100
0010
1000
0001
0100
0000
0000
,
0001
0010
0001
0010
0100
1000
0001
0000
0000
0100
0000
0100
,
0010
0000
0010
1000
0000
0000
0001
1000
0001
0010
0001
1000
,
0100
0000
0100
1000
0000
1000
0001
0000
0010
0100
0000
0000
,
1000
0010
1000
0010
0000
0100
0001
0000
0000
0010
0001
0010
,
0100
0000
0100
1000
0000
0000
0001
0100
0001
0100
0010
1000
,
0001
0000
0010
0001
0010
0001
0100
0000
0010
1000
0000
0000
,
0100
1000
0100
0010
0000
0010
0001
0000
0001
0100
0001
1000
,
0100
0000
0000
0010
0000
0000
0001
0000
0100
0001
0000
1000
,
0001
0000
0000
0010
0001
1000
0010
0100
0001
1000
0000
0000
,
0010
0100
0010
0100
0000
0001
1000
0000
0100
0010
0000
0010
,
0001
1000
0001
0100
0000
0000
0010
0000
1000
0010
0000
0100
,
0001
0000
0000
0010
0001
1000
0001
0010
0100
1000
0000
0000
,
0100
0000
1000
0010
0000
0100
0001
0000
0010
0001
0000
1000
,
0001
0000
0100
0010
0000
0010
1000
0000
1000
0001
0000
0001
,
0010
0000
0010
0100
1000
0001
1000
0001
0010
0100
0000
0000
,
1000
0010
1000
0010
0000
0100
0001
0000
0010
0001
0000
1000
,
0100
0000
0000
0110
0000
0000
0001
0010
0100
1000
0100
0010
,
0001
0000
1000
0001
0000
1000
0100
0000
0000
0011
0000
0000
,
1000
0001
1000
0010
0100
0001
2000
0000
0000
3020
0000
0000
,
0230
0000
0000
0301
0000
0010
0002
0000
0000
1003
0000
0000
,
0101
0000
0000
0010
0000
1000
0100
0000
0000
2002
0000
0000
,
0000
0000
0000
0000
,
0000
0000
0000
0000
,
0000
3000
0000
0000
0103
0000
0000
0000
0010
0000
0000
0000
0000
0000
1000
0000
,
0001
0000
0010
0000
0000
0001
0100
0000
,
0010
0000
1000
0100
,
0000
0010
0001
0000
0010
0000
0001
1000
,
0001
0000
0100
0000
0000
0010
0100
0000
,
0001
0000
0010
0010
,
0000
0000
0100
0000
1000
0000
0001
0100
,
0001
0000
0010
0000
0000
0010
0100
0000
,
0010
0001
0100
1000
,
0000
0001
1000
0000
0010
1000
0010
1000
,
0100
0000
0010
0000
0000
0001
0010
0000
,
0100
0000
0000
1000
0001
0000
1000
0010
,
0100
0101
2100
0001
,
0100
0000
3002
0000
0000
1003
0010
0000
,
0200
0010
1000
0320
,
0000
1030
0001
0000
0020
0000
0001
0000
,
1000
0000
0032
0000
0103
0010
0100
0000
,
0002
0010
1003
0200
,
0010
0301
0011
0000
,
0100
0000
1100
0000
0000
0001
1000
0000
,
1010
0010
0100
0101
,
0000
0010
0100
0000
0002
0000
0010
0000
,
0103
2000
0010
3100
,
0020
0001
1030
0002
,
0100
0013
0110
1100
,
0000
0011
0101
0000
,
1010
0000
1001
0000
0001
0010
0001
0100
,
0010
1000
0010
1000
0010
0000
0100
0000
0001
0000
0010
0000
0001
1000
0001
1000
,
0001
0000
0000
0100
0000
0000
0010
0000
1000
0000
0001
0000
1000
0000
0000
0000
0000
0000
0101
0000
0000
0000
0000
0000
,
1100
0000
0000
0101
0000
0000
0010
0000
0010
1000
0100
1000
,
0001
0000
0001
0010
0000
0001
1000
0001
1000
0100
0000
0000
,
1000
0000
0010
1000
0100
0010
0001
0000
0001
0100
0010
0100
,
0010
0000
0000
0000
1000
0000
0000
0000
0001
0000
0000
0000
0100
0000
0000
0000
0000
0000
0000
0000
0000
0000
0000
0000
0001
0000
0000
0010
0000
0000
0001
0000
0000
0010
0000
0000
0001
0000
0000
0000
0000
0000
0100
0000
0000
0000
0000
0000
,
0010
0000
1000
0000
0010
0000
1000
0000
0100
0000
1000
0000
0001
0000
0100
0000
0010
0000
1000
0000
0000
0200
0000
0000
,
0320
0032
2003
3002
0203
0300
1010
0000
,
0011
0000
0000
1010
0000
0000
0001
1000
0001
1000
0010
1000
,
0001
0000
0010
0001
0000
0010
0100
0000
1000
0010
0000
0000
,
0100
0001
0100
0010
1000
0001
0010
0000
0010
0001
1000
0001
,
0100
0010
1000
0010
0000
0000
0100
0000
0001
1000
0001
0010
,
0100
0000
0000
1000
0000
0010
1000
0010
0100
0001
0000
0000
,
0010
0001
1000
0001
0000
0100
0010
1000
0010
1000
0001
1000
,
0100
0000
0000
0000
0010
0000
0000
0000
0001
0000
0000
0000
0100
0000
0000
0000
0000
0000
0000
0000
0000
0000
0000
0000
0001
0000
0000
0000
0000
0000
0010
0000
0000
0000
0000
0000
0100
0000
0000
0000
0000
0000
1000
0000
0000
0001
0000
0000
,
0100
0000
0000
0000
0000
0000
0001
0000
0000
0010
0000
0000
0001
0000
0000
0000
0000
0000
1000
0000
0000
0100
0000
0000
1000
0000
0000
0000
0000
0000
0000
0000
0010
0000
0000
0000
0200
0000
0000
0000
0000
0000
0000
0000
0000
0000
0000
0000
,
0000
0000
0000
0000
,
0000
0000
0000
0000
0301
0000
0000
0010
,
0100
0000
1000
0001
0010
0001
0100
0010
,
1000
0001
1000
0100
0010
0001
0100
0001
,
0010
1000
0010
0001
1000
0200
0000
0000
,
0000
0000
0000
0000
,
0000
0000
0000
0000
,
0300
0000
0000
0000
,
1001
0000
0000
0001
0010
0001
0010
0001
0010
0100
1000
0100
,
1000
0010
0100
0010
1000
0001
0100
0000
0000
0001
0000
0001
,
1000
0000
1000
0100
0000
0000
0010
0000
0001
1000
0001
0100
,
0010
0000
0000
1000
0000
0001
1000
0000
1000
0100
0000
0000
,
0010
0000
0001
0000
1000
0000
0010
0000
0100
0000
0001
0000
1000
0000
0000
0000
0000
0000
0100
0000
0000
0010
0000
0000
,
0001
0100
1000
0000
1100
0000
0110
0000
,
0022
0000
0000
0000
0000
0000
0000
0000
0000
0000
0000
0000
0000
0000
0000
0000
0000
0000
0000
0000
0000
0000
0000
0000
0030
0000
0000
0000
0000
0000
0000
0000
0000
0013
0000
0000
0002
0000
0000
0000
2000
0000
0000
0000
0000
0000
0000
0000
,
0000
0000
0000
0000
,
0000
0000
0000
0000
,
0000
0000
0000
0000
,
0000
0000
0000
0000
,
0000
0000
3003
0000
;

//---------------dance-single - ----------------
#NOTEDATA:;
#CHARTNAME:;
#STEPSTYPE:dance-single;
#DESCRIPTION:;
#CHARTSTYLE:;
#DIFFICULTY:Medium;
#METER:12;
#RADARVALUES:0.430177,0.581725,0.245502,0.291534,0.345238,785.000000,721.000000,64.000000,76.000000,0.000000,0.000000,0.000000,0.000000,0.000000,0.430177,0.581725,0.245502,0.291534,0.345238,785.000000,721.000000,64.000000,76.000000,0.000000,0.000000,0.000000,0.000000,0.000000;
#CREDIT:;
#DISPLAYBPM:65.000000:195.000000;
#NOTES:
0000
0000
0000
0000
,
0000
0000
0000
0000
,
0000
0000
0000
0000
,
0000
0000
0000
0000
,
0000
0000
0000
0000
,
0000
0000
0000
0000
,
0000
0000
0000
0000
,
0000
0000
0000
0000
,
0000
0000
0000
0000
,
0000
0000
0000
0000
0000
0000
0000
0000
0000
0000
0000
0000
0000
0000
0000
0000
0000
0000
0000
0000
0000
0000
0000
0000
0000
0000
0000
0000
0000
0000
0000
0000
0000
0000
0000
0000
0000
0000
0000
0000
0000
0000
0000
0000
0000
0000
0000
0000
1000
0000
0000
0000
0000
0000
0000
0000
0000
0000
0000
0000
0000
0000
0000
0000
0000
0000
0000
0000
0000
0000
0000
0000
0000
0000
0000
0000
0000
0000
0000
0000
0000
0000
0000
0000
0000
0000
0000
0000
0000
0000
0000
0000
0000
0000
0000
0000
0000
0000
0000
0000
0000
0000
0000
0000
0000
0000
0000
0000
0000
0000
0000
0000
0000
0000
0000
0000
0000
0000
0000
0000
0000
0000
0000
0000
0000
0000
0000
0000
0000
0000
0000
0000
0000
0000
0002
0000
0000
0000
0000
0000
0000
0000
0000
0000
0000
0000
0000
0000
0000
0000
0000
0000
0000
0000
0000
0000
0000
0000
0000
0000
0000
0000
0000
0000
0000
0000
0000
0000
0000
0000
0000
0000
0000
0000
0000
0000
0000
0000
0000
0000
0000
0000
0000
0000
0000
0000
0000
0000
0000
0000
0000
0000
,
0000
0013
0100
2000
,
0000
0000
3010
0100
,
0010
0200
0000
0001
,
0302
0000
0000
0010
0000
0000
1000
0000
,
0000
0010
0000
0000
0100
0000
0000
0100
,
0000
0000
0000
0000
0000
0000
0000
0000
0000
0000
0000
0000
0000
0000
0000
0000
0010
0000
0000
0000
0000
0000
0000
0000
0000
0000
0000
0000
0000
0000
0000
0000
0000
0000
0000
0000
0000
0000
0000
0000
0010
0000
0000
0000
0000
0000
0000
0000
0000
0000
0000
0000
0000
0000
0000
0000
0000
0000
0000
0000
0000
0000
0000
1003
,
0000
0000
0000
0001
0000
0000
0100
0000
,
0000
0010
0000
0000
1000
0000
0000
1000
,
0000
0000
0002
0000
0000
0010
0000
0000
,
0100
0000
0000
0013
0000
0000
2000
0000
,
0000
3001
0000
0000
0100
0000
0001
0000
,
1000
0200
0000
0000
,
0000
1300
1000
0002
,
0000
0000
0000
0103
,
0001
0010
0001
1000
,
0001
0010
0100
2000
,
0000
0000
0000
3002
,
0000
0000
0203
0010
,
1000
0010
0001
1000
,
0302
0000
0000
0000
,
0000
0000
0000
0003
,
0001
0100
1000
0000
0010
1000
0100
0000
,
0010
0001
1000
0000
1100
0000
0000
0000
,
0010
1000
0001
0000
0100
0010
0100
0000
,
0001
1000
0001
0000
0011
0000
0100
0000
,
0010
0000
0000
1000
0000
0001
1000
0000
0000
0100
0000
0100
,
0010
0000
0000
1001
0000
0000
0010
0000
0010
1000
0000
1000
,
0001
0100
0010
1010
,
0001
0000
0001
1000
0000
1000
0010
0000
0000
0100
0000
0000
,
0001
0000
1000
0100
0000
0000
0010
0000
0001
0010
0000
0001
,
0100
0000
0000
0010
0000
0000
1000
0001
1000
0001
0000
0000
,
0100
0000
0100
0010
0000
0100
0001
0000
0000
1000
0000
1000
,
0010
0000
0000
0101
0000
0000
0010
0000
1000
0001
0000
1000
,
0001
0000
0000
0010
0100
0010
0100
0000
0000
0110
0000
0000
,
0001
0000
0000
1000
0000
0010
0100
0000
0000
0001
0010
0001
,
0010
1001
1010
0100
,
0101
1100
0001
0011
,
0110
0000
0000
1000
0000
0000
0001
0000
0001
1000
0000
1000
,
0010
0100
0010
0100
0000
0000
2002
0000
0000
0003
0000
0000
,
0002
3003
0011
2100
,
3001
0000
0000
1000
0100
1000
0100
0000
0000
1010
0000
0000
,
0101
0000
0000
0011
0000
0000
1000
0001
1000
0001
0000
0000
,
0010
0000
0001
0010
0000
0100
1000
0000
0000
1100
0000
0000
,
0001
0100
0001
0100
0000
0010
1000
0000
0000
0001
0000
1000
,
0001
0000
0010
0200
0000
0000
0000
0000
0000
1300
0010
0100
,
0002
0000
0013
0110
,
1000
0000
0010
1000
0000
0010
0100
0000
0001
0000
1000
0000
,
0001
0000
0010
0200
0000
0000
0000
0000
0000
1300
0010
0100
,
0002
0000
0003
0020
,
0032
0000
0000
2003
0000
0000
3020
0000
0000
0130
0000
0010
,
1000
0010
1000
0001
0000
0000
0010
0000
0000
0001
0000
1000
,
0100
0000
0000
0010
0000
0010
0001
0000
0000
0101
0000
0000
,
0100
0000
0100
0010
0000
0010
1000
0000
0000
0001
0000
0001
,
0100
0000
0000
1010
0000
0000
0100
0000
0010
0100
0000
0001
,
0100
0000
0000
0001
0000
0000
0010
0001
0010
0001
0000
0000
,
0100
0000
0010
1000
0000
1000
0100
0000
0000
1000
0000
0000
,
0001
1000
0001
0010
0000
0000
0100
0000
0010
0100
0000
0100
,
1000
0000
0000
0001
1000
0001
0100
0000
0000
0101
0000
0000
,
0001
0000
0001
0010
0000
0010
0100
0000
0100
1000
0000
1000
,
0001
0000
0000
2100
0000
0000
3002
0000
0000
0103
0000
0100
,
0010
0000
0000
1000
0010
1000
0010
0000
0000
0101
0000
0000
,
0011
0100
0110
1100
,
0001
0011
1001
0010
,
1000
0000
1000
0100
0000
0100
0010
0001
0010
0001
0000
0000
,
0201
0310
1000
1200
,
0310
0100
0120
0031
,
0101
0000
0000
0001
0000
0001
1000
0000
1000
0002
0000
0000
,
0100
0000
0000
1003
0000
0001
1000
0000
0000
0010
0000
0010
,
0100
0000
0100
0001
0000
0000
0010
0000
0001
0010
0000
0000
,
0100
0000
0000
1000
0000
0001
1000
0000
0000
1010
0000
0000
,
0100
0000
0001
0100
0000
0001
1000
0000
0000
0100
0000
0100
,
0010
0000
0000
0001
0000
0001
1000
0000
1000
0001
0000
0010
,
0100
0000
0000
1100
0000
0000
1000
0001
1000
0001
0000
0000
,
0100
0000
0100
0001
0000
0001
1000
0000
0000
0001
0000
0010
,
0100
0000
1000
0001
0000
0000
0010
0000
0001
1000
0000
1000
,
0001
0000
0001
0010
0000
0010
0100
0000
1000
0100
0000
0000
,
0010
0000
0000
0001
1000
0001
1000
0000
0000
0010
0000
1000
,
0010
0000
0100
0001
0000
0000
0010
0000
0010
0001
0000
1000
,
0100
0000
0000
1000
0001
1000
0020
0000
0000
0230
0000
0000
,
0302
0000
0000
2003
0000
0000
3001
0000
0010
0001
0000
1000
,
0100
0000
0000
0010
0000
0000
0001
0000
0001
0100
0000
0010
,
1000
0000
0010
1000
0000
0100
2000
0000
0000
3002
0000
0000
,
0013
0000
0001
0100
0000
0010
0100
0000
0100
0001
0000
0001
,
0010
0000
0100
1000
0000
0000
0001
0100
0001
0100
0000
0010
,
0100
0000
0000
0001
1000
0001
1000
0000
0000
0010
0000
0000
,
0100
0000
0010
0100
0000
0100
0001
0000
0000
0010
0000
0001
,
1000
0000
0000
0001
0000
0100
0001
0000
0100
0010
0000
0000
,
1000
0000
0000
0100
0000
0000
0010
0001
0010
0002
0000
0000
,
0100
0000
0000
1003
0001
1000
0100
0000
0100
0010
0000
0010
,
0001
0000
0000
0200
0000
0000
0301
0000
0100
0001
0000
0100
,
0010
0000
0010
1000
0000
1000
0001
0000
0000
0020
0000
0000
,
0130
0000
0100
1000
0000
0000
0002
0000
0000
2003
0000
0000
,
3020
0000
0000
0130
0000
0001
2000
0000
0000
0010
0000
0000
,
0100
3002
0023
0230
,
0000
0000
0000
0000
,
0000
0000
0000
0000
,
0000
1300
0001
0000
,
0010
0000
0001
0000
0000
0001
0100
0000
,
0010
0000
1000
0100
,
0000
1000
0001
0000
1000
0000
0000
0000
,
0010
0000
0100
0000
0000
0010
0100
0000
,
0010
0000
1000
0100
,
0000
0010
0001
0000
,
0100
0000
0001
0000
0000
1000
0001
0000
,
0010
0000
0001
0100
,
0000
1000
0001
0000
0010
0000
0000
0000
,
0001
0000
0001
0000
0000
0100
0001
0000
,
1000
0000
0000
0010
1000
0000
0100
0000
,
0000
0110
2002
0003
,
3010
0000
1010
0000
0000
0001
1000
0000
,
0200
0000
0310
0002
,
0000
1003
0001
0000
0010
0000
0000
0000
,
0001
0000
0100
0000
0000
0010
0100
0000
,
0202
0300
0010
1003
,
0000
0100
0200
0300
,
0010
0000
0002
0000
0003
1000
0001
0000
,
0200
0000
0010
0310
,
0000
1000
0020
0000
1030
0000
0001
0000
,
0100
0010
0100
0001
,
0010
0100
1000
0001
,
0100
0010
1000
1100
,
0000
0010
0101
0000
,
0011
0000
1100
0000
0001
0010
0001
0100
,
0010
1000
0010
0100
0001
1000
0001
0010
,
0100
0000
0000
1000
0001
1000
0001
0000
0000
1001
0000
0000
,
0110
0000
0000
1001
0000
0000
0010
0000
1000
0010
0000
0000
,
0101
0000
0000
0001
0000
0001
0010
0100
0010
0100
0000
0000
,
1000
0000
0000
0010
0100
0010
0100
0000
0000
0001
0000
0001
,
1000
0000
0000
0000
1000
0000
0100
0000
0000
0000
0000
0000
0010
0000
0000
0001
0000
0000
0010
0000
0000
0100
0000
0000
,
1000
0010
1000
0001
1000
0100
0010
0000
,
0001
1000
0001
0100
0010
0000
1010
0000
,
0011
0000
0000
1010
0000
0000
0100
0000
0100
0001
0000
0001
,
0010
0000
0010
0100
0000
0100
1000
0000
0000
1001
0000
0000
,
0010
0000
1000
0010
0000
1000
0100
0000
0100
0010
0000
0010
,
0001
0000
0000
0011
0000
0000
0100
0000
0100
1000
0000
0000
,
1100
0000
0000
0001
0000
1000
0001
0000
0100
0010
0000
0000
,
1000
0100
1000
0100
0000
1000
0002
0000
0000
0023
0000
0000
,
0031
0100
0010
2000
0000
0000
3200
0000
0000
0320
0000
0000
,
0032
2003
3002
0203
,
0000
0000
0000
0000
,
0000
0000
0302
0000
,
0000
0000
0000
0023
0000
0000
0000
0000
,
0230
0000
2300
0000
,
3001
0000
0000
1000
0001
0200
0000
0000
,
0000
0000
0000
0000
,
0000
0000
0000
0000
,
0300
0000
0000
0000
,
0010
0000
0000
1000
0100
1000
0100
0000
0000
0010
0000
0000
,
0001
0100
0001
0100
0000
0000
0110
0000
0000
1010
0000
0000
,
0101
0000
0000
0011
0000
0000
0100
0000
0100
1000
0000
1000
,
0001
1001
1010
1100
,
0010
0001
0010
0001
0010
0001
0010
0000
0000
0200
0000
0000
,
2300
3001
1001
0110
,
2002
0000
0000
0000
0000
0000
0003
0000
0000
3002
2000
0000
,
0000
0000
0000
0000
,
0000
0000
0000
0000
,
0000
0000
0000
0000
,
0000
0000
0000
0000
,
0000
0000
3003
0000
;

//---------------dance-single - ----------------
#NOTEDATA:;
#CHARTNAME:;
#STEPSTYPE:dance-single;
#DESCRIPTION:;
#CHARTSTYLE:;
#DIFFICULTY:Easy;
#METER:7;
#RADARVALUES:0.293726,0.484771,0.299206,0.245502,0.003836,536.000000,458.000000,78.000000,64.000000,0.000000,0.000000,0.000000,0.000000,0.000000,0.293726,0.484771,0.299206,0.245502,0.003836,536.000000,458.000000,78.000000,64.000000,0.000000,0.000000,0.000000,0.000000,0.000000;
#CREDIT:;
#DISPLAYBPM:65.000000:195.000000;
#NOTES:
0000
0000
0000
0000
,
0000
0000
0000
0000
,
0000
0000
0000
0000
,
0000
0000
0000
0000
,
0000
0000
0000
0000
,
0000
0000
0000
0000
,
0000
0000
0000
0000
,
0000
0000
0000
0000
,
0000
0000
0000
0000
,
0000
0000
0000
0000
0000
0000
0000
0000
0000
0000
0000
0000
0000
0000
0000
0000
0000
0000
0000
0000
0000
0000
0000
0000
0000
0000
0000
0000
0000
0000
0000
0000
0000
0000
0000
0000
0000
0000
0000
0000
0000
0000
0000
0000
0000
0000
0000
0000
1000
0000
0000
0000
0000
0000
0000
0000
0000
0000
0000
0000
0000
0000
0000
0000
0000
0000
0000
0000
0000
0000
0000
0000
0000
0000
0000
0000
0000
0000
0000
0000
0000
0000
0000
0000
0000
0000
0000
0000
0000
0000
0000
0000
0000
0000
0000
0000
0000
0000
0000
0000
0000
0000
0000
0000
0000
0000
0000
0000
0000
0000
0000
0000
0000
0000
0000
0000
0000
0000
0000
0000
0000
0000
0000
0000
0000
0000
0000
0000
0000
0000
0000
0000
0000
0000
0001
0000
0000
0000
0000
0000
0000
0000
0000
0000
0000
0000
0000
0000
0000
0000
0000
0000
0000
0000
0000
0000
0000
0000
0000
0000
0000
0000
0000
0000
0000
0000
0000
0000
0000
0000
0000
0000
0000
0000
0000
0000
0000
0000
0000
0000
0000
0000
0000
0000
0000
0000
0000
0000
0000
0000
0000
0000
,
0000
0010
0100
1000
,
0000
0000
0001
1000
,
0001
0100
0000
0000
,
0010
0000
0000
1000
,
0000
0000
0100
0000
,
0000
0000
0000
0000
0000
0000
0000
0000
0000
0000
0000
0000
0000
0000
0000
0000
0010
0000
0000
0000
0000
0000
0000
0000
0000
0000
0000
0000
0000
0000
0000
0000
0000
0000
0000
0000
0000
0000
0000
0000
0000
0000
0000
0000
0000
0000
0000
0000
0000
0000
0000
0000
0000
0000
0000
0000
0000
0000
0000
0000
0000
0000
0000
0001
,
0000
0000
0000
1000
,
0000
0000
0010
0000
,
0000
0100
0000
0000
,
0001
0000
0000
0010
,
0000
0000
0100
1000
,
0010
2000
0000
0000
,
3000
0010
0100
0020
,
0000
0000
0030
1000
,
0001
0100
0000
0000
,
0010
1000
0010
0200
,
0000
0000
0000
0302
,
0000
0000
2003
0000
,
0000
0000
0000
0000
,
3002
0000
0000
0000
,
0000
0000
0000
0003
,
0011
0001
0101
0100
,
1010
1000
1100
0000
,
0101
1000
1100
0010
,
1010
0001
0011
0100
,
0001
0010
0001
0100
,
1000
0010
1000
0001
,
1000
0100
0010
0001
,
0010
0001
0100
1000
,
0010
1000
0010
1000
,
0100
0010
0001
0100
,
0001
1000
0010
1000
,
0100
0001
0010
0100
,
0010
0001
1000
0010
,
1000
0001
0010
1000
,
0100
1100
0011
0000
,
0101
1010
0000
1001
,
0110
0000
0010
1000
,
0100
0001
2002
0003
,
0002
3003
0011
1100
,
0010
1000
0100
0110
,
1001
0110
1000
0001
,
0010
0001
0101
1010
,
0100
1000
0001
0011
,
0110
2200
0300
0001
,
0002
3003
0101
1100
,
0010
1000
0100
1001
,
0101
0022
0030
2003
,
0002
0000
3000
0013
,
0001
1000
0001
0100
,
0010
1000
0100
1000
,
0010
0001
1000
0001
,
0010
0001
0100
0010
,
1000
0100
0010
0100
,
1000
0010
1000
0001
,
0010
0001
0100
0001
,
1000
0100
0010
0001
,
1000
0001
1000
0100
,
0001
0010
0001
0100
,
1000
0010
0100
1000
,
0010
0001
1000
1100
,
0101
0000
1010
0011
,
0000
0110
1001
0000
,
0010
0100
0001
1000
,
0020
0130
0001
2000
,
3100
0010
0200
0310
,
0002
2003
3002
0203
,
0010
0310
2000
0010
,
3010
2000
0001
3001
,
0020
0001
0031
0100
,
0010
1000
0100
0010
,
0001
1000
0010
1000
,
0001
0010
0101
1001
,
0010
1000
0001
0010
,
0011
0110
0100
1000
,
0001
1000
0100
0010
,
0000
0000
0001
0000
,
0000
0100
0000
0000
,
1000
0000
1001
0110
,
1000
0010
1000
0100
,
0001
0010
0001
0100
,
0001
0010
1000
0100
,
0010
0100
1000
0010
,
1000
0001
0010
0100
,
1000
0010
1001
1100
,
0001
0001
1000
0001
,
0100
0001
0010
1000
,
0010
1000
0100
0110
,
0001
0010
0001
0100
,
1000
1010
0001
1000
,
0001
0010
0100
1000
,
0010
1000
0001
0010
,
0100
0001
0202
0000
,
0300
1000
0103
2020
,
0000
0000
0000
0000
,
0000
0000
0000
0030
,
0001
0001
3001
0000
,
0000
0010
0000
0000
,
0100
0000
0000
1000
,
0000
0000
0010
0000
,
0000
1000
0000
0000
,
0001
0000
0000
0100
,
0000
0001
0001
0000
,
0000
0010
0000
0000
,
0001
0000
1000
0100
,
0000
1000
1000
0000
,
0000
0010
0000
0100
,
0001
0000
0010
0100
,
0000
1000
0002
0000
,
0103
0200
0000
0310
,
2000
0000
3001
2000
,
0000
3100
0020
0000
,
0031
0200
0000
0310
,
2000
0000
3001
0002
,
0003
0011
2200
0300
,
0010
3010
0000
1000
,
0001
0000
0100
0010
,
0000
1010
0101
0000
,
0011
1001
0000
1010
,
1100
0000
0110
0011
,
0000
1000
0101
1001
,
0000
0110
1001
0000
,
1100
0101
0001
0010
,
0001
0100
1000
0010
,
1000
0100
0001
2000
,
3002
0203
0310
1000
,
0010
1000
0100
0001
,
0010
0001
0100
1000
,
0001
0010
0100
0010
,
0001
0100
1000
0020
,
2030
3002
0203
0320
,
2030
3002
0010
1000
,
1000
0100
1003
1010
,
0001
1000
0100
0010
,
0001
0110
0001
1000
,
1100
0010
0100
0101
,
1000
0100
0001
0010
,
1000
0001
0010
1000
,
0001
0100
1000
0002
,
0000
0000
0000
0000
,
0000
0003
0002
0000
,
0000
0000
0000
0000
,
0000
0000
0000
0000
,
0000
0000
0000
0000
0000
0203
0000
0000
,
0000
0000
0000
0000
,
0000
0000
0000
0000
,
0300
0000
0000
0000
,
0002
2003
3002
0023
,
0230
2300
3010
1001
,
1100
0012
0100
1000
,
0103
1010
1001
0120
,
1000
0130
0101
0000
,
0000
0000
0011
0110
,
2200
0000
3000
2000
,
0000
0000
0000
0000
,
0000
0000
0000
0000
,
0000
0000
0000
0000
,
0000
0000
0000
0000
,
0000
0000
3300
0000
;

//---------------dance-single - ----------------
#NOTEDATA:;
#CHARTNAME:;
#STEPSTYPE:dance-single;
#DESCRIPTION:;
#CHARTSTYLE:;
#DIFFICULTY:Beginner;
#METER:3;
#RADARVALUES:0.144123,0.258545,0.046032,0.015344,0.000000,263.000000,251.000000,12.000000,4.000000,0.000000,0.000000,0.000000,0.000000,0.000000,0.144123,0.258545,0.046032,0.015344,0.000000,263.000000,251.000000,12.000000,4.000000,0.000000,0.000000,0.000000,0.000000,0.000000;
#CREDIT:;
#DISPLAYBPM:65.000000:195.000000;
#NOTES:
// measure 0
0000
0000
0000
0000
,  // measure 1
0000
0000
0000
0000
,  // measure 2
0000
0000
0000
0000
,  // measure 3
0000
0000
0000
0000
,  // measure 4
0000
0000
0000
0000
,  // measure 5
0000
0000
0000
0000
,  // measure 6
0000
0000
0000
0000
,  // measure 7
0000
0000
0000
0000
,  // measure 8
0000
0000
0000
0000
,  // measure 9
0000
1000
0000
0000
,  // measure 10
0000
0010
0000
1000
,  // measure 11
0000
0000
0100
0000
,  // measure 12
0000
0010
0000
0000
,  // measure 13
0001
0000
0000
1000
,  // measure 14
0000
0000
0010
0000
,  // measure 15
0000
0100
0000
0000
,  // measure 16
0001
0000
0000
1000
,  // measure 17
0000
0000
0001
0000
,  // measure 18
0000
0010
0000
0000
,  // measure 19
0100
0000
0000
1000
,  // measure 20
0000
0000
0001
0000
,  // measure 21
0000
0100
0000
0000
,  // measure 22
0000
0010
0000
0010
,  // measure 23
0000
0000
0000
0100
,  // measure 24
0000
0001
0000
0000
,  // measure 25
1000
0000
0000
0010
,  // measure 26
0000
0000
0000
0100
,  // measure 27
0000
0000
0001
0000
,  // measure 28
0000
0000
0000
0000
,  // measure 29
0001
0000
0000
0000
,  // measure 30
0000
0000
0000
0000
,  // measure 31
0001
0000
0010
0000
,  // measure 32
0100
0000
1000
0000
,  // measure 33
0010
0000
1000
0000
,  // measure 34
0001
0000
0100
0000
,  // measure 35
1001
0000
0000
0010
,  // measure 36
0000
0100
0000
0000
,  // measure 37
0001
0000
0000
1000
,  // measure 38
0000
0000
0100
0100
,  // measure 39
0000
0010
0000
0000
,  // measure 40
0001
0001
0000
0010
,  // measure 41
0000
0000
0100
0000
,  // measure 42
0000
1000
0000
0000
,  // measure 43
0010
0000
0000
0100
,  // measure 44
0100
0000
0010
0000
,  // measure 45
0000
1000
1000
0000
,  // measure 46
0001
0001
0000
1000
,  // measure 47
1000
0000
0010
0000
,  // measure 48
1000
0000
1001
0000
,  // measure 49
0000
0000
0001
0001
,  // measure 50
0000
0000
0000
0100
,  // measure 51
0100
0100
0000
0000
,  // measure 52
0000
0000
0010
0010
,  // measure 53
0000
0000
0000
1000
,  // measure 54
1000
1000
0000
0000
,  // measure 55
0001
0000
1000
1000
,  // measure 56
0000
0000
0000
0010
,  // measure 57
0010
0010
0000
0000
,  // measure 58
0010
0000
0000
1000
,  // measure 59
1000
0000
0001
0001
,  // measure 60
0000
0010
0000
0000
,  // measure 61
0000
0100
0000
0100
,  // measure 62
0000
0000
0000
1000
,  // measure 63
0000
0001
0000
0000
,  // measure 64
0100
0000
0000
0001
,  // measure 65
0001
0000
0100
0000
,  // measure 66
0000
0010
0000
1000
,  // measure 67
1000
0000
0100
0100
,  // measure 68
0000
0000
0010
0000
,  // measure 69
0000
0001
0001
0000
,  // measure 70
0001
0000
0000
0100
,  // measure 71
0100
0000
0010
0010
,  // measure 72
0000
0100
0100
0000
,  // measure 73
0001
0000
1000
0000
,  // measure 74
1001
0000
0000
0110
,  // measure 75
0000
0000
1001
0000
,  // measure 76
0010
0010
0010
0010
,  // measure 77
0000
0000
1000
0000
,  // measure 78
0000
1000
0000
0000
,  // measure 79
1000
0000
0000
0001
,  // measure 80
0000
0000
0100
0000
,  // measure 81
0000
0001
0000
0000
,  // measure 82
0010
0000
0100
0100
,  // measure 83
0000
0000
1000
0000
,  // measure 84
0100
0100
0000
0000
,  // measure 85
0010
0000
0001
0001
,  // measure 86
0000
0000
0100
0000
,  // measure 87
0000
0100
0000
0000
,  // measure 88
0100
0000
0010
0010
,  // measure 89
0000
0000
0000
0000
,  // measure 90
1000
1000
0000
0000
,  // measure 91
0000
0000
0010
0010
,  // measure 92
0000
0000
0100
0000
,  // measure 93
0000
0001
0000
0000
,  // measure 94
0010
0000
1000
1000
,  // measure 95
0000
0000
0000
0000
,  // measure 96
0100
0100
0000
0000
,  // measure 97
0010
0000
0100
0100
,  // measure 98
0000
0000
1000
0000
,  // measure 99
0001
0001
0000
0001
,  // measure 100
0001
0000
1000
1000
,  // measure 101
0000
0000
0010
0010
,  // measure 102
0000
0100
0100
0000
,  // measure 103
0000
0001
0000
1001
,  // measure 104
0000
0000
0000
0000
,  // measure 105
0000
0000
0000
0000
,  // measure 106
0000
1000
1000
0000
,  // measure 107
0000
0000
0000
0001
,  // measure 108
0001
0000
0000
0000
,  // measure 109
0000
0010
0010
0000
,  // measure 110
0000
0000
0000
0100
,  // measure 111
0100
0000
0000
0100
,  // measure 112
0000
0000
1000
0000
,  // measure 113
0000
0000
0000
0010
,  // measure 114
0010
0000
0000
0100
,  // measure 115
0000
0000
0001
0000
,  // measure 116
0000
0000
0000
0010
,  // measure 117
0010
0000
0001
0001
,  // measure 118
0000
0000
0100
0000
,  // measure 119
0000
0100
0000
0000
,  // measure 120
0100
0000
0000
0010
,  // measure 121
0000
0000
1000
0000
,  // measure 122
0000
0001
0000
0000
,  // measure 123
0010
0000
1000
1000
,  // measure 124
0000
0100
0100
0000
,  // measure 125
0010
0010
0000
0001
,  // measure 126
0001
0000
0000
1000
,  // measure 127
0000
0100
0100
0000
,  // measure 128
1000
1000
0000
0001
,  // measure 129
0001
0000
0100
0100
,  // measure 130
0000
0010
0000
0110
,  // measure 131
0000
0000
1001
0000
,  // measure 132
0000
0110
0000
0000
,  // measure 133
0000
0000
0000
0000
,  // measure 134
0000
0000
0000
1000
,  // measure 135
1000
1000
0000
0010
,  // measure 136
0010
0010
0000
0001
,  // measure 137
0000
0100
0100
0000
,  // measure 138
0010
0010
0000
0000
,  // measure 139
0000
0000
0000
0000
,  // measure 140
0000
0000
0000
0001
,  // measure 141
0001
0001
0000
0000
,  // measure 142
1000
0000
0100
0100
,  // measure 143
0000
1000
1000
0000
,  // measure 144
0000
0010
0000
0000
,  // measure 145
0110
0000
0000
1000
,  // measure 146
0000
0000
0001
0000
,  // measure 147
0100
0100
0100
0000
,  // measure 148
0010
0000
1000
2000
,  // measure 149
0000
0000
0000
0000
,  // measure 150
0000
0000
3000
0000
,  // measure 151
0000
0000
0000
0000
,  // measure 152
0000
0000
0000
0000
,  // measure 153
0000
0000
0000
0000
0000
0200
0000
0000
,  // measure 154
0000
0000
0000
0000
,  // measure 155
0000
0000
0000
0000
,  // measure 156
0300
0000
0000
0000
,  // measure 157
0020
0000
0000
0000
,  // measure 158
0030
0000
0001
0001
,  // measure 159
0001
0001
0000
0000
,  // measure 160
1000
1000
1000
1000
,  // measure 161
0000
0100
0100
0000
,  // measure 162
0000
0000
0110
0000
,  // measure 163
1001
0000
0000
2000
,  // measure 164
0000
0000
0000
0000
,  // measure 165
0000
0000
0000
0000
,  // measure 166
0000
0000
0000
0000
,  // measure 167
0000
0000
0000
0000
,  // measure 168
0000
0000
3000
0000
;
