#VERSION:0.83;
#TITLE:Space Space Shooter (Cusimo & Co. Remix);
#SUBTITLE:;
#ARTIST:Kick & Punch;
#TITLETRANSLIT:;
#SUBTITLETRANSLIT:;
#ARTISTTRANSLIT:;
#GENRE:;
#ORIGIN:;
#CREDIT:;
#BANNER:Space Space Shooter (Cusimo & Co. Remix)-bn.png;
#BACKGROUND:Space Space Shooter (Cusimo & Co. Remix)-bg.png;
#PREVIEWVID:;
#JACKET:Space Space Shooter (Cusimo & Co. Remix)-jacket.png;
#CDIMAGE:;
#DISCIMAGE:;
#LYRICSPATH:;
#CDTITLE:;
#MUSIC:Space Space Shooter (Cusimo & Co. Remix).ogg;
#OFFSET:0.000000;
#SAMPLESTART:29.333000;
#SAMPLELENGTH:20.000000;
#SELECTABLE:YES;
#DISPLAYBPM:180.000000;
#BPMS:0.000=180.000;
#STOPS:;
#DELAYS:;
#WARPS:;
#TIMESIGNATURES:0.000=4=4;
#TICKCOUNTS:0.000=4;
#COMBOS:0.000=1;
#SPEEDS:0.000=1.000=0.000=0;
#SCROLLS:0.000=1.000;
#FAKES:;
#LABELS:0.000=Song Start;
#BGCHANGES:;
#KEYSOUNDS:;
#ATTACKS:
;

//---------------dance-single - ----------------
#NOTEDATA:;
#CHARTNAME:;
#STEPSTYPE:dance-single;
#DESCRIPTION:;
#CHARTSTYLE:;
#DIFFICULTY:Beginner;
#METER:2;
#RADARVALUES:0.124554,0.219376,0.009375,0.037500,0.000000,93.000000,92.000000,1.000000,4.000000,0.000000,0.000000,0.000000,0.000000,0.000000,0.124554,0.219376,0.009375,0.037500,0.000000,93.000000,92.000000,1.000000,4.000000,0.000000,0.000000,0.000000,0.000000,0.000000;
#CREDIT:;
#NOTES:
0000
0000
0000
0000
,
0000
0000
0000
0000
,
0000
0000
0000
0000
,
0010
0000
0000
0000
,
0100
0000
0000
0000
,
0010
0000
0000
0000
,
1000
0000
0000
0000
,
0100
0000
0000
0000
,
0001
0000
0000
0000
,
0100
0000
0000
0000
,
1000
0000
0000
0000
,
0010
0000
0000
0000
,
0001
0000
0000
0000
,
0010
0000
0000
0000
,
1000
0000
1000
0000
,
1000
0000
0000
0000
,
0001
0000
0000
0000
,
1000
0000
0000
0000
,
0001
0000
0001
0000
,
0001
0000
0000
0000
,
1000
0000
0000
0000
,
0001
0000
0000
0000
,
0010
0010
0010
0000
,
0100
0000
0100
0000
,
1000
0000
0000
0000
,
1000
0000
0000
0000
,
0010
0010
0010
0000
,
0100
0000
0100
0000
,
0001
0000
0000
0000
,
0001
0000
0000
0000
,
0100
0000
0000
0000
,
0010
0000
0000
0000
,
1000
0000
0000
0000
,
0001
0000
0000
0000
,
0010
0000
0000
0000
,
0100
0000
0000
0000
,
1000
0000
0000
0000
,
0001
0000
0000
0000
,
2000
0000
0000
3000
,
1000
0000
0000
0000
,
0020
0000
0000
0030
,
0010
0000
0000
0000
,
0200
0000
0000
0300
,
0100
0000
0000
0000
,
0002
0000
0000
0003
,
0001
0000
0000
0000
,
0010
0000
0000
0000
,
0100
0000
0000
0000
,
1000
0000
1000
0000
,
1000
0000
0000
0000
,
0010
0000
0000
0000
,
0100
0000
0000
0000
,
0001
0000
0001
0000
,
0001
0000
0000
0000
,
0010
0000
0000
0000
,
0001
0000
0000
0000
,
1000
0000
0000
0000
,
1000
0000
0000
0000
,
0010
0000
0000
0000
,
1000
0000
0000
0000
,
0001
0000
0000
0000
,
0001
0000
0000
0000
,
0010
0010
0010
0000
,
0001
0000
1000
0000
,
0001
0000
0000
0000
,
0100
0000
0000
0000
,
0010
0010
0010
0000
,
1000
0000
0001
0000
,
1000
0000
0000
0000
,
0100
0000
0000
0000
,
0010
0000
0000
0000
,
0001
0000
0000
0000
,
1000
0000
0000
0000
,
0100
0000
0000
0000
,
0010
0000
0000
0000
,
0001
0000
0000
0000
,
1000
0000
0000
0000
,
0100
0000
0000
0000
,
1001
0000
0000
0000
;

//---------------dance-single - ----------------
#NOTEDATA:;
#CHARTNAME:;
#STEPSTYPE:dance-single;
#DESCRIPTION:;
#CHARTSTYLE:;
#DIFFICULTY:Easy;
#METER:5;
#RADARVALUES:0.273216,0.329065,0.075000,0.018750,0.000000,204.000000,196.000000,8.000000,2.000000,0.000000,0.000000,0.000000,0.000000,0.000000,0.273216,0.329065,0.075000,0.018750,0.000000,204.000000,196.000000,8.000000,2.000000,0.000000,0.000000,0.000000,0.000000,0.000000;
#CREDIT:;
#NOTES:
0000
0000
0000
0000
,
0000
0000
0000
0000
,
0000
0000
0000
0000
,
0010
1000
1000
0000
,
0001
0001
0010
0000
,
1001
0000
0000
0000
,
0100
1000
0001
0000
,
0010
0001
0100
0000
,
0010
0000
1000
0000
,
0001
1000
0010
0000
,
0100
0001
1000
0000
,
0010
1000
0100
0000
,
0010
0000
0001
0000
,
1000
0001
0010
0000
,
0100
0000
0100
0000
,
0010
0000
0010
0000
,
0001
0100
1000
0100
,
0001
0100
1000
0100
,
0010
0000
0010
0000
,
0100
0000
0100
0000
,
1000
0001
1000
0001
,
1001
0000
0000
0000
,
1000
0100
0001
0000
,
0001
0100
1000
0000
,
0010
0000
0100
0000
,
0010
0000
0100
0000
,
0001
0100
1000
0000
,
1000
0100
0001
0000
,
0010
0000
0010
0000
,
0200
0000
0300
0000
,
1000
0010
0001
0010
,
1000
0100
0001
0100
,
1000
0000
0100
0000
,
1001
0000
0000
0000
,
0001
0010
1000
0010
,
0001
0100
1000
0100
,
0001
0000
0100
0000
,
1001
0000
0000
0000
,
1000
0000
0100
0000
,
0010
0000
0001
0000
,
0100
0000
0100
0000
,
0001
0010
0010
0000
,
0001
0000
0100
0000
,
0010
0000
1000
0000
,
0100
0000
0100
0000
,
1000
0010
0010
0000
,
0100
0000
0100
0000
,
0010
0000
0010
0000
,
0001
0100
1000
0100
,
0001
0100
1000
0100
,
0010
0000
0010
0000
,
0100
0000
0100
0000
,
1000
0001
1000
0001
,
1001
0000
0000
0000
,
0001
0010
1000
0000
,
1000
0000
1000
0010
,
0100
0000
0001
0010
,
0100
0000
1000
0001
,
1000
0010
0001
0000
,
0001
0000
0001
0010
,
0100
0000
1000
0010
,
0100
0000
0001
1000
,
0001
0100
1000
0000
,
1000
0100
0001
0000
,
0010
0000
0100
0000
,
0010
0000
0100
0000
,
1000
0100
0001
0000
,
0001
0100
1000
0000
,
0010
0000
0010
0000
,
0200
0000
0300
0000
,
0001
0010
1000
0010
,
0001
0100
1000
0100
,
0001
0000
0100
0000
,
1001
0000
0000
0000
,
1000
0010
0001
0010
,
1000
0100
0001
0100
,
1000
0000
0100
0000
,
1001
0000
0000
0000
,
0110
0000
0000
0000
;

//---------------dance-single - ----------------
#NOTEDATA:;
#CHARTNAME:;
#STEPSTYPE:dance-single;
#DESCRIPTION:;
#CHARTSTYLE:;
#DIFFICULTY:Medium;
#METER:8;
#RADARVALUES:0.431253,0.511878,0.253127,0.075000,0.000000,322.000000,295.000000,27.000000,8.000000,0.000000,0.000000,0.000000,0.000000,0.000000,0.431253,0.511878,0.253127,0.075000,0.000000,322.000000,295.000000,27.000000,8.000000,0.000000,0.000000,0.000000,0.000000,0.000000;
#CREDIT:;
#NOTES:
0000
0000
0000
0000
,
0000
0000
0000
0000
,
0000
0000
0000
0000
,
0100
0100
0001
0001
,
1000
1000
0010
0010
,
0100
0000
0000
0000
0000
0000
0000
0001
,
1000
0000
0010
0000
1000
0001
0000
1000
,
0010
0000
1000
0001
0100
0000
0000
0010
,
0100
0000
0001
0100
0001
0000
0010
0000
,
0100
1000
0100
0000
0010
0000
0000
0000
,
0001
0000
1000
0000
0001
0100
0000
0001
,
1000
0001
0010
0000
0100
0000
0000
1000
,
0010
0100
0010
0100
,
0001
1000
0001
0100
0000
0000
0000
0000
,
0001
0010
0100
1000
,
0001
0010
0100
1000
,
0010
1000
0010
1000
0000
0000
0100
0000
,
0010
0001
0010
0001
0000
0000
0000
0000
,
1000
0010
0100
0001
,
1000
0010
0100
0001
,
0010
0000
0100
0000
1000
0001
0000
1001
,
0000
0000
0000
0000
,
0010
0000
0010
0000
0010
0100
0100
0000
,
1100
0000
0101
0000
1100
0000
0000
0010
,
0001
0100
1000
0010
,
0001
0000
0100
0000
1000
0001
1000
0000
,
0010
0000
0010
0000
0010
0100
0100
0000
,
0101
1100
0101
0000
,
1000
0100
0010
0001
,
0200
0000
0000
0300
,
0010
1000
0100
0110
,
0010
0001
0100
0110
,
0010
1000
0001
0011
,
0010
0001
1000
0100
0000
0000
0000
0000
,
0010
0001
0100
0110
,
0010
1000
0100
0110
,
0010
0001
1000
1010
,
0010
1000
0001
0100
0000
0000
0000
0010
,
1000
0000
0010
0000
0100
0000
0000
0010
,
1000
0000
0001
1000
0001
0000
0000
0010
,
0100
1000
0001
1000
,
0100
0000
0010
0001
0100
0000
0000
0000
,
0010
0100
0001
1000
,
0001
0010
0100
1000
0000
0000
0000
0010
,
1000
0001
1000
0010
,
0200
0000
0000
0300
,
0001
0010
0100
1000
,
0001
0010
0100
1000
,
0010
0100
0010
0100
0000
0000
0001
0000
,
0010
0100
0010
0100
0000
0000
0000
0000
,
1000
0010
0100
0001
,
1000
0010
0100
0001
,
0010
0000
0100
0000
1000
0001
0000
1001
,
0000
0000
0000
0000
,
0010
0000
0010
0000
0010
0100
0100
0000
,
0010
0100
0010
0100
,
2000
3000
0002
0003
,
0200
0000
0000
0300
,
0010
0000
0010
0000
0010
0100
0100
0000
,
0010
0100
0010
0100
,
0001
0100
1000
0100
,
0001
0100
1000
0100
,
0010
0000
0010
0000
0010
0100
0100
0000
,
1100
0000
0101
0000
1001
0000
0000
0010
,
0001
1000
0010
0100
,
0001
0000
0010
0000
0100
0100
1000
0000
,
0010
0000
0010
0000
0010
0100
0100
0000
,
0101
1100
1001
0000
,
0010
1000
0100
0001
,
0020
0000
0000
0030
,
0100
1000
0010
0101
,
0100
0001
0010
1100
,
0100
0010
0001
1001
,
0010
1000
0001
0200
0000
0000
0300
0000
,
0010
1000
0100
0011
,
0010
0001
0100
1010
,
0010
0100
0001
1001
,
0100
1000
0001
0020
0000
0000
0030
0000
,
0110
0000
0000
0000
;

//---------------dance-single - ----------------
#NOTEDATA:;
#CHARTNAME:;
#STEPSTYPE:dance-single;
#DESCRIPTION:;
#CHARTSTYLE:;
#DIFFICULTY:Hard;
#METER:12;
#RADARVALUES:0.624111,0.658129,0.253127,0.225001,0.056250,466.000000,439.000000,27.000000,24.000000,0.000000,0.000000,0.000000,0.000000,0.000000,0.624111,0.658129,0.253127,0.225001,0.056250,466.000000,439.000000,27.000000,24.000000,0.000000,0.000000,0.000000,0.000000,0.000000;
#CREDIT:;
#NOTES:
0000
0000
0000
0000
,
0000
0000
0000
0000
,
0000
0000
0000
0000
,
0100
0001
0100
0001
,
1000
0010
1000
0010
,
0100
0000
0000
0000
0000
0000
0000
0010
,
0100
0001
0010
0001
1000
0100
0000
1000
,
0010
0100
0010
1000
0001
0000
0000
1000
,
0100
0010
0001
0100
1000
0100
0010
1000
,
0001
0010
0100
0000
1100
0000
0000
0000
,
1000
0010
1000
0000
0100
0010
0000
0001
,
1000
0001
0010
0000
0100
0000
0000
1000
,
0010
0000
0100
0000
0100
0000
0100
0010
,
1000
0001
1000
0010
0000
0000
0000
0000
,
1001
1100
1001
0101
,
0010
1000
0100
0001
0100
0010
0001
0100
,
0010
1000
0100
1000
0000
0001
0010
0100
,
1000
0001
0100
0010
0000
0100
0001
0010
,
0110
1100
0110
0101
,
0010
1000
0001
0010
0100
0001
0100
1000
,
0010
0000
1000
0000
0001
0010
0000
0100
,
1001
0000
0000
0000
,
0002
0000
2003
0000
3200
1000
2300
0000
,
3001
0010
0001
0010
0001
0100
0000
0010
,
1000
0100
0010
0100
1000
0001
0100
0001
,
0010
0100
1000
0001
0100
0001
0010
0100
,
2000
0000
3002
0000
0203
0001
0302
0000
,
1003
0010
1000
0010
1000
0100
0000
0000
,
1000
0100
0010
0001
0100
0010
1000
0000
,
1001
0000
0000
0000
,
0001
0000
0001
0000
0010
0000
0010
0000
0100
0000
0000
1000
0000
0000
0010
0000
,
0100
0000
0100
0000
0001
0000
0001
0000
1000
0000
0000
0010
0000
0000
0100
0000
,
0001
0000
0001
0000
1000
0000
1000
0000
0100
0000
0000
0010
0000
0000
0001
0000
,
0100
0001
1000
0100
0000
0000
0000
0000
,
0001
0000
0100
0000
1000
0000
0010
0000
0100
0000
0000
0001
0000
0000
0100
0000
,
1000
0000
0100
0000
0001
0000
0010
0000
0100
0000
0000
1000
0000
0000
0010
0000
,
0001
0000
0010
0000
1000
0000
0100
0000
0010
0000
0000
0001
0000
0000
0100
0000
,
0001
0010
0100
1000
0000
0000
0000
0010
,
1000
0001
0010
0001
0100
0000
0000
0010
,
1000
0010
0100
0001
1000
0000
0000
0100
,
0010
0001
1000
0010
0100
1000
0100
0001
,
0010
0100
0010
0001
1000
0000
0000
0000
,
0010
1000
0010
0100
0001
0000
0010
0001
,
0100
0001
1000
0100
0000
0000
0000
1000
,
0010
1000
0001
0010
0100
1000
0010
0100
,
0001
0010
0100
1000
0000
0000
0000
0000
,
0011
1100
1010
0101
,
0010
1000
0100
1000
0001
0100
0010
0100
,
0001
0010
0001
1000
0000
0010
0100
0010
,
1000
0100
0010
0001
0000
0100
0001
1000
,
1010
0101
0011
1100
,
0010
0001
0100
0010
1000
0010
0100
0001
,
0010
0000
0100
0000
1000
0010
0000
0100
,
1001
0000
0000
0000
,
0002
0000
2003
0000
3020
1000
2030
0000
,
3001
0010
0100
0000
1000
0010
0100
0000
,
0001
1000
0100
0010
0001
0000
1000
0100
,
0000
0000
0000
0000
,
2000
0000
3002
0000
0023
0001
0032
0000
,
1003
0010
0100
0000
0001
0010
0100
0000
,
1000
0001
0010
0001
0100
0000
0010
1000
,
0100
0000
0010
0001
0100
0000
0010
1000
,
0002
0000
0023
0000
0230
0010
0320
0000
,
0031
1000
0001
1000
0001
0100
0000
0010
,
1000
0001
0010
0100
0010
0001
0100
0010
,
0100
0001
1000
0100
1000
0010
0100
0001
,
2000
0000
3020
0000
0230
0010
0320
0000
,
1030
0001
1000
0001
1000
0100
0000
0010
,
0001
1000
0001
0100
0010
0100
0001
1000
,
0100
1000
0010
0100
0000
0000
0000
0000
,
0001
0000
1000
0000
0001
0000
0010
0000
0100
0000
0000
1100
0000
0000
1000
0000
,
0010
0000
0100
0000
0010
0000
1000
0000
0001
0000
0000
0101
0000
0000
0100
0000
,
0010
0000
1000
0000
0001
0000
0010
0000
0001
0000
0000
1001
0000
0000
1000
0000
,
0100
0010
0001
0100
0000
0000
0000
0000
,
0010
0000
1000
0000
0001
0000
0100
0000
0010
0000
0000
1010
0000
0000
1000
0000
,
0001
0000
1000
0000
0100
0000
1000
0000
0001
0000
0000
0011
0000
0000
0010
0000
,
0001
0000
0100
0000
0010
0000
1000
0000
0100
0000
0000
0110
0000
0000
0010
0000
,
0001
0100
0010
1000
0100
0010
0001
0100
,
1001
0000
0000
0000
;

//---------------dance-double - ----------------
#NOTEDATA:;
#CHARTNAME:;
#STEPSTYPE:dance-double;
#DESCRIPTION:;
#CHARTSTYLE:;
#DIFFICULTY:Easy;
#METER:5;
#RADARVALUES:0.270537,0.329065,0.075000,0.000000,0.000000,202.000000,194.000000,8.000000,0.000000,0.000000,0.000000,0.000000,0.000000,0.000000,0.270537,0.329065,0.075000,0.000000,0.000000,202.000000,194.000000,8.000000,0.000000,0.000000,0.000000,0.000000,0.000000,0.000000;
#CREDIT:;
#NOTES:
00000000
00000000
00000000
00000000
,
00000000
00000000
00000000
00000000
,
00000000
00000000
00000000
00000000
,
01000000
10000000
10000000
00000000
,
00100000
00100000
00010000
00000000
,
00011000
00000000
00000000
00000000
,
00000010
00001000
00000100
00000000
,
00000010
00000001
00000100
00000000
,
00000001
00000000
00000010
00000000
,
00001000
00010000
00001000
00000000
,
00100000
00010000
01000000
00000000
,
00100000
10000000
01000000
00000000
,
10000000
00000000
00100000
00000000
,
00010000
00001000
00010000
00000000
,
00000010
00000000
00000010
00000000
,
00000100
00000000
00000100
00000000
,
00000001
00000100
00000001
00000100
,
00001000
00010000
00001000
00001000
,
00100000
00000000
00100000
00000000
,
01000000
00000000
01000000
00000000
,
10000000
00100000
00010000
00001000
,
00011000
00000000
00000000
00000000
,
00010000
00100000
10000000
00000000
,
10000000
01000000
00010000
00000000
,
00001000
00000000
00010000
00000000
,
00001000
00000000
00010000
00000000
,
00001000
00000010
00000001
00000000
,
00000001
00000100
00001000
00000000
,
00010000
00000000
00001000
00000000
,
00011000
00000000
00000000
00000000
,
00001000
00100000
00010000
00000000
,
00100000
00001000
00010000
00000000
,
00001000
00100000
00010000
00000000
,
00100000
00001000
00010000
00000000
,
00001000
01000000
00010000
00000000
,
01000000
00001000
00010000
00000000
,
00001000
01000000
00010000
00000000
,
10010000
00000000
00000000
00000000
,
00100000
00000000
10000000
00000000
,
01000000
00000000
00010000
00000000
,
00001000
00000000
00000100
00000000
,
00000001
00000000
00000010
00000000
,
00001000
00000000
00010000
00000000
,
00000100
00000000
00010000
00000000
,
00001000
00000000
01000000
00000000
,
00001000
00000000
00010000
00000000
,
00000010
00000000
00000010
00000000
,
00000100
00000000
00000100
00000000
,
00000001
00000100
00000001
00000100
,
00001000
00010000
00001000
00001000
,
00100000
00000000
00100000
00000000
,
01000000
00000000
01000000
00000000
,
10000000
00100000
00010000
00001000
,
00011000
00000000
00000000
00000000
,
00010000
00100000
10000000
00000000
,
10000000
00000000
10000000
00100000
,
01000000
00000000
00010000
00100000
,
01000000
00000000
10000000
00010000
,
10000000
00100000
00010000
00000000
,
00010000
00000000
00010000
00100000
,
01000000
00000000
10000000
00100000
,
01000000
00000000
00010000
10000000
,
00010000
00100000
10000000
00000000
,
10000000
01000000
00010000
00000000
,
00001000
00000000
00010000
00000000
,
00001000
00000000
00010000
00000000
,
00001000
00000010
00000001
00000000
,
00000001
00000100
00001000
00000000
,
00010000
00000000
00001000
00000000
,
00011000
00000000
00000000
00000000
,
00001000
00100000
00010000
00000000
,
00100000
00001000
00010000
00000000
,
00001000
00100000
00010000
00000000
,
00100000
00001000
00010000
00000000
,
00001000
01000000
00010000
00000000
,
01000000
00001000
00010000
00000000
,
00001000
01000000
00010000
00000000
,
10010000
00000000
00000000
00000000
,
10010000
00000000
00000000
00000000
;

//---------------dance-double - ----------------
#NOTEDATA:;
#CHARTNAME:;
#STEPSTYPE:dance-double;
#DESCRIPTION:;
#CHARTSTYLE:;
#DIFFICULTY:Medium;
#METER:8;
#RADARVALUES:0.420538,0.585004,0.290627,0.131251,0.000000,314.000000,283.000000,31.000000,14.000000,0.000000,0.000000,0.000000,0.000000,0.000000,0.420538,0.585004,0.290627,0.131251,0.000000,314.000000,283.000000,31.000000,14.000000,0.000000,0.000000,0.000000,0.000000,0.000000;
#CREDIT:;
#NOTES:
00000000
00000000
00000000
00000000
,
00000000
00000000
00000000
00000000
,
00000000
00000000
00000000
00000000
,
01000000
01000000
00010000
00010000
,
00001000
00001000
00000100
00000100
,
00000100
00000000
00000000
00000000
,
00000001
00000000
00000010
00000000
00000001
00001000
00000000
00000001
,
00000100
00001000
00010000
00000000
,
00001000
00100000
01000000
00100000
,
00010000
01000000
00010000
00000000
00100000
00000000
00000000
00000000
,
01000000
00000000
10000000
00000000
00010000
10000000
00000000
00010000
,
10000000
00100000
01000000
00000000
,
00001000
01000000
00010000
00100000
,
00001000
00010000
00001000
00010000
00000000
00000000
00000000
00000000
,
00100000
10000000
01000000
00010000
,
00001000
00000100
00000001
00000010
,
00000001
00001000
00000001
00001000
00000000
00000000
00000100
00000000
,
00000010
00000100
00000010
00000100
00000000
00000000
00000000
00000000
,
00000010
00000001
00000100
00001000
,
00010000
01000000
10000000
00100000
,
10000000
00000000
00100000
00000000
01000000
00001000
00000000
00011000
,
00000000
00000000
00000000
00000000
,
00010100
00011000
00010100
00000100
,
00000110
00000011
00000101
00000000
,
00000001
00000100
00001000
00000100
,
00000010
00000000
00010000
00000000
00001000
00010000
00001000
00000000
,
01001000
00011000
01001000
01000000
,
01100000
10100000
11000000
00000000
,
10000000
01000000
00010000
00001000
,
00022000
00000000
00000000
00033000
,
00100000
01000000
00001000
01000000
,
00100000
01000000
00010000
01000000
,
00100000
10000000
01000000
01000000
,
00010000
00001000
00010000
00001000
00000000
00000000
00000000
00000000
,
00000010
00000100
00010000
00000100
,
00000010
00000100
00001000
00000100
,
00000010
00000001
00000100
00000100
,
00001000
00010000
00001000
00010000
00000000
00000000
00000000
00000000
,
00100000
00000000
10000000
00000000
01000000
00000000
00000000
00100000
,
00001000
00000000
00010000
00001000
00010000
00000000
00000000
00000010
,
00000100
00000001
00000010
00000100
,
00010000
00000000
00001000
00000100
00000001
00000000
00000000
00000000
,
00000010
00000001
00000100
00001000
,
00010000
00001000
00010000
00000100
00000000
00000000
00000000
00000000
,
00000010
00000100
00010000
00001000
,
00022000
00000000
00000000
00033000
,
01000000
10000000
00100000
00010000
,
00001000
00000010
00000001
00000100
,
00000001
00001000
00000001
00001000
00000000
00000000
00000010
00000000
,
00000100
00000010
00000100
00000010
00000000
00000000
00000000
00000000
,
00000100
00000001
00000010
00001000
,
00010000
00100000
10000000
01000000
,
10000000
00000000
01000000
00000000
00100000
00001000
00000000
00011000
,
00000000
00000000
00000000
00000000
,
00020000
00000000
00032000
00000000
00003200
00000001
00000301
00000000
,
00000010
00000010
00000100
00000100
,
00010000
00010000
00001000
00010000
,
00001000
00000100
00000001
00000010
,
00002000
00000000
00023000
00000000
02030000
10000000
13000000
00000000
,
00100000
00100000
01000000
01000000
,
00001000
00001000
00010000
00001000
,
00022000
00000000
00000000
00033000
,
00010010
00011000
00010010
00000010
,
00000110
00000101
00000011
00000000
,
00000001
00000100
00001000
00000100
,
00000010
00000000
00010000
00000000
00001000
00010000
00001000
00000000
,
00101000
00011000
00101000
00100000
,
01100000
11000000
10100000
00000000
,
10000000
01000000
00010000
00001000
,
00022000
00000000
00000000
00033000
,
00100000
01000000
00010000
01000000
,
00100000
01000000
00001000
01000000
,
00100000
10000000
01000000
01000000
,
00010000
00001000
00010000
00001000
00000000
00000000
00000000
00000000
,
00000010
00000100
00001000
00000100
,
00000010
00000100
00010000
00000100
,
00000010
00000001
00000100
00000100
,
00001000
00010000
00001000
00010000
00000000
00000000
00000000
00000000
,
00011000
00000000
00000000
00000000
;

//---------------dance-double - ----------------
#NOTEDATA:;
#CHARTNAME:;
#STEPSTYPE:dance-double;
#DESCRIPTION:;
#CHARTSTYLE:;
#DIFFICULTY:Hard;
#METER:13;
#RADARVALUES:0.625450,0.621566,0.112501,0.046875,0.000000,467.000000,455.000000,12.000000,5.000000,0.000000,0.000000,0.000000,0.000000,0.000000,0.625450,0.621566,0.112501,0.046875,0.000000,467.000000,455.000000,12.000000,5.000000,0.000000,0.000000,0.000000,0.000000,0.000000;
#CREDIT:;
#NOTES:
00000000
00000000
00000000
00000000
,
00000000
00000000
00000000
00000000
,
00000000
00000000
00000000
00000000
,
00000010
00000001
00000100
00000000
00000010
00010000
00001000
00000000
,
00100000
00010000
01000000
00100000
10000000
01000000
00100000
00001000
,
00011000
00000000
00000000
00000000
00000000
00000000
00000000
00010000
,
00000100
00000010
00000100
00001000
00000010
00000100
00000000
00000001
,
00000010
00000100
00010000
00001000
01000000
00000000
00000000
00100000
,
01000000
00001000
00010000
00100000
10000000
01000000
00100000
00001000
,
00010000
01000000
10000000
00100000
01000000
00000000
00000000
00100000
,
10000000
01000000
10000000
00100000
00010000
00001000
00000000
01000000
,
00001000
00010000
00000010
00001000
00000100
00000000
00000000
00000010
,
00000001
00000010
00000100
00010000
00000100
00001000
00000010
00000100
,
00000001
00000010
00001000
00010000
00001000
00000000
00000000
00000000
,
00010000
01000000
10000000
00000000
00100000
00010000
00001000
00000000
,
00010000
00100000
10000000
00000000
01000000
00010000
00001000
00000000
,
00100000
00010000
01000000
00001000
00010000
00000010
00001000
00000100
,
00000010
00000001
00000100
00000010
00010000
00001000
00010000
00000000
,
00001000
00000100
00000001
00000000
00000010
00001000
00010000
00000000
,
00001000
00000010
00000001
00000000
00000100
00001000
00010000
00000000
,
00000010
00000000
00001000
00000000
00000100
00000010
00000000
00000011
,
00000000
00000000
00000000
00000000
,
12000000
00000000
00010000
00000000
13000000
01000000
00010000
00000000
,
00001000
00001000
00000100
00000100
00000001
00000001
00000000
00000010
,
00000001
00000100
00000010
00010000
00001000
00000010
00000001
00000100
,
00000010
00010000
00001000
00100000
01000000
10000000
00010000
00000000
,
10200000
00000000
00010000
00000000
10300000
00100000
00010000
00000000
,
00001000
00001000
00000010
00000010
00000001
00000001
00000000
00000001
,
00000100
00000010
00000001
00000010
00001000
00000100
00010000
00000010
,
00001000
00000001
00000010
00000100
00000000
00000000
00000000
00000000
,
00000001
00000010
00000100
00000010
00000001
00000010
00000100
00010000
,
00001000
00000100
00001000
00010000
00001000
00000100
00001000
00010000
,
01000000
10000000
01000000
00100000
01000000
10000000
01000000
00100000
,
00001000
00010000
00001000
00010000
00000000
00000000
00000000
00000000
,
00100000
10000000
00100000
01000000
00100000
10000000
00100000
01000000
,
00001000
00010000
00000100
00010000
00001000
00010000
00000100
00000010
,
00000001
00000100
00000001
00000010
00000001
00000100
00000001
00000010
,
00001000
00010000
00001000
00010000
00000000
00000000
00000000
00000000
,
00000010
00010000
00001000
00000100
00000001
00000000
00000000
00000010
,
00000100
00010000
00001000
00010000
00000100
00000000
00000000
00000000
,
00000010
00000100
00010000
00001000
01000000
00100000
01000000
00001000
,
00010000
00000100
00000010
00000100
00001000
00000000
00000000
00000000
,
00000010
00000100
00000001
00000010
00000100
00000000
00010000
00001000
,
00100000
00010000
10000000
00100000
00000000
00000000
00000000
01000000
,
00100000
10000000
01000000
00100000
00001000
00010000
00000010
00000100
,
00000020
00000000
00000000
00000030
,
00010000
00001000
00000100
00000000
00001000
00010000
00001000
00000000
,
00010000
00001000
00000010
00000000
00001000
00010000
00001000
00000000
,
00100000
00010000
10000000
01000000
00100000
00001000
00010000
00000010
,
00000100
00000001
00000010
00000100
00000010
00000001
00000100
00000000
,
00001000
00010000
01000000
00000000
00010000
00001000
00010000
00000000
,
00001000
00010000
00100000
00000000
00010000
00001000
00010000
00000000
,
01000000
00000000
10000000
00000000
00010000
01000000
00000000
10100000
,
00000000
00000000
00000000
00000000
,
00000101
00000000
00000101
00000000
00000001
00000100
00001000
00000000
,
00000100
00001000
00010000
00000000
00001000
00010000
01000000
00000000
,
00100000
00010000
10000000
00100000
,
01000000
00001000
00010000
00000100
,
00000011
00000000
00000011
00000000
00000001
00000010
00001000
00000000
,
00000010
00001000
00010000
00000000
00001000
00010000
00100000
00000000
,
10000000
01000000
00100000
00001000
,
00010000
00000100
00000010
00000001
,
00000201
00000000
00001000
00000000
00000301
00000100
00001000
00000000
,
00010000
00010000
01000000
01000000
10000000
10000000
00000000
00100000
,
01000000
00010000
01000000
00100000
10000000
00010000
00100000
00001000
,
00010000
00000010
00010000
00000100
00000010
00000100
00001000
00000000
,
00000021
00000000
00001000
00000000
00000031
00000010
00001000
00000000
,
00010000
00010000
00100000
00100000
10000000
10000000
00000000
01000000
,
00100000
00001000
01000000
00100000
10000000
01000000
00100000
00001000
,
00010000
00000010
00000100
00000001
00000000
00000000
00000000
00000000
,
00000010
00000100
00010000
00000100
00000010
00000100
00010000
00001000
,
01000000
00100000
01000000
00001000
01000000
00100000
01000000
00010000
,
00100000
00001000
00010000
00001000
00100000
00001000
00010000
00000100
,
00001000
00000010
00000100
00000001
00000000
00000000
00000000
00000000
,
00000010
00000001
00001000
00000001
00000010
00000001
00001000
00000100
,
00010000
00001000
01000000
00001000
00010000
00001000
01000000
00100000
,
10000000
01000000
00100000
01000000
10000000
01000000
00100000
00001000
,
00010000
01000000
10000000
00100000
00000000
00000000
00000000
00000000
,
01100000
00000000
00000000
00000000
;

//---------------dance-single - ----------------
#NOTEDATA:;
#CHARTNAME:;
#STEPSTYPE:dance-single;
#DESCRIPTION:;
#CHARTSTYLE:;
#DIFFICULTY:Challenge;
#METER:15;
#RADARVALUES:0.910720,0.950631,0.431253,0.056250,0.426565,680.000000,634.000000,46.000000,6.000000,0.000000,0.000000,0.000000,0.000000,0.000000,0.910720,0.950631,0.431253,0.056250,0.426565,680.000000,634.000000,46.000000,6.000000,0.000000,0.000000,0.000000,0.000000,0.000000;
#CREDIT:;
#DISPLAYBPM:180.000000;
#NOTES:
// measure 0
0000
0000
0000
0000
,  // measure 1
0000
0000
0000
0000
,  // measure 2
0000
0000
0000
0000
,  // measure 3
0010
0000
0000
1000
0100
0000
0010
0000
0001
0000
0100
0000
0100
0000
0000
0000
,  // measure 4
0001
0000
0010
0000
0001
0000
0100
0000
0010
0000
1000
0100
1000
0010
0100
0002
,  // measure 5
2000
0000
0000
0000
0000
0000
3003
0010
,  // measure 6
0010
0100
0001
0100
0010
0100
0001
0100
,  // measure 7
1000
0100
0001
0100
0010
0100
0001
0010
,  // measure 8
1000
0010
0100
0010
1000
0010
0001
0100
,  // measure 9
0010
0000
1000
0000
0100
0000
0000
0000
1001
0000
0100
0000
0001
0010
0001
0010
,  // measure 10
0001
0100
0001
1000
0100
0010
0100
0001
,  // measure 11
0100
1000
0010
0100
0001
0010
0001
1000
,  // measure 12
0010
0001
0010
0100
0010
0001
0010
1000
,  // measure 13
0100
0000
0010
0000
0001
0000
1000
0000
0010
0100
0010
0000
1000
0001
0010
0100
,  // measure 14
1000
0001
0010
0001
0100
0010
1000
0100
,  // measure 15
0001
0100
0010
0100
0001
0100
1000
0000
,  // measure 16
1010
0000
0001
0000
1000
0000
0100
0000
0010
0000
0001
0000
0100
0010
1000
0000
,  // measure 17
0101
0010
1000
0001
0010
0001
0100
0010
,  // measure 18
1000
0100
0010
0100
1000
0001
0100
1000
,  // measure 19
0100
0010
0100
1000
0100
0001
0010
0100
,  // measure 20
1100
0000
0001
1000
0001
0000
0100
0000
0010
0000
1000
0000
0001
0000
0010
0000
,  // measure 21
0002
0000
0000
2003
0000
0000
3010
0000
1000
0001
0100
0010
1000
0001
0100
0010
,  // measure 22
1000
0100
1000
0000
0001
0100
0001
0000
1000
0000
0010
0000
0001
0000
0000
0000
,  // measure 23
0101
0010
1100
0010
0101
0010
1000
0001
,  // measure 24
0001
0000
0100
0000
0010
0000
0100
0000
0001
1000
0100
0000
1000
0000
0010
0000
,  // measure 25
1000
0000
0001
0000
0010
0000
0100
0000
1000
0010
1000
0000
0001
0000
0100
0000
,  // measure 26
0001
0010
0001
0000
1000
0010
1000
0000
0001
0000
0100
0000
1000
0000
0000
0000
,  // measure 27
1010
0100
0011
0100
1010
0100
0001
1000
,  // measure 28
1000
0100
0010
0001
0100
1000
0100
0001
,  // measure 29
0010
0000
0100
0000
1000
0000
0001
0000
0100
0010
0100
0010
1000
0001
1000
0001
,  // measure 30
0010
0000
0100
0000
1000
0000
0010
0000
0100
0000
0001
0010
0000
0001
0010
0000
,  // measure 31
0100
0000
1000
0000
0001
0000
0100
0000
0010
0000
1000
0001
0000
1000
0001
0000
,  // measure 32
0010
0000
0100
0000
0010
0000
0001
0000
0100
0000
0010
1000
0000
0010
1000
0000
,  // measure 33
1100
0000
0110
0000
0011
0000
1001
0000
0000
0000
0010
0000
1000
0001
1000
0001
,  // measure 34
1000
0000
0100
0000
1000
0000
0010
0000
0100
0000
0001
0010
0000
0001
0010
0000
,  // measure 35
0100
0000
1000
0000
0010
0000
0100
0000
0001
0000
1000
0010
0000
1000
0010
0000
,  // measure 36
1000
0000
0100
0000
0010
0000
0001
0000
0100
0000
0010
1000
0000
0010
1000
0000
,  // measure 37
1100
0000
0110
0000
0011
0000
1001
0000
0100
0001
0100
0000
0010
1000
0001
1000
,  // measure 38
0100
0010
0001
0100
1010
0000
0000
0001
,  // measure 39
0001
0100
0010
1000
0101
0010
0010
0000
,  // measure 40
1000
0100
0001
0100
1000
0010
0001
0010
,  // measure 41
1000
0001
0010
0100
1001
0100
0100
0000
,  // measure 42
0110
0000
0001
0000
1000
0000
0001
0000
0010
0100
0010
0000
0001
0000
1000
0000
,  // measure 43
0010
1000
0100
0010
0011
0000
0000
1000
,  // measure 44
1000
0001
0010
0001
0100
0010
1000
0001
,  // measure 45
0101
0000
0000
0010
0000
0000
1000
0100
1000
0010
0100
0001
1000
0010
1000
0100
,  // measure 46
0010
0000
0001
0100
0001
0000
1000
0100
1000
0000
0001
0100
0001
0000
1000
0000
,  // measure 47
0010
0000
0001
0000
0010
0000
1000
0000
0010
0000
0100
0000
0001
0000
1000
0100
,  // measure 48
1000
0010
1000
0001
0010
0100
1000
0001
,  // measure 49
0100
1000
0100
0010
0100
0001
0010
0100
,  // measure 50
1000
0000
0001
0010
0001
0000
1000
0010
1000
0000
0100
0000
0010
0000
0001
0000
,  // measure 51
0100
0010
1000
0001
0010
0100
1000
0000
,  // measure 52
0010
0000
1000
0001
1000
0000
0100
0000
0010
0000
0001
0000
0100
0000
0010
0000
,  // measure 53
1010
0000
0000
1100
0000
0000
0002
0000
0000
0000
2000
0000
3003
0000
0000
0000
,  // measure 54
1100
0000
0101
0000
1000
0100
0001
0000
,  // measure 55
1000
0100
0001
0010
0001
0100
1000
0000
,  // measure 56
0010
1000
0100
1000
0010
1000
0100
1000
,  // measure 57
0001
0011
1000
1010
,  // measure 58
0110
0000
1001
0000
0001
0100
1000
0000
,  // measure 59
0001
0100
1000
0010
1000
0100
0001
0000
,  // measure 60
0010
0001
0100
0001
0010
0100
1000
0000
,  // measure 61
0001
0100
0001
0000
1000
0000
0100
0000
0010
0001
1000
0001
0100
0010
1000
0001
,  // measure 62
0010
0100
1000
0000
0010
0100
0001
0000
1000
0000
0010
0000
0100
0000
0000
0000
,  // measure 63
0101
0010
1100
0010
0101
0010
1000
0001
,  // measure 64
0001
0000
0100
0000
0001
0000
0010
0000
0100
1000
0010
1000
0001
0000
0100
0000
,  // measure 65
0010
0000
0100
0000
0001
0000
1000
0000
0100
0010
0100
0000
1000
0000
0001
0000
,  // measure 66
1000
0010
0100
0000
0001
0010
0100
0000
1000
0000
0001
0000
0100
0000
0000
0000
,  // measure 67
1010
0100
0011
0100
1010
0100
0001
1000
,  // measure 68
1000
0010
0001
1000
0001
0010
0100
0000
,  // measure 69
1000
0000
0010
0000
0100
0000
0001
0000
0010
0100
0010
0100
1000
0001
1000
0001
,  // measure 70
0100
0000
0010
0000
1000
0000
0001
0000
0010
0000
0100
1000
0000
1000
0001
0000
,  // measure 71
0100
0000
0001
0000
0010
0000
0001
0000
1000
0000
0010
1000
0000
1000
0100
0000
,  // measure 72
0010
0000
0001
0000
1000
0000
0001
0000
0100
0000
0010
1000
0000
1000
0001
0000
,  // measure 73
0011
0000
0110
0000
1100
0000
1001
0000
0000
0000
0010
0000
1000
0001
0100
0001
,  // measure 74
1000
0000
0010
0000
0100
0000
0001
0000
0010
0000
0100
1000
0000
1000
0001
0000
,  // measure 75
0100
0000
0010
0000
0100
0000
0001
0000
1000
0000
0100
0010
0000
0010
0001
0000
,  // measure 76
0100
0000
1000
0000
0100
0000
0001
0000
0100
0000
0010
1000
0000
1000
0001
0000
,  // measure 77
0011
0000
0110
0000
1100
0000
1001
0000
1000
0100
0010
0000
0001
1000
0001
1000
,  // measure 78
0001
0000
0000
0000
;
