#TITLE:Someday, Someway;
#SUBTITLE:;
#ARTIST:Marshall Crenshaw;
#TITLETRANSLIT:;
#SUBTITLETRANSLIT:;
#ARTISTTRANSLIT:;
#GENRE:;
#CREDIT:;
#BANNER:Someday, Someway-bn.png;
#BACKGROUND:Someday, Someway-bg.png;
#LYRICSPATH:;
#CDTITLE:;
#MUSIC:Someday, Someway.ogg;
#OFFSET:0.000000;
#SAMPLESTART:47.921001;
#SAMPLELENGTH:20.000000;
#SELECTABLE:YES;
#DISPLAYBPM:151.000000:160.000000;
#BPMS:0.000000=152.000000
,8.000000=154.750000
,12.000000=157.000000
,16.000000=159.000000
,24.000000=156.199997
,36.000000=156.572998
,40.000000=154.500000
,44.000000=158.009995
,48.000000=155.000000
,56.000000=155.419998
,60.000000=154.710007
,64.000000=153.220001
,68.000000=152.600006
,72.000000=154.000000
,76.000000=152.315002
,80.000000=155.350006
,84.000000=158.000000
,92.000000=155.600006
,100.000000=154.699997
,108.000000=152.548004
,112.000000=157.100006
,116.000000=154.987000
,120.000000=157.800003
,126.000000=156.410004
,130.000000=152.449997
,132.000000=154.018997
,134.000000=151.199997
,138.000000=153.889999
,140.000000=154.444000
,142.000000=159.800003
,144.000000=155.850006
,146.000000=152.289993
,152.000000=157.179993
,156.000000=156.539993
,160.000000=153.001007
,175.000000=151.520004
,180.000000=152.667007
,182.000000=151.000000
,190.000000=154.699997
,194.000000=155.399994
,196.000000=153.274002
,198.000000=152.024994
,200.000000=154.666672
,202.000000=156.100006
,210.000000=153.455994
,212.000000=156.514008
,215.000000=155.003998
,218.000000=153.244995
,226.000000=154.649994
,232.000000=153.875000
,236.000000=152.998993
,243.000000=154.012497
,245.000000=153.454544
,249.000000=153.869995
,250.000000=155.369995
,257.000000=154.320999
,261.000000=152.988998
,265.000000=154.500000
,268.000000=153.776993
,270.000000=154.654327
,274.000000=156.660004
,276.000000=155.660004
;
#STOPS:
;
#BGCHANGES:;
#KEYSOUNDS:;
#ATTACKS:;

//---------------dance-single - ----------------
#NOTES:
     dance-single:
     :
     Hard:
     11:
     0.491453,0.517970,0.207447,0.345746,0.471078,398.000000,374.000000,24.000000,40.000000,0.000000,0.000000,0.491453,0.517970,0.207447,0.345746,0.471078,398.000000,374.000000,24.000000,40.000000,0.000000,0.000000:
// measure 0
0000
0000
0000
0000
,  // measure 1
0000
0000
0000
0000
,  // measure 2
0010
0000
0000
1000
0000
0100
0000
0000
0010
0001
0000
0000
,  // measure 3
0100
0000
0000
0001
0000
1000
0000
0000
0010
0100
0000
0000
,  // measure 4
0001
0000
0000
0010
0000
0001
0000
0000
0100
1000
0000
0000
,  // measure 5
1000
0000
0000
0001
0000
0100
0000
0000
0010
1000
0000
0000
,  // measure 6
0010
0000
0000
1000
0000
0000
0010
0000
0100
0001
0000
0000
,  // measure 7
1000
0000
0100
1000
0000
0000
0001
0000
0100
0001
0000
0000
,  // measure 8
0100
0000
0000
1000
0000
0000
0001
0000
0100
0010
0000
0000
,  // measure 9
0010
0000
1000
0100
0000
0000
0010
0000
0001
0100
0000
0000
,  // measure 10
0010
0000
0000
0100
0000
0000
0001
0000
1000
0001
0000
0000
,  // measure 11
0100
0000
0010
1000
0000
0000
0001
0000
0100
1000
0000
0000
,  // measure 12
1000
0000
0000
0100
0000
0000
1000
0000
0100
0001
0000
0000
,  // measure 13
0100
0000
0000
0010
0000
0000
0100
0000
0001
1000
0001
1000
,  // measure 14
0002
0000
0000
0103
0000
0010
2000
0000
0000
3001
0000
1000
,  // measure 15
0020
0000
0000
0130
0000
0000
0101
0000
0001
1000
0000
0000
,  // measure 16
0200
0000
0000
0301
0000
1000
0020
0000
0000
1030
0000
0100
,  // measure 17
2000
0000
0000
3001
0000
0000
0011
0000
0010
0100
0000
0000
,  // measure 18
0002
0000
0000
1003
0000
0010
0200
0000
0000
0301
0000
0010
,  // measure 19
0002
1003
0020
0130
,  // measure 20
0001
0000
0100
0010
0000
0000
1000
0000
0100
0010
0000
0000
,  // measure 21
1100
0000
0000
1000
0000
0001
0000
0000
0100
0010
0000
0000
,  // measure 22
1010
0000
0000
1000
0000
0100
0000
0000
0010
0001
0000
0000
,  // measure 23
0010
0000
0000
0001
0000
0000
0100
0000
0010
1000
0000
0000
,  // measure 24
0001
0000
1000
0100
0000
0000
1000
0000
0001
0010
0000
0000
,  // measure 25
0001
0000
0000
0010
0000
0000
0001
0000
1000
0100
0000
0000
,  // measure 26
0010
0000
0001
1000
0000
0000
0010
0000
0100
1000
0000
0000
,  // measure 27
0001
0000
0000
1000
0000
0000
0100
0000
1000
0001
0000
0000
,  // measure 28
0010
0000
0100
1000
0000
0000
0001
0000
1000
0010
0000
0000
,  // measure 29
1000
0000
0000
0100
0000
0000
0010
0000
0001
0100
0000
0000
,  // measure 30
0001
0000
0000
1000
0000
0000
0001
0000
0100
0010
0100
0010
,  // measure 31
0200
0000
0000
0301
0000
0010
0200
0000
0000
1300
0000
0001
,  // measure 32
2000
0000
0000
3001
0000
0000
1001
0000
0100
0010
0000
0000
,  // measure 33
0002
0000
0000
0013
0000
0100
2000
0000
0000
3001
0000
0100
,  // measure 34
0002
0000
0000
0013
0000
0000
0110
0000
0100
1000
0000
0000
,  // measure 35
0020
0000
0000
1030
0000
0001
0200
0000
0000
0301
0000
0010
,  // measure 36
0002
0103
2000
3010
,  // measure 37
1000
0000
0001
0100
0000
0000
0010
0000
1000
0001
0000
0000
,  // measure 38
1000
0000
0000
0010
0000
1000
0000
0000
0001
0100
0000
0000
,  // measure 39
0001
0100
0010
1000
0100
0010
0001
0000
0001
0000
0001
0000
,  // measure 40
0001
0000
0000
1100
0000
0000
0010
0000
0010
0100
0000
0100
,  // measure 41
0001
1000
0101
1001
,  // measure 42
1000
0000
0000
1010
0000
0000
0001
0000
0001
0100
0000
0100
,  // measure 43
0010
0100
0011
0110
,  // measure 44
1000
0000
0000
0011
0000
0000
0010
0000
0010
0100
0000
0100
,  // measure 45
0001
1000
1100
0101
,  // measure 46
1010
0000
0000
0110
0000
0000
1001
0000
0000
0001
0000
0100
,  // measure 47
0000
0000
0010
1000
0000
0000
0100
0000
0000
1000
0000
0001
,  // measure 48
0000
0000
1000
0100
0000
0000
0010
0000
0000
1000
0000
0000
,  // measure 49
0100
0000
0010
0001
0000
0000
0100
0000
0001
1000
0000
0000
,  // measure 50
0010
0000
1000
0100
0000
0000
0001
0000
0000
1000
0000
0000
,  // measure 51
0010
0000
0100
0001
0000
0000
0010
0000
0100
1000
0000
0000
,  // measure 52
0001
0000
1000
0010
0000
0000
1000
0000
0000
0001
0000
0000
,  // measure 53
0010
0000
0001
1000
0000
0000
0100
0000
0010
0001
0000
0000
,  // measure 54
0100
0000
0010
1000
0000
0000
0001
0000
0000
1000
0000
0000
,  // measure 55
0010
0000
1000
0100
0000
0000
1000
0000
0000
0100
0000
0000
,  // measure 56
0010
0000
0001
0100
0001
0100
0020
0000
0000
0130
0000
0010
,  // measure 57
2000
0000
0000
3100
0000
0010
0002
0000
0000
1003
0000
0000
,  // measure 58
0110
0000
0010
0100
0000
0000
2000
0000
0000
3001
0000
0100
,  // measure 59
0002
0000
0000
0013
0000
0100
2000
0000
0000
3010
0000
0000
,  // measure 60
1100
0000
0001
0100
0000
0000
0002
0000
0000
1003
0000
0100
,  // measure 61
0020
0000
0000
0031
0000
1000
0020
0000
0000
1030
0000
0000
,  // measure 62
0200
0000
0000
0301
0000
0000
1000
0000
0100
0001
0000
0000
,  // measure 63
1000
0000
0010
0001
0000
0000
0021
0000
0000
0031
0000
1000
,  // measure 64
0020
0000
0000
1030
0000
0001
0200
0000
0000
0310
0000
0000
,  // measure 65
1010
0000
1000
0001
0000
0000
2000
0000
0000
3010
0000
1000
,  // measure 66
0200
0000
0000
0310
0000
0001
0200
0000
0000
0310
0000
0000
,  // measure 67
0101
0000
0001
1000
0000
0000
0020
0000
0000
0130
0000
0010
,  // measure 68
0200
0000
0000
0301
0000
1000
0002
0000
0000
0013
0000
0000
,  // measure 69
2000
0000
0000
3100
0000
0000
0010
0000
0100
1000
0000
0000
,  // measure 70
0010
0000
0100
0001
0000
0000
1001
0000
0000
0000
0000
0000
;

//---------------dance-single - ----------------
#NOTES:
     dance-single:
     :
     Medium:
     8:
     0.435886,0.457032,0.414895,0.172873,0.600733,353.000000,305.000000,48.000000,20.000000,0.000000,0.000000,0.435886,0.457032,0.414895,0.172873,0.600733,353.000000,305.000000,48.000000,20.000000,0.000000,0.000000:
0000
0000
0000
0000
,
0000
0000
0000
0000
,
0010
0000
0000
0100
0000
0000
0000
0000
0001
1000
0000
0000
,
0001
0000
0000
0100
0000
0000
0000
0000
0010
1000
0000
0000
,
0100
0000
0000
1000
0000
0000
0000
0000
0001
0010
0000
0000
,
1000
0000
0000
0001
0000
0000
0000
0000
0100
0010
0000
0000
,
1001
0000
0000
0000
0000
0010
0000
0000
0100
0000
0000
0001
,
0000
0000
1000
0000
0000
0100
0000
0000
0010
0000
0000
0001
,
0100
0000
0000
0000
0000
1000
0000
0000
0001
0000
0000
0100
,
0000
0000
0010
0000
0000
1000
0000
0000
0100
0000
0000
0001
,
0100
0000
0000
0000
0000
0100
0010
0000
0100
0000
0000
0001
,
0000
0000
0010
0000
0000
0100
0000
0000
1000
0000
0000
0001
,
1000
0000
0000
0000
0000
1000
0000
0000
0001
0100
0000
0001
,
0000
0000
0010
0000
0000
0100
0000
0000
1000
0000
0000
0001
,
0100
0000
0000
0010
0000
1000
0000
0000
1100
0000
0000
0001
,
0100
0100
1001
0110
,
0010
0000
0000
1000
0000
0001
0000
0000
0011
0000
0000
0100
,
1000
1000
0101
1100
,
0001
0000
0000
1000
0000
0010
0000
0000
0110
0000
0000
0100
,
0001
0011
1000
1010
,
0001
0000
0100
0001
0000
0000
1000
0000
0100
1000
0000
0000
,
0020
0000
0000
1030
0000
0000
0000
0000
0001
0100
0000
0000
,
0002
0000
0000
1003
0000
0000
0000
0000
0100
0010
0000
0000
,
0110
0000
0000
0000
0000
1000
0000
0000
0001
0000
0000
0010
,
0000
0000
0010
0000
0000
0001
0000
0000
0100
0000
0000
1000
,
0001
0000
0000
0000
0000
0010
0000
0000
0001
0000
0000
1000
,
0000
0000
1000
0000
0000
0001
0000
0000
0100
0000
0000
0010
,
0100
0000
0000
0000
0000
0100
0001
0000
0000
1000
0000
0001
,
0000
0000
0010
0000
0000
0001
0000
0000
0100
0000
0000
0010
,
1000
0000
0000
0000
0000
1000
0001
0000
0100
0000
0000
0001
,
0000
0000
0001
0000
0000
0010
0000
0000
0100
0000
0000
1000
,
0010
0000
0000
1000
0000
0100
0000
0000
1100
0000
0000
0001
,
2000
3100
1100
0011
,
0100
0000
0000
0001
0000
0010
0000
0000
0110
0000
0000
1000
,
0200
1300
1010
0011
,
0100
0000
0000
1000
0000
0001
0000
0000
0011
0000
0000
0010
,
0001
1100
1000
0101
,
0010
0000
0100
0010
0000
0000
1000
0000
0001
1000
0000
0000
,
0011
0000
0000
1100
0000
0000
0000
0000
1000
0100
0000
0000
,
1000
0000
1000
0001
0000
0001
0100
0000
0100
0000
0100
0000
,
0010
1100
0010
0101
,
0002
0023
0230
2300
,
3100
1010
0100
0011
,
2000
3200
0320
0032
,
1003
1001
0001
0110
,
0010
0010
2000
3002
,
0203
0320
1030
0100
,
0000
0000
0010
0001
0000
0000
0100
0000
0000
0010
0000
0000
,
0000
0000
1000
0001
0000
0000
1001
0000
0000
0010
0000
0010
,
0000
0000
1000
0000
0000
0001
0000
0000
0100
0000
0000
0010
,
0000
0000
0100
0000
0000
0001
1000
0000
0000
0000
0000
0100
,
0000
0000
1000
0000
0000
0010
0000
0000
0100
0000
0000
0001
,
0000
0000
1000
0000
0000
0001
0010
0000
0000
0000
0000
0010
,
0001
0000
0000
0100
0000
0001
0000
0000
1000
0000
0000
1000
,
0000
0000
0010
0000
0000
0100
0010
0000
0000
0000
0000
1000
,
0100
0000
1000
0000
0000
0010
0000
0000
0100
0000
0000
0001
,
0000
0000
1000
0000
0000
0001
0010
0000
0000
0001
0000
1000
,
0000
0000
1100
0000
0000
0010
0200
0000
0000
0310
0000
0000
,
1001
0000
0000
0011
0000
0000
0100
0000
0000
0001
0000
1000
,
0000
0000
0011
0000
0000
0010
0002
0000
0000
1003
0000
0000
,
0110
0000
0000
1010
0000
0000
0100
0000
0000
1000
0000
0001
,
0000
0000
0101
0000
0000
0010
1000
0000
0000
1100
0000
0000
,
0001
0000
0000
0101
0000
0000
0010
0000
1000
0010
0000
0000
,
0100
0000
0001
0100
0000
0000
0010
0000
0000
0100
0000
0001
,
0000
0000
0101
0000
0000
1000
0020
0000
0000
0130
0000
0000
,
0110
0000
0000
0101
0000
0000
0001
0000
0000
1000
0000
0010
,
0000
0000
1001
0000
0000
0100
2000
0000
0000
3100
0000
0000
,
0011
0000
0000
0101
0000
0000
0010
0000
0000
1000
0000
0001
,
0000
0000
1100
0000
0000
0100
1000
0000
0000
0011
0000
0000
,
0100
0000
0000
1010
0000
0000
1000
0000
0001
0100
0000
0000
,
0001
0000
1000
0100
0000
0000
1001
0000
0000
0000
0000
0000
;

//---------------dance-single - ----------------
#NOTES:
     dance-single:
     :
     Easy:
     5:
     0.284005,0.335157,0.250666,0.000000,0.000000,230.000000,201.000000,29.000000,0.000000,0.000000,0.000000,0.284005,0.335157,0.250666,0.000000,0.000000,230.000000,201.000000,29.000000,0.000000,0.000000,0.000000:
0000
0000
0000
0000
,
0000
0000
0000
0000
,
0010
0100
0000
0000
,
0001
1000
0000
0000
,
0001
0010
0000
0000
,
0100
1000
0000
0000
,
0010
0000
1000
0000
,
0001
0001
1000
1000
,
0100
0000
0010
0000
,
0100
0100
1000
1000
,
0010
0000
0100
0000
,
1000
1000
0001
0001
,
0100
0000
0010
0000
,
0001
1000
0010
0100
,
0001
1001
1000
1001
,
0010
0000
0010
0000
,
1000
0110
0001
0110
,
1000
0000
0100
0000
,
1000
1001
0001
0110
,
0100
0000
0100
0000
,
0001
0010
0100
1000
,
0010
1000
0000
0000
,
0001
0100
0000
0000
,
0001
0000
1000
0000
,
0010
0010
0100
0100
,
0010
0000
1000
0000
,
0100
0100
0010
0010
,
0001
0000
0100
0000
,
1000
1000
0010
0010
,
0100
0000
0010
0000
,
0100
0100
0001
0001
,
0010
1001
0100
1001
,
0001
0000
1000
0000
,
0100
0110
0010
0110
,
0100
0000
1000
0000
,
0010
0110
0100
1001
,
0001
0000
0100
0000
,
1000
0100
0010
0001
,
0100
0010
0000
0000
,
1001
0110
1001
0110
,
0000
1000
0000
0001
,
0100
0100
0100
0100
,
0000
0010
0000
0100
,
0001
0001
0001
0001
,
0000
0100
0000
0010
,
1000
1000
1000
1000
,
0000
0000
0001
1000
,
0000
0000
0010
0100
,
0000
0000
0010
0000
,
1000
0000
0100
0010
,
0100
1000
0010
0000
,
0100
0000
0001
1000
,
0001
0100
1000
0000
,
0010
0000
0100
0001
,
0100
0010
1000
0000
,
0001
0000
0010
0001
,
0100
1000
0010
1001
,
0100
1001
1000
0000
,
0001
0000
1000
1001
,
0001
1001
0010
0000
,
0010
0000
0100
1001
,
0001
1001
1000
0000
,
1000
0000
0010
1000
,
0001
0100
0010
0110
,
0100
0110
0001
0000
,
0001
0000
1000
0110
,
0001
0110
1000
0000
,
0010
0000
0010
0110
,
1000
0110
0001
0000
,
0001
0000
1000
0001
,
0100
0010
1001
0000
;

//---------------dance-single - ----------------
#NOTES:
     dance-single:
     :
     Beginner:
     2:
     0.133359,0.182813,0.077793,0.000000,0.000000,108.000000,99.000000,9.000000,0.000000,0.000000,0.000000,0.133359,0.182813,0.077793,0.000000,0.000000,108.000000,99.000000,9.000000,0.000000,0.000000,0.000000:
0000
0000
0000
0000
,
0000
0000
0000
0000
,
0010
0000
0000
0000
,
0100
0000
0000
0000
,
0001
0000
0000
0000
,
1000
0000
0000
0000
,
0010
0000
0000
0000
,
0100
0000
0100
0000
,
0100
0000
0000
0000
,
0001
0000
0001
0000
,
0001
0000
0000
0000
,
1000
0000
1000
0000
,
1000
0000
0000
0000
,
0010
0000
0010
0000
,
0000
0100
0000
0100
,
0000
0000
1001
0000
,
0000
0010
0000
0010
,
0000
0000
1001
0000
,
0000
1000
0000
1000
,
0000
0000
0000
0000
,
0001
0000
0001
0000
,
1000
0000
0000
0000
,
0001
0000
0000
0000
,
0100
0000
0000
0000
,
0010
0000
0010
0000
,
1000
0000
0000
0000
,
0001
0000
0001
0000
,
0010
0000
0000
0000
,
1000
0000
1000
0000
,
0001
0000
0000
0000
,
0100
0000
0100
0000
,
0000
0001
0000
0001
,
0000
0000
1001
0000
,
0000
1000
0000
1000
,
0000
0000
1001
0000
,
0000
0010
0000
0010
,
0000
0000
0000
0000
,
0100
0000
0100
0000
,
0001
0000
0000
0000
,
0010
0010
0010
0010
,
0000
0000
0001
0000
,
1000
0000
0001
0000
,
0000
0000
0100
0000
,
0010
0000
0100
0000
,
0000
0000
0010
0000
,
1000
0000
0001
0000
,
0000
0000
0100
0000
,
0000
0000
0010
0000
,
0000
0000
1000
0000
,
0000
0000
0100
0000
,
0010
0000
0001
0000
,
0000
0000
0001
0000
,
0010
0000
0100
0000
,
0000
0000
1000
0000
,
1000
0000
0100
0000
,
0000
0000
0010
0000
,
0001
0000
0000
0100
,
0000
0100
0000
0000
,
1001
0000
0000
1000
,
0000
1000
0000
0000
,
1001
0000
0000
0001
,
0000
0001
0000
0000
,
0000
0000
0010
0000
,
0010
0000
0000
0010
,
0000
0100
0000
0000
,
1001
0000
0000
0001
,
0000
1000
0000
0000
,
1001
0000
0000
1000
,
0000
0100
0000
0000
,
0000
0000
0010
0000
,
0001
0000
1001
0000
;
