#TITLE:Snow Garland Fairy;
#ARTIST:BEMANI Sound Team "KE!JU";
#BANNER:Snow Garland Fairy.png;
#BACKGROUND:Snow Garland Fairy-bg.png;
#JACKET:Snow Garland Fairy-jacket.png;
#MUSIC:Snow Garland Fairy.ogg;
#SAMPLESTART:21.001;
#SAMPLELENGTH:20;
#DISPLAYBPM:200;
#BPMS:0=200;
#BGCHANGES:;

//---------------dance-single - ----------------
#NOTES:
     dance-single:
     :
     Beginner:
     3:
     :
0000
0000
0000
0000
,
0000
0000
0000
0000
,
0000
0000
0000
0000
,
0000
0000
0000
0000
,
0000
0000
0000
0000
,
0000
0000
0000
0000
,
0000
0000
0000
0000
,
0000
0000
0000
0000
,
0000
0000
0000
0000
,
0000
0000
0000
0000
,
1000
0000
0000
0000
,
0100
0000
0000
0000
,
0010
0000
0000
0000
,
0000
0000
0000
0000
,
0001
0000
0000
0000
,
0100
0000
0000
0000
,
0010
0000
0000
0000
,
0000
0000
0000
0000
,
1000
0000
0100
0000
,
1000
0000
0000
0000
,
0010
0000
0000
0000
,
0000
0000
0000
0000
,
1000
0000
0010
0000
,
1000
0000
0000
0000
,
0100
0000
0000
0000
,
0000
0000
0000
0000
,
0001
0000
0100
0000
,
0001
0000
0000
0000
,
0010
0000
0000
0000
,
0000
0000
0000
0000
,
0001
0000
0010
0000
,
0001
0000
0000
0000
,
0100
0000
0000
0000
,
0000
0000
0000
0000
,
0020
0000
0000
0000
,
0030
0000
0000
0000
,
0010
0000
0000
0000
,
0010
0000
0000
0000
,
0200
0000
0000
0000
,
0300
0000
0000
0000
,
0100
0000
0000
0000
,
0100
0000
0000
0000
,
1000
0000
1000
0000
,
0010
0000
0000
0000
,
0100
0000
0000
0000
,
0000
0000
0000
0000
,
0001
0000
0001
0000
,
0010
0000
0000
0000
,
0100
0000
0000
0000
,
0000
0000
0000
0000
,
0001
0000
0000
0000
,
0100
0000
0000
0000
,
0001
0000
0001
0000
,
0010
0000
0000
0000
,
0100
0000
0000
0000
,
0010
0000
0000
0000
,
1001
0000
0000
0000
,
0000
0000
0000
0000
,
1000
0000
0000
0000
,
0100
0000
0000
0000
,
1000
0000
1000
0000
,
0010
0000
0000
0000
,
0100
0000
0000
0000
,
0010
0000
0000
0000
,
1001
0000
0000
0000
,
0000
0000
0000
0000
,
1000
0000
0000
0000
,
0100
0000
0000
0000
,
0010
0000
0010
0000
,
1000
0000
0000
0000
,
0010
0000
0000
0000
,
0001
0000
0000
0000
,
1001
0000
0000
0000
,
0000
0000
0000
0000
,
0001
0000
0000
0000
,
0010
0000
0000
0000
,
0100
0000
0100
0000
,
0001
0000
0000
0000
,
0100
0000
0000
0000
,
1000
0000
0000
0000
,
1001
0000
0000
0000
,
0000
0000
0000
0000
,
1001
0000
0000
0000
,
0000
0000
0000
0000
;

//---------------dance-single - ----------------
#NOTES:
     dance-single:
     :
     Easy:
     8:
     :
0000
0000
0000
0000
,
0000
0000
0000
0000
,
0000
0000
0000
0000
,
0000
0000
0000
0000
,
0000
0000
0000
0000
,
0000
0000
0000
0000
,
0000
0000
0000
0000
,
0000
0000
0000
0000
,
0000
0000
0000
0000
,
0000
0000
0000
0000
,
2000
0000
0000
3000
,
0020
0000
0000
0030
,
0200
0000
0000
0300
,
0001
1000
0001
0000
,
0002
0000
0000
0003
,
0020
0000
0000
0030
,
0200
0000
0000
0300
,
1001
0000
0000
0000
,
1000
0010
1000
0010
,
0100
0001
1000
0000
,
0001
0010
0001
0010
,
0100
1000
0001
0000
,
1000
0010
0100
0001
,
0100
0010
1000
0000
,
0001
0001
0010
0000
,
0100
0100
1000
0000
,
0001
0010
0001
0010
,
0100
1000
0001
0000
,
1000
0010
1000
0010
,
0100
0001
1000
0000
,
0001
0010
0100
1000
,
0100
0010
0001
0000
,
1000
1000
0010
0000
,
0100
0100
0001
0000
,
0002
0000
0000
0003
,
2000
0000
0000
3000
,
0020
0000
0000
0030
,
0100
0100
0010
0000
,
2000
0000
0000
3000
,
0002
0000
0000
0003
,
0020
0000
0000
0030
,
0100
0100
0010
0000
,
0001
0100
0001
0000
,
1000
0100
1000
0000
,
0001
0010
0001
0000
,
1000
0010
1000
0000
,
0001
0100
0010
0100
,
0001
0010
0100
1000
,
0010
0100
0010
0100
,
0220
0000
0000
0330
,
1000
0001
0010
0100
,
1000
0010
0100
0010
,
1000
0100
0010
0001
,
0100
1000
0100
0000
,
0001
1000
0010
0100
,
0001
0010
0100
0010
,
0001
0100
0010
1000
,
0100
0001
0100
0000
,
1000
0001
0010
0001
,
0100
0001
0010
0100
,
1000
0010
0001
0010
,
1000
0001
0100
0000
,
0001
1000
0010
1000
,
0100
1000
0010
0100
,
0001
0010
1000
0010
,
0001
1000
0100
0000
,
1000
1000
0010
0000
,
0001
0001
0010
0000
,
1000
0100
0010
0000
,
0001
0100
0010
0000
,
1000
0010
0100
0001
,
0010
0100
1000
0010
,
0100
0001
1000
0100
,
1000
0001
1001
0000
,
1000
1000
0100
0000
,
0001
0001
0100
0000
,
1000
0000
0000
1010
0000
0000
0001
0000
,
0000
0011
0000
0000
1001
0000
0000
0000
,
1000
0100
0010
0001
,
0100
0010
1000
0100
,
0020
0000
0031
0000
,
2000
0000
3100
0000
,
2002
0000
0000
3003
,
0000
0000
0000
0000
;

//---------------dance-single - ----------------
#NOTES:
     dance-single:
     :
     Medium:
     13:
     :
0000
0000
0000
0000
,
0000
0000
0000
0000
,
0000
0000
0000
0000
,
0000
0000
0000
0000
,
0000
0000
0000
0000
,
0000
0000
0000
0000
,
0000
0000
0000
0000
,
0000
0000
0000
0000
,
0000
0000
0000
0000
,
0000
0000
0000
0000
,
2000
0000
0000
0000
,
3200
0000
0320
0000
,
0032
0000
0000
0003
,
0002
0000
2003
0000
,
3020
0000
0000
0000
,
0230
0000
0302
0000
,
1003
0001
1000
0001
1000
0001
1000
0001
,
1000
0000
0000
0000
0001
0010
0100
1000
,
0001
0000
0100
0010
0000
1000
0010
2000
,
0000
0000
3001
0000
1000
0100
0010
0001
,
1000
0000
0010
0100
0000
0001
0100
0002
,
0000
0000
1003
0000
0001
1000
0001
0000
,
0100
0000
0010
1000
0000
0100
0010
0100
,
0000
1000
0002
0000
0023
0000
0230
0000
,
1300
0000
0000
1000
0000
0000
0000
0000
0010
0000
0000
0010
0000
0000
0000
0000
,
0100
0000
0000
0100
0000
0000
0000
0000
0001
0000
0100
0000
0010
0000
1000
0000
,
0001
0000
0010
0100
0000
1000
0100
2000
,
0000
0000
3001
0000
1000
0010
0100
0001
,
1000
0000
0100
0010
0000
0001
0010
0002
,
0000
2003
0000
3020
0000
0000
1030
0000
,
0001
0000
0010
0100
0000
0000
1000
0000
0100
0010
0000
0000
,
0001
0000
0100
0010
0000
0000
1000
0000
0010
0100
0000
0000
,
0002
0100
0100
0103
,
0020
0000
2000
3030
,
2000
0000
0000
0000
,
3002
0000
0000
0000
,
0203
0000
0000
0000
,
0310
0000
1000
0000
0001
0100
1000
0100
,
0002
0000
0000
0000
,
0023
0000
0000
0000
,
0230
0000
0000
0000
,
1300
0001
1000
0100
1000
0001
1000
0000
,
0001
0000
0010
0000
1000
0010
0001
0000
,
1000
0000
0100
0000
0001
0100
1000
0000
,
0001
0000
0100
0000
1000
0100
0001
0000
,
1000
0000
0010
0000
0001
0010
1000
0000
,
0001
0100
0001
0100
0010
1000
0010
0000
,
1000
0100
1000
0100
0010
0001
0010
0000
,
0001
1000
0010
0100
0001
0100
0010
1000
,
0001
0010
0100
1000
0001
1000
0001
0000
,
1000
0010
0100
0010
1000
0100
0010
0001
,
0100
0010
1000
0001
0100
0010
1000
0001
,
0010
0100
0010
0001
1000
0100
0010
0100
,
1000
0001
0100
0010
0100
0001
1000
0000
,
0001
0100
0010
0100
0001
0010
0100
1000
,
0010
0100
0001
1000
0010
0100
0001
1000
,
0100
0010
0100
1000
0001
0010
0100
0010
,
0001
1000
0010
0100
0010
1000
0001
0000
,
1000
0100
0010
0001
0100
0010
0001
0010
,
1000
0001
0100
0010
1000
0001
0010
0001
,
1000
0010
0000
0110
0000
0100
0001
0010
,
0001
1000
0100
0010
0001
0100
0001
0010
,
0001
1000
0010
0100
0001
0010
0100
0001
,
0100
0010
0001
1000
0010
0100
0010
1000
,
0100
0000
0010
0001
0000
0001
1000
0010
,
0200
0001
1000
0301
,
1000
0000
0000
0010
0000
0000
0100
0000
0001
0000
0000
0100
0000
0000
0010
0000
,
1000
0000
0000
0010
0000
0000
0100
0000
0001
0000
1000
0000
0100
0000
0010
0000
,
0001
0000
0000
1000
0000
0000
0100
0000
1000
0000
0000
0001
0000
0000
0100
0000
,
0001
0000
0000
1000
0000
0000
0100
0000
0010
0000
0001
0000
0100
0000
0001
0000
,
0010
0000
0000
0100
0000
0000
1000
0000
0010
0000
0000
0100
0000
0000
0001
0000
,
0010
0000
0000
0100
0000
0000
1000
0000
0010
0000
0100
0000
0001
0000
0100
0000
,
0010
1000
0010
0100
0001
0100
0001
0010
,
0001
0000
1000
0000
0001
0000
2002
0000
0000
3003
0000
0000
,
1000
0000
0000
0100
0000
0000
0100
0000
0010
0000
0000
0001
0000
0000
0001
0000
,
0100
0000
0000
0010
0000
0000
0010
0000
1000
0000
0000
0001
0000
0000
0001
0000
,
1000
0100
0000
0001
0100
0000
1000
0100
,
0000
0001
0100
0000
1000
0001
1000
0000
,
0001
0010
0100
1000
0001
0010
0100
1000
,
0010
1000
0001
0100
0010
1000
0001
0100
,
0020
0000
0000
0000
,
2030
0000
0002
3003
,
2002
0000
0000
3003
,
0000
0000
0000
0000
;

//---------------dance-single - ----------------
#NOTES:
     dance-single:
     :
     Hard:
     17:
     :
0000
0000
0000
0000
,
0000
0000
0000
0000
,
0000
0000
0000
0000
,
0000
0000
0000
0000
,
0000
0000
0000
0000
,
0000
0000
0000
0000
,
0000
0000
0000
0000
,
0000
0000
0000
0000
,
0000
0000
0000
0000
,
0000
0000
0000
0000
,
1000
1000
1000
1000
,
0100
0000
0100
0000
0100
0000
0100
0010
,
0001
0001
0001
0001
,
0100
0100
0010
0010
,
1000
0100
1000
0100
0010
0001
0010
0001
,
1000
0100
0010
0001
1000
0100
0010
0001
,
1000
0000
0001
1000
0001
0000
1000
0001
1000
0000
0010
0100
0010
0000
0000
0000
,
0110
0000
0000
0000
,
0001
0000
0100
0001
0000
0010
0001
1000
,
0000
0000
0010
0100
0010
0000
1000
0000
0100
0000
0010
0000
0001
0000
0100
0000
,
0010
0000
1000
0010
0000
0100
0010
1000
,
0000
0000
0100
0010
0100
0000
1000
0000
0001
0000
0010
0000
0100
0000
1000
0000
,
0010
0000
0100
0001
0000
0010
0001
1000
,
0000
0010
1000
0100
1000
0010
0100
0000
,
0001
0000
0000
0001
0000
0000
0001
0000
1000
0000
0000
1000
0000
0000
1000
0000
,
0100
0000
0000
0100
0000
0000
0100
0000
0010
0000
0001
0000
1000
0000
0100
0000
,
1000
0000
0010
1000
0000
0100
1000
0001
,
0000
0000
0100
0010
0100
0000
0001
0000
0010
0000
0100
0000
1000
0000
0010
0000
,
0100
0000
0001
0100
0000
0010
0100
0001
,
0000
0000
0010
0100
0010
0000
0001
0000
1000
0000
0100
0000
0010
0000
0001
0000
,
0100
0001
0100
0001
0000
0000
1000
0010
1000
0010
0000
0000
,
1000
0100
1000
0100
0000
0000
0010
0001
0010
0001
0000
0000
,
2000
0000
0000
0000
,
3020
0000
0200
0330
,
1000
0000
0001
0100
0000
0001
0100
0000
,
0001
0000
1000
0100
0000
1000
0100
0000
,
1000
0000
0001
0010
0000
0001
0010
0000
,
0001
0000
0100
0000
0010
1000
0100
0010
,
0001
0000
0100
0010
0000
0100
0010
0000
,
1000
0000
0100
0010
0100
0000
0010
0001
,
0010
0000
0001
1000
0000
0001
1000
0000
,
0010
0000
1000
0010
1000
0010
1000
0000
0001
0100
0001
0100
0001
0000
0000
0000
,
1000
0000
0001
0100
0001
0000
1000
0000
0100
0000
0010
0001
0010
0000
0001
0000
,
1000
0000
0100
1000
0100
0000
1000
0000
0001
0000
0100
0010
0100
0000
0001
0000
,
0010
0000
0100
1000
0100
0000
0010
0000
0001
0000
1000
0001
1000
0000
0100
0000
,
1000
0000
0010
0100
0010
0000
1000
0000
0001
0000
0100
0010
0100
0000
0001
0000
,
1000
0100
1000
0100
1000
0000
0010
0000
0100
0001
0100
0001
0100
0000
0010
0000
,
1000
0001
1000
0001
1000
0000
0100
0000
0010
0100
0010
0100
0010
0000
0001
0000
,
1000
0000
0100
1000
0100
0000
0010
0100
0010
0001
0010
0001
0010
0000
0001
0000
,
1000
0010
1000
0010
0100
0001
0100
0001
1000
0001
1000
0001
1000
0000
0000
0000
,
0001
0000
0100
0010
0100
0000
0001
0010
0000
0100
1000
0000
0001
0000
1000
0000
,
0010
0000
1000
0100
0000
1000
0100
0000
0010
0001
0000
0010
0100
0000
1000
0000
,
0001
0000
0100
0010
0000
1000
0001
1000
0000
0100
0010
0000
0001
0000
1000
0000
,
0001
0000
0010
0100
0000
1000
0001
0000
1000
0100
0000
0010
0001
0000
1000
0001
,
1000
0000
0100
0010
0000
0001
1000
0001
0000
0100
0001
0000
1000
0000
0001
0000
,
0010
0000
0001
0100
0000
0001
0100
0000
0010
1000
0000
0010
0100
0000
0001
0000
,
1000
0000
0100
0010
0000
0001
1000
0000
0001
0000
0100
0000
0010
0000
1000
0000
,
0001
0100
0001
0100
0010
1000
0010
1000
0001
1000
0001
1000
0001
0000
0000
0000
,
1000
0000
0010
0100
0010
0000
1000
0100
0000
0010
0001
0000
1000
0000
0010
0000
,
0100
0000
0001
0010
0000
0100
1000
0000
0001
1000
0000
0100
0010
0000
0001
0000
,
1000
0000
0010
0100
0000
0010
1000
0010
0000
0100
0001
0000
1000
0000
0100
0000
,
0010
0000
0001
1000
0000
0001
0100
0000
0010
1000
0000
0100
1000
0000
0001
1000
,
0001
0000
0100
0010
0000
1000
0010
1000
0000
0100
0010
0000
0001
0000
0100
0000
,
0001
0000
0010
0100
0000
1000
0100
0000
1000
0010
0000
0100
0001
0000
1000
0000
,
0002
0000
0000
0000
0103
0000
0010
0000
1000
0010
0100
0000
0010
0100
0001
0000
,
1000
0000
0100
0010
0100
0000
0010
0001
1000
0001
1000
0001
1000
0000
0000
0000
,
0001
0000
0100
0010
0000
1000
0010
0000
1000
0000
0100
0010
0000
0001
0010
0000
,
0001
0000
0100
0010
0000
1000
0010
0000
1000
0000
0001
0000
0010
0000
0100
0000
,
1000
0000
0010
0100
0000
0001
0010
0000
0001
0000
0010
0100
0000
1000
0010
0000
,
1000
0000
0010
0100
0000
0001
0010
0000
0001
0000
1000
0000
0010
0000
0100
0000
,
0001
0000
1000
0100
0000
0010
0001
0000
1000
0000
0001
0010
0000
0100
1000
0000
,
0001
0000
1000
0010
0000
0100
0001
0000
1000
0000
0001
0010
0000
0100
1000
0000
,
0001
0010
0100
1000
0001
0000
1000
0100
0010
0001
1000
0000
0001
0010
0100
1000
,
0001
0000
1000
0000
0001
0000
0100
0010
0100
0010
0100
0010
,
0100
0000
0001
0010
0000
0001
0100
0000
0010
0000
1000
0100
0000
1000
0010
0000
,
0100
0000
0001
0010
0000
0100
1000
0000
0010
0000
0100
0001
0000
1000
0010
0000
,
1000
0100
0000
0100
0010
0000
0010
0001
,
0000
0001
1000
0000
0110
0000
1001
0000
,
1000
0100
1000
0100
1000
0100
1000
0100
0010
0001
0010
0001
0010
0001
0010
0001
,
1000
0001
1000
0001
1000
0001
1000
0001
1000
0000
0000
0010
0000
0000
0100
0000
,
0020
0000
1000
0000
,
0130
0000
0001
1000
0001
0000
0100
0000
0010
0000
1000
0000
0100
0000
0010
0000
,
0002
0000
0000
0003
,
0000
0000
0000
0000
;

//---------------dance-single - ----------------
#NOTES:
     dance-single:
     :
     Challenge:
     18:
     :
0000
0000
0000
0000
,
0000
0000
0000
0000
,
0000
0000
0000
0000
,
0000
0000
0000
0000
,
0000
0000
0000
0000
,
0000
0000
0000
0000
,
0000
0000
0000
0000
,
0000
0000
0000
0000
,
1000
0100
0010
0100
1000
0100
0001
0000
,
0011
0000
0000
0000
0000
0000
0000
0000
1001
0000
0001
0100
0010
0000
1000
0000
,
1001
0000
0000
0010
1000
0000
0100
0000
0010
0000
0001
1000
0001
0000
0010
0100
,
1000
0000
0000
0001
0100
0000
0010
0000
1000
0000
0001
0010
0001
0000
1000
0100
,
0010
0000
0000
0001
1000
0000
0001
0000
0010
0000
0100
1000
0001
0000
0100
0010
,
0100
0000
0000
0001
1000
0000
0100
0000
0010
1000
0000
0100
0001
0000
0000
0000
,
0110
0000
0001
1000
0001
0000
0100
0000
0010
0000
1000
0100
1000
0000
0001
0000
,
0010
0000
0100
1000
0001
0000
0100
0000
0001
0000
0010
0001
1000
0000
0010
0000
,
1000
0000
0000
0100
0000
0000
0010
0000
0001
0000
0010
0000
0001
0000
0000
0100
0000
0000
0010
0000
1000
0000
0010
0000
1000
0000
0000
0100
0000
0000
1000
0000
0001
0000
1000
0000
0001
0000
0000
0010
0000
0000
0001
0000
0100
0000
0001
0000
,
0100
0000
0000
0000
0010
0100
0001
1000
,
0101
0010
1010
0101
0000
0011
0000
1100
,
0000
0100
1000
0000
0001
0000
0000
0000
0010
0000
0001
0000
0100
0000
1000
0000
,
0110
0001
0011
1100
0000
1001
0000
1010
,
0000
0000
0001
0100
1000
0000
0010
0000
1000
0000
0100
0000
0001
0000
0000
0000
,
0011
1000
0110
1001
0000
1100
0001
0011
,
0000
0000
0010
0100
1000
0000
0010
0000
0001
0000
1000
0000
0100
0000
0000
0000
,
0011
0000
0000
1100
0000
0000
0101
0000
1100
0000
0001
0100
1000
0000
0110
0000
,
1001
0000
0010
1000
0000
0100
0001
0000
0010
0000
0001
0100
0001
0000
1000
0000
,
1100
0001
0011
0110
1000
1010
0100
1001
,
0000
0000
0001
0010
1000
0000
0001
0000
0100
0010
0100
0010
1000
0000
0001
0000
,
0011
1000
1100
0101
0010
0110
0001
1100
,
0010
0000
0000
0000
0000
0000
0110
0000
0000
0000
0000
0000
1001
0000
0000
0000
0000
0000
0010
0000
0000
1000
0000
0000
0100
0000
0000
0000
0000
0000
1000
0000
0001
0000
1000
0000
0001
0000
0000
0000
0000
0000
0000
0000
0000
0000
0000
0000
,
0001
0100
0010
1000
1000
0100
0001
1000
0001
0010
0100
0010
,
0010
0100
0100
1000
1000
0001
0010
0001
0010
0001
0100
1000
,
0001
0000
0010
0100
1000
0000
0001
0100
1000
0000
0010
1000
0100
0000
1000
0001
,
0020
0000
0200
0330
,
1001
0000
0020
0200
0000
0000
0330
0000
,
0001
0000
0010
0000
1000
0000
0100
0000
1000
0010
1000
0000
0100
0000
0001
0010
,
0001
0000
1000
0000
0010
0000
1000
0000
0100
0010
0100
0000
1000
0000
0001
0010
,
0001
0000
0100
0000
0010
0000
0100
0000
0001
1000
0001
0000
1000
0010
1000
0010
,
0100
0000
0001
0000
0010
0000
1000
0000
0001
1000
0010
0000
0100
0000
0001
1000
,
0100
0000
0010
0000
0100
0000
0010
0000
0001
0100
1000
0000
0010
0000
1000
0001
,
0100
0000
0010
0000
1000
0000
0010
0000
0001
0010
1000
0000
0001
0000
0100
0001
,
1000
0000
0010
0100
0001
1000
0100
0000
0010
0000
0001
0100
1000
0000
0001
0010
,
1000
0000
0100
1000
0001
0000
0100
0000
0010
0000
1000
0100
1000
0000
0001
0000
,
0010
0000
0100
0010
0001
0000
1000
0000
0010
0100
0001
0100
1000
0000
0010
1000
,
0001
0000
0010
0001
1000
0000
0100
0000
0010
0000
0100
1000
0001
0000
0010
0000
,
0001
0000
1000
0010
0100
0000
0001
0000
0010
0100
0010
0100
1000
0001
1000
0001
,
0100
0000
0001
0010
0001
0000
1000
0000
0100
0000
0010
0100
1000
0000
0001
0000
,
0100
0000
0001
0010
0001
0000
1000
0000
0100
0010
0001
0100
1000
0000
0001
0010
,
1000
0000
0000
0100
0000
0000
0010
0000
0001
0000
0010
0000
0001
0000
0000
0100
0000
0000
1000
0000
0010
0000
1000
0000
0010
0000
0000
0100
0000
0000
0001
0000
1000
0000
0001
0000
1000
0000
0000
0010
0000
0000
0100
0000
0000
0001
0000
0000
,
0010
0000
0100
1000
0100
1000
0100
1000
0100
1000
0100
1000
0001
0000
0000
0000
,
0110
0000
0001
0000
0100
0000
0010
1000
0000
0100
0001
0000
0010
0000
1000
0000
,
0001
0000
0010
1000
0000
0001
0010
0000
1000
0100
0000
1000
0001
0000
0100
0000
,
0010
0000
1000
0100
0000
0001
1000
0000
0001
0010
0000
0001
0100
0000
1000
0000
,
0010
0000
1000
0100
0000
0010
0001
0000
0100
0010
0000
0001
1000
0000
0100
0000
,
0010
0000
0001
1000
0001
0000
0100
0010
0000
0010
1000
0000
0100
0000
0001
0000
,
0010
0001
0010
0100
1000
0000
0010
0000
0100
0001
0000
0001
1000
0000
0100
0000
,
0010
0000
0001
1000
0100
0000
0010
0000
0001
0000
0100
0000
1000
0000
0010
0000
,
0100
0001
1000
0000
0100
1000
0001
0000
0010
0001
0100
1000
0100
0001
1000
0010
,
0100
0000
0001
0010
1000
0000
0100
0000
1000
0010
1000
0000
0001
0010
0001
0000
,
0100
0010
1000
0100
0010
0001
1000
0000
0001
0100
0000
0010
1000
0100
0001
0000
,
0010
0001
0000
0010
0100
0001
1000
0000
0010
1000
0100
0000
1000
0001
0010
0000
,
1100
0000
0010
0100
0000
0001
1000
0000
0010
1000
0010
0100
0010
0001
0010
0000
,
1010
0000
0001
0010
0100
0000
1000
0001
0000
0001
0010
0000
0001
0000
1000
0000
,
0010
0100
0000
0001
0010
0000
1000
0001
0000
0010
1000
0000
0100
0000
0010
0000
,
0001
0100
1000
0100
0001
0000
0010
0000
1000
0100
0001
0000
1000
0000
0000
0000
,
0101
0000
0000
0000
1000
0010
0100
1000
0001
1000
0010
0001
0010
0100
0001
0100
,
0010
0000
0001
1000
0001
0000
0100
0000
0010
0000
1000
0100
0000
0100
0001
0000
,
0010
0000
0001
1000
0000
1000
0100
0000
1100
0000
0010
0000
0101
0000
0010
0000
,
1001
0000
0010
1000
0100
0001
0010
0000
0110
0000
0001
0010
1000
0001
0100
0000
,
1010
0000
0001
0010
0001
0100
1000
0000
0011
0000
0100
0000
1010
0000
0100
0000
,
1001
0000
0010
1000
0000
1000
0100
0000
0001
0000
0010
1000
0000
1000
0001
0000
,
0100
0000
0010
1000
0000
0001
0010
0000
0001
0000
0100
1000
0000
1000
0001
0000
,
0010
0001
0100
1000
0010
0000
1000
0100
0001
0010
1000
0000
0100
1000
0010
0001
,
0100
0000
0110
0000
0110
0000
0001
0001
0001
1000
1000
1000
,
0010
0000
1000
0100
1000
0001
0010
0000
0100
0000
0010
0001
0010
1000
0100
0000
,
1000
0000
0010
0100
0000
0100
0001
0000
0010
0000
0001
0100
0001
1000
0100
0000
,
1010
0000
0000
0011
0000
0000
1100
0000
0000
0101
0000
0000
1000
0100
0001
0000
,
0011
0000
0000
1100
0000
0000
0101
0000
0000
1010
0000
0001
1000
0000
0100
0000
,
1000
0001
0100
0010
0001
0010
0100
0010
1000
0001
1000
0100
0001
0100
0010
1000
,
0001
1000
0100
1000
0100
0010
0001
0010
0100
0000
1000
0001
0000
1000
0001
0000
,
0011
0001
0100
0010
1001
0100
1000
0001
,
0010
0000
0001
0100
0001
0000
1000
0000
0110
0000
1001
0000
0110
0000
0100
0000
,
2020
0000
0000
0000
,
0000
0000
0000
0000
,
3030
0000
0000
0000
;

//---------------dance-double - ----------------
#NOTES:
     dance-double:
     :
     Easy:
     8:
     :
00000000
00000000
00000000
00000000
,
00000000
00000000
00000000
00000000
,
00000000
00000000
00000000
00000000
,
00000000
00000000
00000000
00000000
,
00000000
00000000
00000000
00000000
,
00000000
00000000
00000000
00000000
,
00000000
00000000
00000000
00000000
,
00000000
00000000
00000000
00000000
,
00000000
00000000
00000000
00000000
,
00000000
00000000
00000000
00000000
,
00000002
00000000
00000000
00000003
,
00000200
00000000
00000000
00000300
,
00000020
00000000
00000000
00000030
,
00001000
00000010
00010000
00000000
,
00002000
00000000
00000000
00003000
,
00200000
00000000
00000000
00300000
,
00020000
00000000
00000000
00030000
,
01000000
00000000
00000000
00000000
,
10000000
00100000
10000000
00100000
,
01000000
00010000
01000000
00000000
,
00010000
00100000
00010000
00100000
,
00001000
00010000
00001000
00000000
,
00010000
00000100
00010000
00000100
,
00001000
00000010
00001000
00000000
,
00000100
00000100
00000010
00000000
,
00000001
00000001
00001000
00000000
,
00000001
00000100
00000001
00000100
,
00000010
00001000
00000010
00000000
,
00010000
00001000
00010000
00001000
,
01000000
00010000
01000000
00000000
,
00010000
00100000
01000000
00000000
,
10000000
00100000
01000000
00000000
,
00010000
00010000
00100000
00000000
,
00001000
00001000
00010000
00000000
,
00002000
00000000
00000000
00003000
,
00000020
00000000
00000000
00000030
,
00000002
00000000
00000000
00000003
,
00001000
00000001
00001000
00000000
,
00000002
00000000
00000000
00000003
,
00000200
00000000
00000000
00000300
,
00002000
00000000
00000000
00003000
,
00010000
00001000
00010000
00000000
,
00001000
00000000
00010000
00000000
,
01000000
00100000
01000000
00000000
,
10000000
00000000
00100000
00000000
,
00010000
00001000
00010000
00000000
,
00001000
00000000
00000010
00000000
,
00000001
00000010
00000001
00000000
,
00001000
00000010
00001000
00000100
,
00020000
00000000
00000000
00030000
,
00010000
00001000
00010000
00001000
,
00100000
00010000
01000000
00010000
,
00100000
01000000
10000000
00100000
,
10000000
01000000
00100000
00000000
,
00010000
10000000
00010000
10000000
,
00010000
00100000
00001000
00010000
,
00001000
00010000
00000010
00001000
,
00000100
00000010
00000001
00000000
,
00001000
00000001
00000100
00000001
,
00001000
00000010
00000100
00001000
,
00010000
00001000
00010000
00100000
,
01000000
00100000
10000000
00000000
,
00010000
01000000
00010000
00100000
,
01000000
10000000
01000000
00010000
,
00001000
00010000
00001000
00000010
,
00000001
00001000
00000010
00000000
,
00000110
00000000
00001001
00000000
,
00000001
00000100
00000010
00000000
,
00001000
00000010
00010000
00000000
,
00001000
00010000
00001000
00000000
,
00010000
00001000
00100000
01000000
,
00010000
00001000
00010000
00100000
,
01000000
00010000
00100000
00001000
,
00100000
00010000
10000000
00000000
,
01100000
00000000
10010000
00000000
,
10000000
01000000
00100000
00000000
,
00010000
00000000
00000000
00110000
00000000
00000000
00001000
00000000
,
00000000
00010000
00000000
00000000
00011000
00000000
00000000
00000000
,
00001000
00010000
00000010
00000100
,
00001000
00010000
00001000
00000010
,
00000200
00000000
00001300
00000000
,
00020000
00000000
00031000
00000000
,
00022000
00000000
00000000
00033000
,
00000000
00000000
00000000
00000000
;

//---------------dance-double - ----------------
#NOTES:
     dance-double:
     :
     Medium:
     13:
     :
00000000
00000000
00000000
00000000
,
00000000
00000000
00000000
00000000
,
00000000
00000000
00000000
00000000
,
00000000
00000000
00000000
00000000
,
00000000
00000000
00000000
00000000
,
00000000
00000000
00000000
00000000
,
00000000
00000000
00000000
00000000
,
00000000
00000000
00000000
00000000
,
00000000
00000000
00000000
00000000
,
00000000
00000000
00000000
00000000
,
00000002
00000000
00000000
00000000
,
00002003
00000000
00003020
00000000
,
00020030
00000000
00000000
00000000
,
00032000
00000000
00203000
00000000
,
00320000
00000000
00000000
00000000
,
02030000
00000000
03200000
00000000
,
10300000
00010000
10000000
00010000
10000000
00010000
10000000
00010000
,
10000000
00000000
00000000
00000000
10000000
01000000
00100000
00010000
,
00100000
00000000
00001000
00010000
00000000
00010000
00001000
00020000
,
00000000
00000000
00031000
00000000
00010000
00000100
00001000
00000100
,
00000010
00000000
00000001
00000100
00000000
00000100
00000010
00000200
,
00000000
00000000
00000301
00000000
00001000
00000001
00001000
00000000
,
00000100
00000000
00001000
00000010
00000000
00000010
00010000
00000010
,
00000000
00010000
00002000
00000000
00023000
00000000
00230000
00000000
,
01300000
00000000
00000000
01000000
00000000
00000000
00000000
00000000
00100000
00000000
00000000
00100000
00000000
00000000
00000000
00000000
,
10000000
00000000
00000000
10000000
00000000
00000000
00000000
00000000
00010000
00000000
00100000
00000000
01000000
00000000
10000000
00000000
,
00010000
00000000
00100000
01000000
00000000
01000000
00100000
00002000
,
00000000
00000000
00013000
00000000
00001000
00010000
00000100
00001000
,
00000100
00000000
00001000
00000010
00000000
00000010
00000100
00000002
,
00000000
00002003
00000000
00003200
00000000
00000000
00000310
00000000
,
00000001
00000000
00001000
00000001
00000000
00000000
00001000
00000000
00000100
00001000
00000000
00000000
,
00000100
00000000
00010000
00000100
00000000
00000000
00010000
00000000
00001000
00010000
00000000
00000000
,
00002000
01000000
01000000
01003000
,
00002000
00000000
00200000
00303000
,
00020000
00000000
00000000
00000000
,
20030000
00000000
00000000
00000000
,
32000000
00000000
00000000
00000000
,
03100000
00001000
00010000
00001000
,
00020000
00000000
00000000
00000000
,
00030020
00000000
00000000
00000000
,
00002030
00000000
00000000
00000000
,
00003010
00000100
00000010
00001000
00000001
00001000
00000001
00000000
,
00001000
00000000
00000100
00000000
00000010
00000001
00000010
00000000
,
00000100
00010000
00001000
00010000
,
01000000
00000000
00100000
00000000
00010000
10000000
00010000
00000000
,
01000000
00100000
10000000
00000000
,
10000000
01000000
10000000
00000000
00010000
00100000
00010000
00000000
,
01000000
00001000
01000000
00000000
00001000
00010000
00001000
00000000
,
00010000
00000100
00010000
00000100
00001000
00000010
00001000
00000010
,
00000100
00000010
00001000
00000100
00000010
00000001
00001000
00000000
,
00000001
00000010
00000100
00001000
00000010
00000100
00000010
00001000
,
00000100
00010000
00001000
00010000
00000100
00010000
00001000
00000000
,
00100000
00001000
00010000
00001000
01000000
00010000
00100000
01000000
,
10000000
00100000
01000000
00010000
00100000
01000000
10000000
00000000
,
00100000
01000000
00010000
00100000
00001000
00010000
00001000
00100000
,
00001000
00010000
00000100
00010000
00001000
00000010
00000001
00000000
,
00001000
00000000
00000100
00000000
00000001
00000100
00001000
00000000
,
00000001
00000010
00000100
00001000
00000100
00000010
00000001
00000000
,
00001000
00000010
00000100
00001000
00010000
00001000
00100000
00001000
,
00010000
00100000
01000000
00010000
00100000
01000000
00100000
00000000
,
00010000
00100000
01000000
00010000
00001000
00010000
00000010
00010000
,
00001000
00000010
00000100
00001000
00000010
00000100
00000010
00000000
,
00001000
00000001
00000100
00000010
00001000
00000010
00000100
00001000
,
00010000
00100000
10000000
00010000
01000000
00100000
10000000
00000000
,
01000000
00000000
00100000
00001000
00000000
00001000
00010000
00000000
,
00022000
00000000
00000000
00033000
,
00010000
00000000
00000000
00000100
00000000
00000000
00001000
00000000
00000010
00000000
00000000
00001000
00000000
00000000
00000100
00000000
,
00010000
00000000
00000000
00000100
00000000
00000000
00001000
00000000
00000010
00000000
00000100
00000000
00000001
00000000
00000000
00000000
,
00000100
00000000
00000000
00000001
00000000
00000000
00001000
00000000
00000100
00000000
00000000
00010000
00000000
00000000
00001000
00000000
,
01000000
00000000
00000000
00010000
00000000
00000000
10000000
00000000
01000000
00000000
00100000
00000000
01000000
00000000
00000000
00000000
,
10000000
00000000
00000000
00010000
00000000
00000000
00100000
00000000
01000000
00000000
00000000
10000000
00000000
00000000
00100000
00000000
,
01000000
00000000
00000000
00010000
00000000
00000000
00100000
00000000
00001000
00000000
00010000
00000000
00001000
00000000
00000000
00000000
,
00010000
00000010
00010000
00001000
00100000
00001000
00010000
00000100
,
00010000
00000000
00001000
00000000
01000000
00000000
00001000
00000000
00000000
00011000
00000000
00000000
,
00010000
00000000
00000000
00000010
00000000
00000000
00001000
00000000
00000100
00000000
00000000
00000010
00000000
00000000
00000001
00000000
,
00000100
00000000
00000000
00000010
00000000
00000000
00000100
00000000
00001000
00000000
00000000
00010000
00000000
00000000
00001000
00000000
,
00010000
00100000
00000000
10000000
00100000
00000000
10000000
01000000
,
00000000
00010000
01000000
00000000
10000000
00010000
10000000
00000000
,
00010000
10000000
00100000
01000000
00010000
00100000
01000000
00010000
,
00001000
00000010
00000100
00001000
00000010
00000100
00000001
00000000
,
00002000
00000000
00000000
00003000
,
00000020
00000000
00000200
00000330
,
00000220
00000000
00000000
00000330
,
00000000
00000000
00000000
00000000
;

//---------------dance-double - ----------------
#NOTES:
     dance-double:
     :
     Hard:
     17:
     :
00000000
00000000
00000000
00000000
,
00000000
00000000
00000000
00000000
,
00000000
00000000
00000000
00000000
,
00000000
00000000
00000000
00000000
,
00000000
00000000
00000000
00000000
,
00000000
00000000
00000000
00000000
,
00000000
00000000
00000000
00000000
,
00000000
00000000
00000000
00000000
,
00000000
00000000
00000000
00000000
,
00000000
00000000
00000000
00000000
,
00000001
00000001
00000001
00000001
,
00000100
00000000
00000100
00000000
00000100
00000000
00000100
00000010
,
00001000
00001000
00001000
00001000
,
00000100
00000100
00010000
00010000
,
00001000
01000000
00001000
01000000
00010000
00100000
00010000
00100000
,
01000000
10000000
00100000
01000000
00010000
00100000
01000000
10000000
,
00010000
00000000
00100000
00010000
00100000
00000000
00001000
00100000
00001000
00000000
00010000
00001000
00010000
00000000
00000000
00000000
,
00011000
00000000
00000000
00000000
,
00010000
00000000
00000010
00001000
00000000
00000100
00000010
00000001
,
00000000
00000000
00001000
00000001
00001000
00000000
00000010
00000000
00000100
00000000
00000010
00000000
00001000
00000000
00000010
00000000
,
00010000
00000000
00001000
00010000
00000000
01000000
00100000
01000000
,
00000000
00000000
10000000
00100000
10000000
00000000
01000000
00000000
00100000
00000000
00010000
00000000
01000000
00000000
00100000
00000000
,
00010000
00000000
00001000
00010000
00000000
00001000
00000010
00000001
,
00000000
00001000
00000100
00000010
00000001
00001000
00000001
00000000
,
00000010
00000000
00000000
00000001
00000000
00000000
00000001
00000000
00001000
00000000
00000000
00000010
00000000
00000000
00000010
00000000
,
00001000
00000000
00000000
00000100
00000000
00000000
00000100
00000000
00010000
00000000
00001000
00000000
00010000
00000000
00001000
00000000
,
01000000
00000000
00010000
00100000
00000000
00010000
10000000
01000000
,
00000000
00000000
00100000
01000000
00100000
00000000
00010000
00000000
10000000
00000000
00100000
00000000
01000000
00000000
00010000
00000000
,
01000000
00000000
00010000
00100000
00000000
00001000
00010000
00001000
,
00000000
00000000
00010000
00000100
00010000
00000000
00000100
00000000
00001000
00000000
00000010
00000000
00000100
00000000
00000001
00000000
,
00000010
00000001
00000010
00000001
00000000
00000000
00001000
00000100
00001000
00000100
00000000
00000000
,
00010000
00001000
00010000
00001000
00000000
00000000
01000000
00010000
01000000
00010000
00000000
00000000
,
00200000
00000000
00000000
00000000
,
00320000
00000000
20000000
30030000
,
10000000
00000000
00100000
01000000
00000000
00100000
01000000
00000000
,
00010000
00000000
00100000
01000000
00000000
00100000
01000000
00000000
,
10000000
00000000
01000000
00010000
00000000
00001000
00010000
00000000
,
00001000
00000000
00000010
00000000
00000001
00001000
00000100
00000010
,
00000001
00000000
00000100
00000010
00000000
00001000
00000010
00000000
,
00010000
00000000
00000100
00010000
00000100
00000000
00010000
00001000
,
00010000
00000000
00001000
01000000
00000000
00010000
01000000
00000000
,
00100000
00000000
10000000
00100000
10000000
00100000
10000000
00000000
00010000
01000000
00010000
01000000
00010000
00000000
00000000
00000000
,
10000000
00000000
01000000
00100000
01000000
00000000
00100000
00000000
00010000
00000000
00100000
00001000
00100000
00000000
00001000
00000000
,
00010000
00000000
00000100
00010000
00000100
00000000
00001000
00000000
00000100
00000000
00001000
00000010
00001000
00000000
00000010
00000000
,
00000100
00000000
00000001
00001000
00000001
00000000
00001000
00000000
00000100
00000000
00000010
00000001
00000010
00000000
00000001
00000000
,
00001000
00000000
00000100
00010000
00000100
00000000
00010000
00000000
00001000
00000000
01000000
00010000
01000000
00000000
00010000
00000000
,
00100000
01000000
00100000
01000000
00100000
00000000
00010000
00000000
10000000
01000000
10000000
01000000
10000000
00000000
00010000
00000000
,
00100000
00001000
00100000
00001000
00100000
00000000
00001000
00000000
00010000
00000100
00010000
00000100
00010000
00000000
00000010
00000000
,
00001000
00000000
00000100
00001000
00000100
00000000
00000010
00000100
00000010
00000000
00000001
00000010
00000001
00000010
00000001
00000000
,
00001000
00000000
00000010
00000100
00000010
00000100
00000001
00001000
00000001
00001000
00000100
00001000
00000100
00000000
00000000
00000000
,
00001000
00000000
00000001
00000100
00000001
00000000
00001000
00000010
00000000
00001000
00000010
00000000
00001000
00000000
00000100
00000000
,
00010000
00000000
00001000
00010000
00000000
00001000
00010000
00000000
00001000
01000000
00000000
00001000
01000000
00000000
00000000
00000000
,
00010000
00000000
10000000
01000000
00000000
10000000
00010000
10000000
00000000
00010000
00100000
00000000
00010000
00000000
01000000
00000000
,
00001000
00000000
00010000
00001000
00000000
00010000
00001000
00000000
00010000
00000100
00000000
00010000
00000100
00000000
00000000
00000000
,
00001000
00000000
00000010
00000100
00000000
00000001
00000100
00000001
00000000
00000010
00000001
00000000
00001000
00000000
00000100
00000000
,
00000010
00000000
00000100
00001000
00000000
00000100
00001000
00000000
00000100
00010000
00000000
00000100
00010000
00000000
00001000
00000000
,
00100000
00000000
00010000
01000000
00000000
00100000
02000000
00000000
00000000
00000000
03100000
00000000
10000000
00000000
00100000
00000000
,
01000000
00010000
01000000
00000000
00010000
00100000
00010000
00000000
00100000
00001000
00100000
00001000
00010000
00000000
00000000
00000000
,
00010000
00000000
00000010
00001000
00000010
00000000
00000100
00000010
00000000
00001000
00000010
00000000
00000100
00000000
00000001
00000000
,
00000010
00000000
00000100
00001000
00000000
00000100
00010000
00000000
00001000
00010000
00000000
00000100
00010000
00000000
00000000
00000000
,
00001000
00000000
01000000
00010000
00000000
00100000
00010000
00100000
00000000
01000000
10000000
00000000
00010000
00000000
01000000
00000000
,
00100000
00000000
10000000
00010000
00000000
01000000
00010000
00000000
00100000
00001000
00000000
00010000
00001000
00000000
00000000
00000000
,
00010000
00000000
00000100
00001000
00000000
00000010
00001000
00000010
00000000
00000100
00000001
00000000
00000010
00000000
00000100
00000000
,
00001000
00000000
00000001
00000100
00000000
00000010
00000100
00000000
00000010
00001000
00000000
00000100
00010000
00000000
00001000
00000000
,
00020000
00000000
00000000
00000000
01030000
00000000
00100000
00000000
00010000
10000000
01000000
00000000
00100000
00010000
10000000
00000000
,
00100000
00000000
01000000
00100000
01000000
00000000
00010000
01000000
00001000
00010000
00001000
00010000
00001000
00000000
00000000
00000000
,
00010000
00000000
00000100
00001000
00000000
00000010
00000100
00000000
00000001
00000000
00000100
00000010
00000000
00001000
00000100
00000000
,
00010000
00000000
00000100
00001000
00000000
00000010
00000100
00000000
00000001
00000000
00000010
00000000
00000100
00000000
00001000
00000000
,
00000010
00000000
00001000
00000100
00000000
00010000
00001000
00000000
00100000
00000000
00001000
00010000
00000000
00000100
00001000
00000000
,
00000010
00000000
00001000
00000100
00000000
00010000
00001000
00000000
00100000
00000000
00010000
00000000
01000000
00000000
00000000
00000000
,
00001000
00000000
00100000
00010000
00000000
01000000
00100000
00000000
10000000
00000000
00100000
01000000
00000000
00010000
00100000
00000000
,
00001000
00000000
00100000
00010000
00000000
01000000
00100000
00000000
10000000
00000000
00100000
01000000
00000000
00010000
00100000
00000000
,
00001000
00010000
00001000
00010000
00001000
00000000
00000010
00001000
00000010
00001000
00000010
00000000
00000001
00000010
00000001
00000010
,
00000001
00000000
00001000
00000000
00001000
00000000
00000010
00000100
00000010
00000100
00000010
00000100
,
00000010
00000000
00001000
00000100
00000000
00000010
00000001
00000000
00001000
00000000
00000001
00000010
00000000
00000100
00001000
00000000
,
00000010
00000000
00010000
00000100
00000000
00010000
00001000
00000000
00100000
00000000
00001000
00010000
00000000
00100000
01000000
00000000
,
00010000
00000000
00000000
00110000
00000000
00000000
10000000
00000000
,
00000000
11000000
00000000
00000000
01100000
00000000
10010000
00000000
,
10000000
01000000
10000000
00000000
01000000
00100000
01000000
00000000
00100000
00010000
00100000
00000000
00001000
00100000
00001000
00000000
,
00010000
00001000
00010000
00001000
00010000
00000100
00010000
00000100
00010000
00000000
00000000
00001000
00000000
00000000
00000010
00000000
,
00000002
00000000
00001000
00000000
,
00000103
00000000
00000010
00001000
00000010
00000000
00000100
00000000
00000001
00000000
00000100
00000000
00001000
00000000
00000000
00000000
,
00022000
00000000
00000000
00033000
,
00000000
00000000
00000000
00000000
;
