#TITLE:Situation Critical;
#SUBTITLE:;
#ARTIST:Big Idea;
#TITLETRANSLIT:;
#SUBTITLETRANSLIT:;
#ARTISTTRANSLIT:;
#GENRE:;
#CREDIT:;
#BANNER:Situation Critical-bn.png;
#BACKGROUND:Situation Critical-bg.png;
#LYRICSPATH:;
#CDTITLE:;
#MUSIC:Situation Critical.ogg;
#OFFSET:0.000000;
#SAMPLESTART:40.755600;
#SAMPLELENGTH:20.000000;
#SELECTABLE:YES;
#DISPLAYBPM:106.000000;
#BPMS:0.000000=106.000000
;
#STOPS:
;
#BGCHANGES:;
#KEYSOUNDS:;
#ATTACKS:;

//---------------dance-single - ----------------
#NOTES:
     dance-single:
     :
     Hard:
     12:
     0.566342,0.534285,0.341942,0.106857,0.480857,371.000000,339.000000,32.000000,10.000000,0.000000,0.000000,0.566342,0.534285,0.341942,0.106857,0.480857,371.000000,339.000000,32.000000,10.000000,0.000000,0.000000:
0000
0000
0000
0000
,
0000
0000
0000
0000
,
1001
0000
1000
0000
0100
0000
0010
0000
0001
0100
0001
0000
0000
0000
0010
0000
,
0100
1000
0100
0000
0000
0000
1000
0001
1000
0000
0010
0000
0100
0000
0001
0000
,
1001
0000
0010
0000
1000
0000
0100
0000
0010
0001
0010
0000
0100
0000
1000
0000
,
0010
0100
0010
0000
1000
0000
0001
0000
0100
0000
0010
0000
1000
0000
0001
0000
,
0011
0000
0100
0000
1000
0001
1000
0000
0010
0000
0100
0001
0100
0000
0010
0000
,
1010
0000
0100
0000
0001
1000
0001
0000
0010
0000
0100
1000
0100
0000
0010
0000
,
1001
0000
0010
0000
0100
0000
0001
1000
0001
0000
0010
0000
0100
0000
1000
0010
,
1000
0000
0001
0000
0100
0000
0010
1000
0010
0000
0100
0000
0001
0000
1000
0000
,
0110
0000
1000
0000
0002
0000
0000
0000
0013
0001
0010
0100
0000
1000
0001
0000
,
0200
0000
0000
0000
0300
0000
0001
1000
0100
0000
0010
0000
0100
0000
1000
0000
,
0110
0000
0001
0000
0100
0000
0001
0000
1000
0010
0100
0010
0000
1000
0001
0000
,
0010
0100
1000
0001
0000
1000
0100
0000
0010
0000
0001
0000
1000
0000
0100
0000
,
1100
0000
0001
0100
0001
0000
0010
0000
0100
0000
1000
0001
1000
0000
0010
0000
,
0101
0000
0010
0100
0001
0000
1000
0000
0001
0010
0001
0100
0001
0000
1000
0000
,
0110
0000
0100
0000
0001
1000
0001
0000
0100
0000
0010
0000
1000
0010
0100
0010
,
1000
0000
0001
0000
0010
0000
0001
0000
0100
0010
1000
0001
0100
0000
0010
0000
,
1010
0000
0001
0000
2000
0000
0000
0000
3100
0010
0100
1000
0000
0000
0001
0000
,
0101
0000
0010
0000
1000
0000
0010
0100
0000
0100
0001
0000
1000
0000
0001
0000
,
0011
0000
0010
0001
1000
0000
0010
0000
0100
0000
1000
0000
0100
0000
0001
0000
,
0010
0000
0001
1000
0010
0000
0100
0000
0001
0000
1000
0100
1000
0000
0010
0000
,
1002
0000
0000
0000
0103
0000
0010
1000
0000
0010
1000
0000
0100
0000
0010
0000
,
0012
0000
0000
0000
0103
0010
0100
0001
1000
0000
0000
0000
0010
0100
0010
0000
,
1001
0000
0000
0000
0100
0000
0001
1000
0000
0010
0000
1000
0000
0001
0100
0000
,
0110
0000
0000
0000
0010
0000
1000
0100
0000
0010
0000
0100
0000
1000
0001
0000
,
0101
0000
0010
0000
0200
0000
0000
0000
0301
1000
0001
0010
0000
0000
0100
0000
,
1100
0000
0010
0000
1000
0000
0001
0100
0000
0100
0010
0000
1000
0000
0001
0000
,
0101
0000
1000
0001
0100
0000
0010
0000
0100
0000
1000
0000
0100
0000
0001
0000
,
0110
0000
1000
0010
1000
0000
0100
0000
0001
0000
0010
0001
0100
0000
1000
0000
,
1002
0000
0000
0000
0103
0000
0001
1000
0001
0000
0000
0000
0010
0000
0100
0000
,
1200
0000
0000
0000
0310
0001
0010
0100
1000
0000
0000
0000
0001
0000
0100
0000
,
0110
0000
0000
0000
1000
0000
0010
0100
0000
0010
0000
1000
0000
0001
0100
0000
,
1001
0000
0000
0000
0001
0000
1000
0100
0000
0010
0001
1000
0001
0000
0100
0000
,
1020
0000
0000
0000
0130
0000
0010
1000
0000
1000
0001
0000
0100
0000
0010
0000
,
0201
0000
0000
0000
0301
0100
0010
0100
0001
0000
0000
0000
1000
0100
1000
0000
,
1001
0000
0000
0000
0010
0000
0100
0001
0000
0010
0000
0001
0000
1000
0100
0000
,
0110
0000
0000
0000
0010
0000
0001
1000
0000
0010
0000
1000
0000
0001
0010
0000
,
0011
0000
0000
0000
0100
0000
1000
0010
0000
1000
0000
0010
0000
0100
0001
0000
,
1010
0000
0000
0000
0001
0000
0010
0100
0000
0010
0000
0001
0000
1000
0100
0000
,
1100
0000
0000
0000
;

//---------------dance-single - ----------------
#NOTES:
     dance-single:
     :
     Medium:
     10:
     0.374000,0.363314,0.277828,0.000000,0.390028,245.000000,219.000000,26.000000,0.000000,0.000000,0.000000,0.374000,0.363314,0.277828,0.000000,0.390028,245.000000,219.000000,26.000000,0.000000,0.000000,0.000000:
0000
0000
0000
0000
,
0000
0000
0000
0000
,
1001
0000
0100
0000
0000
0000
0000
0000
0000
1000
0010
0000
0000
0000
0000
0000
,
0000
0100
0001
0000
0000
0000
0000
0000
1000
0001
1000
0000
0000
0000
0000
0000
,
1001
0000
0100
0000
0000
0000
0000
0000
0000
0010
0001
0000
0000
0000
0000
0000
,
0000
1000
0010
0000
0000
0000
0000
0000
0100
0010
0100
0000
0000
0000
0000
0000
,
0101
0000
0000
0000
0000
1000
0000
0000
0001
0000
0000
0010
0000
0000
0001
1000
,
0001
0000
0000
0000
0000
0100
0000
0000
0010
0000
0000
1000
0000
0000
0010
0100
,
0010
0000
0000
0000
0000
1000
0000
0000
0100
0000
0000
1000
0000
0000
0001
0100
,
0000
0000
0000
0000
0000
0010
0000
0000
0100
0000
0000
0001
0000
0000
1000
0100
,
1000
0000
0001
0000
0000
0000
0000
0000
0000
0010
0100
0000
0000
0000
0000
1000
,
0000
0100
1000
0000
0000
0000
0000
0000
0000
0001
0100
0000
0000
0000
0000
0000
,
1000
0010
1000
0000
0000
0000
0000
0000
0000
0100
0010
0000
0000
0000
0000
0000
,
0000
0001
1000
0000
0000
0000
0000
0000
0010
0100
0010
0000
0000
0000
0000
0000
,
0101
0000
0000
0000
0000
0010
0000
0000
0100
0000
0000
0001
0000
0000
1000
0100
,
1000
0000
0000
0000
0000
0001
0000
0000
0010
0000
0000
0001
0000
0000
0100
0010
,
0100
0000
0000
0000
0000
0001
0000
0000
1000
0000
0000
0100
0000
0000
0010
0001
,
0000
0000
0000
0000
0000
0000
0000
0000
1000
0010
1000
0010
1000
0000
0001
0000
,
1001
0000
0000
0000
0010
0000
0000
1000
0000
0000
0100
0000
1000
0000
0001
0000
,
0110
0000
0000
0000
0010
0000
0000
0100
0000
0000
0001
0000
1000
0000
0010
0000
,
1010
0000
0000
0000
0001
0000
0000
0010
0000
0000
0001
0000
1000
0000
0010
0000
,
0100
0000
0000
0000
0001
0000
0000
0010
0000
0000
0001
1000
0001
0000
0100
0000
,
0101
0000
0000
0000
0100
0000
0001
0010
0000
0000
0000
0000
0001
0000
1000
0000
,
1100
0000
0000
0000
0010
0000
0000
0001
0000
0000
1000
0000
0001
0000
0100
0000
,
1001
0000
0000
0000
0010
0000
0000
1000
0000
0100
0000
0010
0000
0000
0001
0000
,
1001
0000
0000
0000
0001
0000
0000
0010
0000
0001
0000
0100
0000
0000
0010
0000
,
1001
0000
0000
0000
0010
0000
0000
1000
0000
0000
0001
0000
1000
0000
0100
0000
,
0110
0000
0000
0000
0010
0000
0000
0001
0000
0000
0010
0000
0100
0000
1000
0000
,
1100
0000
0000
0000
0001
0000
0000
1000
0000
0000
0001
0000
0100
0000
0010
0000
,
0110
0000
0000
0000
1000
0000
0000
0001
0000
0000
0010
0100
0010
0000
0001
0000
,
0011
0000
0000
0000
0100
0000
0000
1000
0000
0000
0001
0000
1000
0000
0100
0000
,
1010
0000
0000
0000
0100
0000
0000
0001
0000
0000
0010
0000
0001
0000
1000
0000
,
0110
0000
0000
0000
0010
0000
0000
1000
0000
0000
0001
0000
0100
0000
0010
0000
,
1001
0000
0000
0000
0100
0000
0000
0010
0000
0000
1000
0001
1000
0000
0100
0000
,
0011
0000
0000
0000
0100
0000
0000
0001
0000
0000
0000
0000
1000
0000
0010
0000
,
0101
0000
0010
1000
0100
0000
1000
0001
,
1001
0000
0000
0000
0001
0000
0000
1000
0000
0010
0000
0100
0000
0000
0001
0000
,
0101
0000
0000
0000
1000
0000
0000
0001
0000
0010
0000
0100
0000
0000
1000
0000
,
1010
0000
0000
0000
0100
0000
0000
0001
0000
0010
0000
0001
0000
0000
1000
0000
,
1001
0000
0000
0000
0010
0000
0000
0001
0000
0100
0000
0001
0000
0000
1000
0000
,
1100
0000
0000
0000
;

//---------------dance-single - ----------------
#NOTES:
     dance-single:
     :
     Easy:
     6:
     0.267143,0.256457,0.341942,0.000000,0.000000,175.000000,143.000000,32.000000,0.000000,0.000000,0.000000,0.267143,0.256457,0.341942,0.000000,0.000000,175.000000,143.000000,32.000000,0.000000,0.000000,0.000000:
0000
0000
0000
0000
,
0000
0000
0000
0000
,
1001
0100
0001
0000
,
0010
0000
0100
1000
,
1001
0000
0010
0100
,
0010
1000
0100
0001
,
0101
0010
1000
0100
,
1100
0001
0100
0010
,
1001
0010
1000
0100
,
1000
0001
1000
0010
,
0110
0100
0001
0010
,
0001
0000
1000
0100
,
0110
0010
0001
1000
,
0001
0100
0010
1000
,
0101
1000
0100
1000
,
1100
0001
1000
0010
,
0110
0100
0001
0010
,
0001
0100
1000
0010
,
1001
0010
1000
0001
,
0110
0010
1000
0100
,
1001
0010
0001
0100
,
0001
0010
1000
0001
,
0101
0000
0000
0010
,
1100
0010
1000
0001
,
1001
0100
0010
0100
,
0110
0100
0010
0100
,
1001
0001
0010
1000
,
0110
1000
0010
1000
,
1001
0001
1000
0100
,
0110
0100
0010
0001
,
0101
0000
0000
0001
,
1100
0001
1000
0100
,
0110
1000
0001
1000
,
1001
1000
0001
1000
,
0101
0000
0000
0010
,
1100
0100
0010
0001
,
1001
0001
0010
0001
,
0110
1000
0100
1000
,
1001
0010
1000
0010
,
0110
0100
0001
0100
,
1001
0000
0000
0000
;

//---------------dance-single - ----------------
#NOTES:
     dance-single:
     :
     Beginner:
     2:
     0.129755,0.149600,0.256457,0.000000,0.000000,85.000000,61.000000,24.000000,0.000000,0.000000,0.000000,0.129755,0.149600,0.256457,0.000000,0.000000,85.000000,61.000000,24.000000,0.000000,0.000000,0.000000:
0000
0000
0000
0000
,
0000
0000
0000
0000
,
1001
0000
0100
0000
,
0010
0000
1000
0000
,
1001
0000
0001
0000
,
0010
0000
0100
0000
,
0110
0000
0000
0000
,
1001
0000
0000
0000
,
0110
0000
0001
0000
,
1000
0000
0010
0000
,
0110
0000
0100
0000
,
0001
0000
0010
0000
,
0110
0000
0010
0000
,
0001
0000
1000
0000
,
1001
0000
0000
0000
,
0110
0000
0000
0000
,
1001
0000
0010
0000
,
1000
0000
0001
0000
,
1001
0000
0000
0000
,
0100
0000
0000
0000
,
0010
0000
1000
0000
,
1000
0000
0001
0000
,
0110
0000
0000
0000
,
0001
0001
0001
0000
,
1001
0000
0000
0000
,
1001
0000
0000
0000
,
0110
0000
0000
0000
,
0100
0000
0000
0000
,
0001
0000
1000
0000
,
0001
0000
0100
0000
,
1001
0000
0000
0000
,
0010
0010
0010
0000
,
0110
0000
0000
0000
,
0110
0000
0000
0000
,
1001
0000
0000
0000
,
0100
0100
0100
0000
,
0110
0000
0000
0000
,
0110
0000
0000
0000
,
1001
0000
0000
0000
,
0110
0000
0000
0000
,
1001
0000
0000
0000
;

//---------------dance-single - ----------------
#NOTES:
     dance-single:
     :
     Challenge:
     14:
     0.696097,0.662513,0.427428,0.341942,0.956370,456.000000,416.000000,40.000000,32.000000,0.000000,0.000000,0.696097,0.662513,0.427428,0.341942,0.956370,456.000000,416.000000,40.000000,32.000000,0.000000,0.000000:
// measure 0
0000
0000
0000
0000
,  // measure 1
0000
0000
0000
0000
,  // measure 2
1001
0100
0000
0001
0000
1000
0010
0100
0010
1000
0001
0000
0000
0000
0010
0100
,  // measure 3
1000
0001
1000
0000
0000
0000
0010
0100
0002
0000
2003
0000
3020
0000
0130
0000
,  // measure 4
1001
0010
0000
0100
0000
0001
0000
1000
0100
0010
0100
1000
0000
0001
0000
0100
,  // measure 5
0001
1000
0001
0100
0000
0010
1000
0001
2000
0000
3200
0000
0320
0000
0031
0000
,  // measure 6
0101
0000
0001
0100
0010
1000
0002
0000
0203
0000
0310
1000
0001
0000
0010
0100
,  // measure 7
1100
0000
0001
1000
0001
0100
0020
0000
0130
0001
1000
0001
1000
0000
0100
0010
,  // measure 8
1001
0000
0001
0100
0010
0100
0010
1000
0100
0010
0100
0001
0100
1000
0001
1000
,  // measure 9
0001
0100
0010
0100
0001
0000
1000
0010
0100
0010
0001
0010
1000
0000
0001
0000
,  // measure 10
0110
0000
1000
0000
0002
0000
0000
0013
0001
0100
0010
1000
0000
0100
0010
0000
,  // measure 11
0001
1000
0200
0000
0000
1300
0010
0100
0002
0000
2003
0000
3200
0000
0310
0000
,  // measure 12
0110
0001
0000
1000
0000
0001
0000
0100
0010
1000
0010
0100
0000
0001
1000
0000
,  // measure 13
0001
0010
0100
1000
0000
0000
0010
0100
0020
0000
2030
0000
3002
0000
0103
0000
,  // measure 14
1010
0000
0100
0010
0100
0001
2000
0000
3200
0000
0310
0001
1000
0000
0001
0100
,  // measure 15
0101
0000
0010
1000
0100
1000
0002
0000
0013
0100
0010
0001
1000
0000
0010
1000
,  // measure 16
0110
0000
0001
0100
0010
0100
0001
1000
0100
0010
0100
0001
0100
0010
0100
1000
,  // measure 17
0010
0100
0010
1000
0001
0000
0100
0010
0100
1000
0100
0001
0010
0000
0100
0000
,  // measure 18
1100
0000
0000
0000
0000
0000
0010
0000
0000
0000
0000
0000
2002
0000
0000
0000
3000
0000
0000
0000
0000
0103
0000
0000
0001
0000
0000
1000
0000
0000
0001
0000
0000
0010
0000
0000
0000
0000
0000
0100
0000
0000
1000
0000
0000
0000
0000
0000
,  // measure 19
0110
0000
0001
0000
1000
0010
1000
0200
0000
0000
0310
0001
0000
1000
0010
0000
,  // measure 20
0101
0000
0100
0001
0010
0000
0100
1000
0000
0001
0000
1000
0000
0100
0000
0010
,  // measure 21
0000
0000
0001
0100
0010
0100
0001
1000
0000
0000
0010
1000
0010
0000
0100
0000
,  // measure 22
1010
0000
0000
0000
0011
0000
0100
1000
0000
0010
1000
0001
1000
0100
0010
0000
,  // measure 23
0110
0000
0000
0000
0001
0100
0010
1000
0001
0000
0100
0000
0001
0010
0100
1000
,  // measure 24
1001
0000
0000
0000
1010
0000
0001
1000
0002
0100
0000
0010
0000
1003
0001
0000
,  // measure 25
0101
0000
0000
0000
1010
0000
0100
1000
0002
1000
0000
0010
0000
0103
0001
0000
,  // measure 26
0011
0000
0000
0000
0000
0000
0100
0000
0000
0000
0000
0000
2002
0000
0000
0000
0003
0000
0000
0000
0000
3010
0000
0000
1000
0000
0000
0001
0000
0000
1000
0000
0000
0100
0000
0000
0010
0000
0000
0001
0000
0000
1000
0000
0000
0000
0000
0000
,  // measure 27
0101
0000
0100
0000
0001
0010
0001
1000
0000
0100
0010
0001
0000
1000
0001
0000
,  // measure 28
1100
0000
0010
1000
0001
0010
0001
0100
0000
0010
0000
1000
0000
0001
0000
0100
,  // measure 29
0101
0000
0010
0100
0010
1000
0100
0010
0001
0000
0100
0001
1000
0000
0100
0000
,  // measure 30
0011
0000
0000
0000
1001
0000
0100
0010
0000
0100
0001
1000
0001
0010
0100
0000
,  // measure 31
1100
0000
0000
0000
0001
0100
0010
1000
0100
0000
0000
0000
1000
0001
0100
0010
,  // measure 32
0101
0000
0000
0000
0110
0000
0010
1000
0002
0010
0000
0100
0000
1003
0001
0000
,  // measure 33
0011
0000
0000
0000
1100
0000
0010
1000
0001
0100
0001
0010
0001
1000
0010
0100
,  // measure 34
1001
0000
0000
0000
0010
1000
0010
0100
0000
0001
0010
0001
1000
0010
0100
0000
,  // measure 35
1010
0000
0000
0000
0001
0100
0010
1000
0100
0000
0000
0000
0010
0001
1000
0001
,  // measure 36
1100
0000
0000
0000
0001
0010
0100
1000
0200
0001
0000
0010
0000
1300
0100
0000
,  // measure 37
0110
0000
0000
0000
0010
0001
1000
0001
0200
0010
0000
1000
0000
0310
0100
0000
,  // measure 38
0101
0000
0000
0000
0001
0010
0100
1000
0002
0100
0000
1000
0000
0013
0001
0000
,  // measure 39
0011
0000
0000
0000
0100
1000
0010
1000
0002
0100
0000
0010
0000
1003
0001
0000
,  // measure 40
1100
0000
0000
0000
;
