#TITLE:Sir Duke;
#SUBTITLE:;
#ARTIST:Stevie Wonder;
#TITLETRANSLIT:;
#SUBTITLETRANSLIT:;
#ARTISTTRANSLIT:;
#GENRE:;
#CREDIT:;
#BANNER:Sir Duke-bn.png;
#BACKGROUND:Sir Duke-bg.png;
#LYRICSPATH:;
#CDTITLE:;
#MUSIC:Sir Duke.ogg;
#OFFSET:0.000000;
#SAMPLESTART:46.029999;
#SAMPLELENGTH:20.000000;
#SELECTABLE:YES;
#DISPLAYBPM:100.000000:117.000000;
#BPMS:0.000000=102.000000
,4.000000=100.000000
,16.000000=102.000000
,19.000000=105.000000
,32.000000=103.000000
,39.000000=108.000000
,42.000000=104.599998
,46.000000=106.000000
,80.000000=104.000000
,89.000000=106.699997
,94.000000=105.599998
,108.000000=107.400002
,114.000000=109.000000
,117.000000=111.000000
,121.000000=108.000000
,131.000000=110.000000
,142.000000=115.000000
,144.000000=106.500000
,147.000000=108.250000
,155.000000=106.000000
,156.000000=112.000000
,163.000000=107.900002
,172.000000=109.120003
,174.000000=113.000000
,180.000000=111.111000
,184.000000=108.949997
,195.000000=110.099998
,199.000000=112.400002
,200.000000=110.510002
,203.000000=113.000000
,206.000000=117.000000
;
#STOPS:
;
#BGCHANGES:;
#KEYSOUNDS:;
#ATTACKS:;

//---------------dance-single - ----------------
#NOTES:
     dance-single:
     :
     Hard:
     12:
     0.477051,0.575343,0.359623,0.291123,0.325373,390.000000,348.000000,42.000000,34.000000,0.000000,0.000000,0.477051,0.575343,0.359623,0.291123,0.325373,390.000000,348.000000,42.000000,34.000000,0.000000,0.000000:
0000
0000
0000
0000
,
0000
0000
0000
0000
,
0000
0000
0000
0000
,
0000
0000
0000
0000
,
0002
0000
0000
0000
0000
0000
0023
0000
0000
0000
0000
0000
0230
0000
0000
0000
0000
1300
0000
0000
0000
0000
0000
0000
,
0010
0000
0000
0010
0000
0000
0010
0000
1000
0001
0000
0000
1000
0000
0100
0010
0000
0001
0000
0000
0000
0000
0000
0000
,
0100
0000
0000
0100
0000
0000
0010
0000
0000
0010
0000
0000
1000
0000
0001
0100
0000
0000
0020
0000
0000
0000
0000
1030
,
0000
0000
1100
0000
0000
0000
0101
0000
0000
0000
0000
0000
0000
0000
0010
0000
0000
0010
1000
0000
0000
0001
0000
0000
,
0100
0000
0001
0010
1000
0010
0001
0100
,
0010
1000
0100
0010
0001
0000
1000
0001
,
1000
0100
0010
0100
0001
0100
1000
0001
,
0100
0000
0000
0000
0000
0100
0010
0000
0000
1000
0000
0000
0001
0000
0000
0100
0000
0000
0001
0000
0000
0010
0000
0000
,
0100
0000
0000
0000
1000
0001
0000
1000
0000
0000
0010
0000
0100
0000
0001
0000
,
1000
0010
0100
0001
0000
0010
0100
1000
,
0002
0000
0000
0100
0000
0000
0103
0000
0000
0000
0000
0010
1000
0000
0000
0001
0000
0000
1000
0000
0000
0100
0000
0000
,
0020
0000
0000
1000
0000
0000
1030
0000
0000
0010
0000
0000
0001
0000
0000
0000
0000
0100
0010
0000
0000
1000
0000
0000
,
1100
1100
0101
0101
0011
0011
1010
1010
,
0001
0000
0000
0001
0000
0000
0001
0000
0000
1000
0000
0100
0000
0000
0000
0010
0000
0001
0000
0000
0000
1000
0000
0000
,
1010
1010
0101
0101
0011
0011
1100
1100
,
1000
0000
0000
1000
0000
0000
1000
0000
0000
0010
0000
0100
0000
0000
0000
0000
0000
0000
1001
0000
0000
0000
0000
0000
,
0110
0000
0001
0100
1000
0100
0001
0010
,
1000
0000
0000
0010
0000
0000
0100
0000
0000
0010
0000
0000
0001
0000
1000
0001
0000
0000
0100
0000
0000
0010
0000
0000
,
1001
0000
0000
0000
0000
0000
1000
0000
0000
0100
0000
0000
0001
0000
0000
0100
0000
0000
1000
0000
0001
0000
0000
0000
,
0200
0000
0000
0001
0000
0000
0302
0000
0000
1000
0000
0000
2003
0000
0000
0100
0000
0000
3100
0000
0010
0000
0000
0000
,
0011
0000
1000
0001
0100
1000
0100
0001
,
0010
0000
0000
1000
0000
0000
0010
0000
0000
0001
0000
0000
0100
0000
0010
0100
0000
0000
0001
0000
0000
1000
0000
0000
,
1100
0000
0000
0000
0000
0000
0001
0000
0000
0010
0000
0000
1000
0000
0000
0010
0000
0000
0001
0000
1000
0000
0000
0000
,
0020
0000
0000
1000
0000
0000
2030
0000
0000
0001
0000
0000
3002
0000
0000
0100
0000
0000
0103
0000
0010
0000
0000
0000
,
0110
0000
0000
0000
0000
0000
0000
0000
0000
1000
0000
0100
0000
0000
0000
0010
0000
0001
0000
0000
0000
1000
0000
0001
,
0100
0000
0000
0010
0000
0000
1000
0000
0000
0001
0000
0100
0000
0000
0010
1000
0000
0001
0000
0000
0000
0000
0000
0000
,
0102
0000
0000
0000
0000
1003
0000
0000
0000
2100
0000
0000
0000
0000
0000
3020
0000
0000
0000
0000
0000
0130
0000
0000
,
0001
0000
0000
0010
0000
0000
0001
0000
1000
0001
0000
0200
0000
0000
0000
0000
0000
0000
0300
0000
0000
0000
0000
0000
,
0010
0000
1000
0000
0100
0000
0010
0001
0000
1000
0002
0000
0000
0103
0010
0000
,
1000
0000
0100
0000
1000
0000
0001
0200
0000
0000
0310
0000
0000
0000
0000
1000
,
0001
0000
0010
0000
0100
0000
1000
0010
0000
1000
0010
0000
0000
0100
0000
0100
,
0001
0000
0000
1000
0000
0001
0100
0000
0000
0000
0010
0100
0000
0000
0000
0000
,
1001
0000
0000
0000
0000
0000
1000
0000
0000
1010
0000
0000
0000
0000
0101
0000
0000
0000
2100
0000
0000
0000
0000
0000
,
3001
0000
0000
0010
0000
0000
1000
0000
0000
0010
0000
0000
0001
0000
1000
0001
0000
0000
0200
0000
0000
0000
0000
0000
,
0310
0000
0000
0000
0000
0000
1000
0000
0000
1001
0000
0000
0000
0000
0011
0000
0000
0000
1000
0000
0001
0000
0000
0000
,
0200
0000
0000
0000
0000
0000
0301
0000
0000
1000
0000
0000
0002
0000
0000
0000
0000
0000
0013
0000
0100
1000
0000
0000
,
1100
0000
0000
0000
0000
0000
0001
0000
0000
0101
0000
0000
0000
0000
0110
0000
0000
0000
2001
0000
0000
0000
0000
0000
,
3010
0000
0000
1000
0000
0000
0100
0000
0000
0010
0000
0000
0001
0000
1000
0001
0000
0000
0020
0000
0000
0000
0000
0000
,
0130
0000
0000
2000
0000
0000
0000
0000
3002
0000
0000
0000
1003
0000
0000
0010
0000
0000
0100
0000
0001
0000
0000
0000
,
2010
0000
0000
0000
0000
0000
3001
0000
0000
0010
0000
0000
0021
0000
0000
0000
0000
0000
0130
0000
1000
0000
0000
0000
,
1001
0000
0000
0000
0000
0000
0000
0000
0000
0001
0000
0010
0000
0000
0000
0100
0000
1000
0000
0000
0000
0010
0000
0100
,
0001
0000
0000
1000
0000
0000
0001
0000
0000
0010
0000
0100
0000
0000
0100
1000
0000
0001
0000
0000
0000
0000
0000
0000
,
1020
0000
0000
0000
0000
0130
0000
0000
0000
0102
0000
0000
0000
0000
0000
2003
0000
0000
0000
0000
0000
3001
0000
0000
,
1000
0000
0000
0010
0000
0000
1000
0000
0100
0010
0000
0002
0000
0000
1000
0000
0000
0000
0103
0000
0000
0000
0000
0000
,
0110
0000
0001
0000
1000
0000
0010
0100
0000
0100
0002
0000
0000
1003
0001
0000
,
0010
0000
0100
0000
1000
0000
0010
0200
0000
0000
0301
0000
0000
0000
0000
1000
,
0001
0000
0010
0000
0001
0000
0100
0010
0000
1000
0001
0000
0000
1000
0000
1000
,
0100
0000
0000
0010
0000
0010
0001
0000
0000
0000
1000
0001
0000
0000
0000
0000
;

//---------------dance-single - ----------------
#NOTES:
     dance-single:
     :
     Medium:
     9:
     0.325373,0.375731,0.154124,0.376748,0.047093,266.000000,248.000000,18.000000,44.000000,0.000000,0.000000,0.325373,0.375731,0.154124,0.376748,0.047093,266.000000,248.000000,18.000000,44.000000,0.000000,0.000000:
0000
0000
0000
0000
,
0000
0000
0000
0000
,
0000
0000
0000
0000
,
0000
0000
0000
0000
,
0002
2003
3002
0103
,
0010
0010
1000
1000
0100
0010
0001
0000
,
1000
1000
0001
0001
0010
0100
2000
0000
,
3010
0100
0001
0000
0000
0000
1000
0100
,
0010
0000
0001
1000
0001
0100
0010
1000
,
0010
0100
0000
0010
0000
0000
1000
0001
,
1000
0100
1000
0001
0100
0010
0000
0020
,
0000
0000
0030
0000
,
0000
0000
1000
0001
1000
0100
0010
0001
,
0100
0010
0000
1000
0000
0001
0010
0100
,
2000
0000
3001
0000
0100
0010
0000
0200
,
0000
0000
0000
0301
0000
0000
0000
1000
,
1010
0101
0011
1100
,
0001
0100
0010
1000
0100
0010
0000
0001
,
0011
1010
0101
1100
,
0010
1000
0100
0010
0001
0000
1001
0000
,
0110
0000
1000
0001
0100
0010
1000
0000
,
0001
0010
0100
2000
0000
0000
3000
0000
,
1001
0000
0010
1000
0100
0010
0002
0000
,
2003
3002
0023
0230
,
1300
0000
0010
1000
0001
1000
0100
0000
,
0010
0001
1000
0020
0000
0000
0030
0000
,
0101
0000
0001
0010
0100
1000
0002
0000
,
2003
3020
0230
0301
,
1001
0000
0000
0010
0000
0100
0000
0010
,
1000
0100
1000
0010
0100
0001
0010
0000
,
0001
0000
0000
0000
0000
0001
0000
0000
0000
0002
0000
0000
0000
0000
0000
2003
0000
0000
0000
0000
0000
3010
0000
0000
,
1000
0100
1000
0001
0200
0000
0300
0000
,
0010
1000
0010
0100
0001
1000
0000
1000
,
0100
0000
0010
0000
0100
0000
0000
2000
0000
0000
3001
0000
0000
0000
0000
0000
,
0010
0000
0001
0000
0100
0000
0000
0010
0000
0000
1000
0000
0000
0100
0000
0000
,
1000
0000
0000
0001
0000
0000
0100
0000
0000
0000
0110
0000
0000
0000
0000
0000
,
1001
0000
0001
0010
0001
1000
0100
0000
,
1000
0010
0100
0002
0000
0000
0003
0000
,
0011
0000
0010
0001
0010
0100
2000
0000
,
3020
2030
3200
0320
,
0031
0000
1000
0001
1000
0100
0010
0000
,
0010
0100
1000
0002
0000
0000
0003
0000
,
0010
0000
0000
0001
0000
0000
0000
0000
1000
0000
0000
0000
0001
0000
0000
0100
0000
0000
0020
0000
0000
0000
0000
0000
,
2030
3200
0320
0031
,
1100
0000
0000
0001
0000
1000
0000
0001
,
0100
0010
1000
0001
1000
0100
0010
0000
,
0001
0000
0000
0000
0000
0001
0000
0000
0000
0002
0000
0000
0000
0000
0000
2003
0000
0000
0000
0000
0000
3010
0000
0000
,
1000
0001
1000
0100
0020
0000
0030
0000
,
0001
1000
0001
0100
0010
1000
0000
1000
,
0100
0000
0010
0000
0002
0000
0000
2003
0000
0000
3001
0000
0000
0000
0000
0000
,
0100
0000
0001
0000
0020
0000
0000
0230
0000
0000
2300
0000
0000
3020
0000
0000
,
2030
0000
0000
3002
0000
0000
0103
0000
0000
0000
0110
0000
0000
0000
0000
0000
;

//---------------dance-single - ----------------
#NOTES:
     dance-single:
     :
     Easy:
     6:
     0.179811,0.243120,0.085625,0.068500,0.000000,147.000000,137.000000,10.000000,8.000000,0.000000,0.000000,0.179811,0.243120,0.085625,0.068500,0.000000,147.000000,137.000000,10.000000,8.000000,0.000000,0.000000:
0000
0000
0000
0000
,
0000
0000
0000
0000
,
0000
0000
0000
0000
,
0000
0000
0000
0000
,
0001
0000
1000
0000
,
0010
0000
0100
0000
,
0001
0001
1000
1000
,
0010
0000
0000
0000
,
0100
0000
0001
0000
,
0010
0000
0100
0000
,
1000
1000
0001
0001
,
0100
0000
0000
0000
,
0010
0000
1000
0000
,
0001
0000
0010
0000
,
0100
0100
0010
0010
,
0100
0000
1000
0000
,
0001
0001
1000
1000
,
0001
0100
1000
0000
,
0010
0010
0100
0100
,
0010
1000
0100
1001
,
0110
0000
0010
1000
,
0100
0010
0001
0000
,
0001
0100
0010
1000
,
0200
0300
0200
0300
,
1000
0000
0010
0100
,
0001
1000
0100
0000
,
0001
0010
0100
1000
,
0002
0003
2000
3000
,
1001
0000
0010
0000
,
1000
0100
0001
0000
,
0110
0000
1001
0000
,
0010
1000
0100
0000
,
1000
0010
1000
0000
,
0001
0010
0100
0000
,
1000
1000
0010
0100
,
0001
0000
0010
0000
0000
0110
0000
0000
,
1000
0000
0001
0010
,
0001
0100
0010
0000
,
1000
0100
1000
0010
,
0200
0300
0002
0003
,
0010
0000
0001
1000
,
0001
0100
0010
0000
,
1000
0001
1000
0100
,
0020
0030
0002
0003
,
1001
0000
0100
0000
,
0001
0010
1000
0000
,
0110
0000
1001
0000
,
0010
1000
0100
0000
,
1000
1000
0001
0000
,
0010
0100
1000
0000
,
0001
0100
0001
1000
,
0100
0000
0010
0000
0000
0110
0000
0000
;

//---------------dance-single - ----------------
#NOTES:
     dance-single:
     :
     Beginner:
     2:
     0.096633,0.174674,0.068500,0.034250,0.000000,79.000000,71.000000,8.000000,4.000000,0.000000,0.000000,0.096633,0.174674,0.068500,0.034250,0.000000,79.000000,71.000000,8.000000,4.000000,0.000000,0.000000:
0000
0000
0000
0000
,
0000
0000
0000
0000
,
0000
0000
0000
0000
,
0000
0000
0000
0000
,
0010
0000
0000
0000
,
0100
0000
0000
0000
,
0010
0000
1000
0000
,
0001
0000
0000
0000
,
0010
0000
0001
0000
,
1000
0000
0001
0000
,
0100
0000
0100
0000
,
0010
0000
0000
0000
,
1000
0000
0100
0000
,
1000
0000
0001
0000
,
0100
0000
0100
0000
,
0010
0000
0000
0000
,
1001
0000
1001
0000
,
1001
0000
0000
0000
,
0110
0000
0110
0000
,
0110
0000
0000
0000
,
0001
0000
0010
0000
,
0200
0000
0300
0000
,
1000
0000
0010
0000
,
1000
0000
0001
0000
,
1000
0000
0100
0000
,
0020
0000
0030
0000
,
0001
0000
0100
0000
,
0010
0000
1000
0000
,
1001
0000
0000
0000
,
0000
0000
0000
0000
,
0010
0000
0100
0000
,
0010
0000
0000
0000
,
1000
0000
0000
0000
,
0001
0000
0000
0000
,
0010
0000
0001
0000
,
0100
0000
0000
0000
,
0010
0000
1000
0000
,
0002
0000
0003
0000
,
0010
0000
0001
0000
,
1000
0000
1000
0000
,
0010
0000
1000
0000
,
0200
0000
0300
0000
,
0010
0000
0001
0000
,
0100
0000
0100
0000
,
0110
0000
0000
0000
,
0000
0000
0000
0000
,
1000
0000
1000
0000
,
0100
0000
0000
0000
,
0010
0000
0000
0000
,
0001
0000
0000
0000
,
0100
0000
0100
0000
,
0010
0000
0000
0000
;

//---------------dance-single - ----------------
#NOTES:
     dance-single:
     :
     Challenge:
     16:
     0.729032,0.752372,0.530872,0.102749,0.988963,596.000000,534.000000,62.000000,12.000000,0.000000,0.000000,0.729032,0.752372,0.530872,0.102749,0.988963,596.000000,534.000000,62.000000,12.000000,0.000000,0.000000:
// measure 0
0000
0000
0000
0000
,  // measure 1
0000
0000
0000
0000
,  // measure 2
0000
0000
0000
0000
,  // measure 3
0000
0000
0000
0000
,  // measure 4
0010
0000
0000
1000
0000
1000
0100
0000
0000
0010
0000
0010
0001
0000
0000
1000
0000
1000
0001
0000
0000
0100
0000
0100
,  // measure 5
0010
0000
0000
0100
0000
0100
0001
0000
0000
0010
0000
0010
0100
0000
0000
1000
0000
1000
0010
0000
0000
1000
0000
1000
,  // measure 6
0001
0000
0000
0010
0000
0010
0001
0000
0000
0100
0000
0100
0010
0000
0000
0100
0000
0100
0001
0000
0000
1000
0000
0010
,  // measure 7
0000
0000
1010
0000
0000
0000
1001
0000
0000
0000
0000
0000
0100
0000
0100
0000
0000
0010
1000
0000
0000
0001
0000
0000
,  // measure 8
0110
0000
0000
0000
0000
0000
0000
0000
0000
0000
0010
1000
0100
0000
0000
0000
0000
0000
0010
0000
0000
0000
0000
0000
0001
0000
0000
0000
1000
0000
0010
0000
0000
0000
0000
0000
0100
0000
0000
0000
0000
0000
0001
0000
0000
0000
0000
0000
,  // measure 9
0010
0000
0000
0000
0000
0000
0000
0000
0000
0000
0100
1000
0001
0000
0000
0000
0000
0000
0100
0000
0000
0000
0010
0000
1000
0000
0000
0000
0000
0000
0001
0000
0000
0000
0010
0000
0100
0000
0000
0000
0000
0000
1000
0000
0000
0000
0000
0000
,  // measure 10
0001
0000
0000
0000
0000
0000
0000
0000
0000
0000
1000
0001
0100
0000
0000
0000
0000
0000
0010
0000
0000
0000
0000
0000
1000
0000
0000
0000
1000
0000
0100
0000
0000
0000
0100
0000
0010
0000
0000
0000
0000
0000
0001
0000
0000
0000
1000
0000
,  // measure 11
0010
0000
0000
0000
0000
0000
0000
0000
0000
0000
0100
0001
1000
0000
0000
0000
0000
0000
0010
0000
0000
0000
0010
0000
1000
0000
0000
0000
0001
0000
1000
0000
0000
0000
0100
0000
0010
0000
0000
0000
0010
0000
0001
0000
0000
0000
0000
0000
,  // measure 12
1000
0000
0000
0001
0000
0100
0010
0000
0000
1000
0000
1000
0100
0000
0000
0010
0000
0001
1000
0000
0000
0001
0000
0000
,  // measure 13
0100
0000
0000
0000
0000
0000
0001
0000
0000
0000
1000
0010
1000
0000
0000
0000
0001
0000
0100
0000
0000
0000
0010
0000
0100
0000
0000
0000
0000
0000
0001
0000
0000
0000
0001
0000
1000
0000
0000
0000
0000
0000
0100
0000
0000
0000
0000
0000
,  // measure 14
0010
0000
0000
0000
0000
0000
0001
0000
0000
0000
1000
0100
0010
0000
0000
0000
0000
0000
0100
0000
0000
0000
0100
0000
1000
0000
0000
0000
0000
0000
0001
0000
0000
0000
0100
0000
0010
0000
0000
0000
0000
0000
1000
0000
0000
0000
1000
0000
,  // measure 15
0001
0000
0000
0000
0000
0000
0010
0000
0000
0000
0001
1000
0001
0000
0000
0000
0100
0000
0010
0000
0000
0000
0000
0000
0101
0000
0000
0000
0000
0000
1000
0000
0000
0000
1000
0000
0100
0000
0000
0000
0010
0000
0001
0000
0000
0000
0001
0000
,  // measure 16
1000
0000
0000
1010
0000
0000
0101
0000
0000
0011
0000
0000
1100
0000
0000
0010
0000
1000
0000
0000
1000
0100
0000
0000
,  // measure 17
0011
0000
0000
0000
0000
0000
0110
0000
0000
0000
0000
0000
1100
0000
0000
0000
0000
0000
1000
0000
0000
0000
0001
0000
0000
0000
0000
0000
0000
0000
0110
0000
0000
0110
0000
0000
0000
0000
0000
0000
0010
0000
1000
0000
0000
0000
1000
0000
,  // measure 18
0100
0000
0000
0010
0000
0001
0100
0000
0000
0010
0000
1010
0000
0000
0001
1100
0000
0000
0010
0000
0000
0001
0000
0001
,  // measure 19
1000
0000
0000
0110
0000
0000
1001
0000
0000
0100
0000
0010
1000
0000
0000
0000
0000
0000
1001
0000
0000
0000
0000
0000
,  // measure 20
0110
0000
0000
0000
0000
0000
0000
0000
0000
0000
0001
1000
0001
0000
0000
0000
0000
0000
0100
0000
0000
0000
0000
0000
0010
0000
0000
0000
0010
0000
1000
0000
0000
0000
1000
0000
0100
0000
0000
0000
0100
0000
0010
0000
0000
0000
0000
0000
,  // measure 21
0001
0000
0000
0000
0000
0000
1000
0000
0000
0000
0010
0100
0010
0000
0000
0000
0000
0000
1000
0000
0000
0000
1000
0000
0001
0000
0000
0000
0010
0000
0001
0000
0000
0000
1000
0000
0010
0000
0000
0000
1000
0000
0100
0000
0000
0000
0000
0000
,  // measure 22
0011
0000
0000
0000
0000
0000
0000
0000
0000
0000
0010
0001
0100
0000
0000
0000
0000
0000
0010
0000
0000
0000
0010
0000
1000
0000
0000
0000
0001
0000
1000
0000
0000
0000
0010
0000
1000
0000
0000
0000
0100
0000
0010
0000
0000
0000
0000
0000
,  // measure 23
0001
0000
0000
0100
0000
0100
0010
0000
0010
1000
0000
1000
0100
0000
0000
0010
0000
0010
0001
0000
1000
0001
0000
1000
,  // measure 24
0100
0000
0000
1000
0000
0010
1000
0000
0001
0100
0000
0000
0010
0000
1000
0100
0000
0000
0010
0000
0001
0100
0000
0000
,  // measure 25
1010
0000
0000
1000
0000
1000
0100
0000
0000
0010
0000
0010
0001
0000
0001
1000
0000
1000
0001
0000
0100
0001
0000
0000
,  // measure 26
0101
0000
0000
0010
0000
0010
1000
0000
0000
0001
0000
0001
1000
0000
0000
0100
0000
0010
0001
0000
1000
0010
0000
0000
,  // measure 27
1000
0000
0000
0100
0000
0100
0010
0000
0010
0001
0000
1000
0010
0000
0000
0100
0000
0100
0001
0000
0001
1000
0000
0001
,  // measure 28
1001
0000
0000
0000
0000
0000
0000
0000
0000
0000
0000
0000
0000
0000
0000
0000
0010
0000
1000
0000
0000
0000
0100
0000
0000
0000
0000
0000
0010
0000
0001
0000
0000
0000
0100
0000
0000
0000
0000
0000
0001
0100
0010
0000
0000
0000
1000
0000
,  // measure 29
0100
0000
0000
0010
0000
0001
1000
0000
0010
1000
0000
0100
0000
0000
1000
0010
0000
0001
0000
0000
0000
0000
0000
0000
,  // measure 30
0011
0000
0000
0000
0000
1100
0000
0000
0000
0101
0000
0000
0000
0000
0000
2100
0000
0000
0000
0000
0000
3001
0000
0000
,  // measure 31
1000
0000
0010
1000
0000
0001
0010
0000
0100
1000
0000
0002
0000
0000
0000
0000
0000
0000
0003
0000
0000
0000
0000
0000
,  // measure 32
0110
0000
0001
0100
0010
1000
0100
0010
0001
0100
0020
0000
0000
1030
0001
1000
,  // measure 33
0100
0000
0001
0000
0100
0000
0010
0000
0100
0000
0001
0000
0100
0000
2000
0000
0000
0000
0000
0000
3001
0000
0000
0000
0000
0000
0000
0000
0000
0000
0010
1000
,  // measure 34
0100
0000
0010
0000
0100
0000
0001
0000
0100
0000
1000
0000
0010
0000
0200
0000
0000
0000
0001
0000
0301
0000
0000
0000
0000
0000
0010
0000
0001
1000
0010
0000
,  // measure 35
0200
0000
0000
0000
0000
0000
0301
0000
0010
0100
1000
0000
0001
0000
0000
0000
0000
0000
0000
0000
1001
0000
1001
0000
0000
0000
0000
0000
0000
0000
0000
0000
,  // measure 36
1010
0000
0000
0000
0000
0000
0000
0000
0000
0000
0001
0010
0100
0000
0000
0000
0000
0000
1100
0000
0000
0000
0000
0000
0010
0000
0000
0000
0101
0000
0000
0000
0000
0000
0010
0000
1100
0000
0000
0000
0000
0000
0000
0000
0000
0000
0000
0000
,  // measure 37
0011
0000
0000
0000
0000
0000
0000
0000
0000
0000
0001
1000
0010
0000
0000
0000
0000
0000
0110
0000
0000
0000
0000
0000
0010
0000
0000
0000
1001
0000
0000
0000
0000
0000
0100
0000
0110
0000
0000
0000
0000
0000
0000
0000
0000
0000
0000
0000
,  // measure 38
1010
0000
0000
0000
0000
0000
0000
0000
0000
0000
1000
0100
0010
0000
0000
0000
0000
0000
0011
0000
0000
0000
0000
0000
1000
0000
0000
0000
1010
0000
0000
0000
0000
0000
0001
0000
0100
0000
0000
0000
0110
0000
0000
0000
0000
0000
0000
0000
,  // measure 39
0010
0000
1000
0010
0000
0100
0010
0000
1000
0001
0000
0010
0100
0000
1000
0010
0000
1000
0100
0000
0010
0001
0000
1000
,  // measure 40
1001
0000
0000
0010
0000
0010
0100
0000
0000
0110
0000
0001
1000
0000
1100
0000
0000
0010
0011
0000
0000
0000
0000
0000
,  // measure 41
0101
0000
0000
0000
0000
0000
0010
0000
0000
0000
1000
0100
1000
0000
0000
0000
0000
0000
1001
0000
0000
0000
0001
0000
0010
0000
0000
0000
0011
0000
0000
0000
0000
0000
0100
0000
1100
0000
0000
0000
0000
0000
0000
0000
0000
0000
0000
0000
,  // measure 42
0110
0000
0000
0000
0000
0000
0001
0000
0000
0000
1000
0001
0100
0000
0000
0000
0010
0000
1010
0000
0000
0000
0000
0000
0001
0000
0000
0000
0011
0000
0000
0000
0000
0000
0010
0000
0100
0000
0000
0000
1001
0000
0000
0000
0000
0000
0000
0000
,  // measure 43
0010
0000
0100
0010
0000
1000
0100
0000
0010
0001
0000
0100
0001
0000
1000
0001
0000
0010
0001
0000
0100
0010
0000
1000
,  // measure 44
1001
0000
0000
0000
0000
0000
0000
0000
0000
0000
0000
0000
0000
0000
0000
0000
0010
0000
1000
0000
0000
0000
0100
0000
0000
0000
0000
0000
0010
0000
0001
0000
0000
0000
0100
0000
0000
0000
0000
0000
0001
1000
0010
0000
0000
0000
0100
0000
,  // measure 45
0001
0000
0000
0010
0000
0001
0010
0000
0100
1000
0000
0001
0000
0000
1000
0010
0000
0100
0000
0000
0000
0000
0000
0000
,  // measure 46
0101
0000
0000
0000
0000
0011
0000
0000
0000
1010
0000
0000
0000
0000
0000
0102
0000
0000
0000
0000
0000
1003
0000
0000
,  // measure 47
0001
0000
0010
0001
0000
1000
0100
0000
0100
0010
0000
0002
0000
0000
0000
0000
0000
0000
0003
0000
0000
0000
0000
0000
,  // measure 48
0110
0000
1000
0100
0001
0100
1000
0010
0100
0001
2000
0000
0000
3001
0010
0100
,  // measure 49
1000
0000
0010
0000
0100
0000
1000
0000
0100
0000
0010
0000
0100
0000
0002
0000
0000
0000
0000
0000
1003
0000
0000
0000
0000
0000
0000
0000
0000
0000
0001
0010
,  // measure 50
0100
0000
1000
0000
0010
0000
1000
0000
0001
0000
0100
0000
0010
0000
1000
0000
0000
0000
0100
0000
0020
0000
0000
0000
0000
0000
0031
0000
1000
0010
0100
0000
,  // measure 51
0002
0000
0000
0000
0000
0000
0013
0000
0100
1000
0001
0000
0100
0000
0000
0000
0000
0000
0000
0000
1001
0000
1001
0000
0000
0000
0000
0000
0000
0000
0000
0000
;
