#VERSION:0.83;
#TITLE:Silver Platform -I wanna get your heart-;
#SUBTITLE:;
#ARTIST:U1 Reincarnates w/ Leah;
#TITLETRANSLIT:;
#SUBTITLETRANSLIT:;
#ARTISTTRANSLIT:;
#GENRE:;
#ORIGIN:;
#CREDIT:;
#BANNER:Silver Platform -I wanna get your heart--bn.png;
#BACKGROUND:Silver Platform -I wanna get your heart--bg.png;
#PREVIEWVID:;
#JACKET:Silver Platform -I wanna get your heart--jacket.png;
#CDIMAGE:;
#DISCIMAGE:;
#LYRICSPATH:;
#CDTITLE:;
#MUSIC:Silver Platform -I wanna get your heart-.ogg;
#OFFSET:0.000000;
#SAMPLESTART:32.150002;
#SAMPLELENGTH:20.000000;
#SELECTABLE:YES;
#DISPLAYBPM:140.000000;
#BPMS:0.000=140.078,
4.000=140.003;
#STOPS:;
#DELAYS:;
#WARPS:;
#TIMESIGNATURES:0.000=4=4;
#TICKCOUNTS:0.000=4;
#COMBOS:0.000=1;
#SPEEDS:0.000=1.000=0.000=0;
#SCROLLS:0.000=1.000;
#FAKES:;
#LABELS:0.000=Song Start;
#BGCHANGES:;
#KEYSOUNDS:;
#ATTACKS:
;

//---------------dance-single - ----------------
#NOTEDATA:;
#CHARTNAME:;
#STEPSTYPE:dance-single;
#DESCRIPTION:;
#CHARTSTYLE:;
#DIFFICULTY:Beginner;
#METER:4;
#RADARVALUES:0.113380,0.163513,0.028686,0.019124,0.000000,83.000000,80.000000,3.000000,2.000000,0.000000,0.000000,0.000000,0.000000,0.000000,0.113380,0.163513,0.028686,0.019124,0.000000,83.000000,80.000000,3.000000,2.000000,0.000000,0.000000,0.000000,0.000000,0.000000;
#CREDIT:;
#DISPLAYBPM:140.000000;
#NOTES:
0000
0000
0000
0000
,
0000
0000
0000
0000
,
0000
0000
0000
0000
,
0001
0000
0000
0000
,
0001
0000
0000
0000
,
0001
0000
0000
0000
,
0001
0000
0000
0000
,
1000
0000
0000
0000
,
1000
0000
0000
0000
,
1000
0000
0000
0000
,
0100
0100
0100
0100
,
0100
0000
0000
0000
,
0100
0000
0000
0000
,
0100
0000
0000
0000
,
0010
0000
0010
0000
,
0001
0001
0000
0000
,
0001
0001
0000
0000
,
1000
1000
0000
0000
,
1000
1000
0000
0000
,
0100
0000
0100
0000
,
0100
0000
0100
0000
,
0010
0000
0010
0000
,
0000
0000
0000
0000
,
0010
0000
0010
0000
,
0010
0000
0010
0000
,
0100
0000
0100
0000
,
0000
0000
0000
0000
,
1001
0000
0000
0000
,
0000
0000
0000
0000
,
1001
0000
0000
0000
,
0000
0000
0000
0000
,
0001
0000
0000
0000
,
0001
0000
0000
0000
,
1000
0000
0000
0000
,
1000
0000
0000
0000
,
0010
0000
0010
0000
,
0010
0010
0010
0000
,
1000
0000
1000
0000
,
0001
0000
0001
0000
,
1000
0000
1000
0000
,
1000
1000
1000
0000
,
0001
0000
0001
0000
,
0001
0000
0000
0000
,
2000
0000
0000
3000
,
1000
0000
0000
0000
,
0002
0000
0000
0003
,
0001
0000
0000
0000
,
1000
0000
1000
0000
,
1000
1000
1000
0000
,
0001
0000
0001
0000
,
0000
0000
0000
0000
,
0010
0000
0010
0000
,
0010
0010
0010
0000
,
0100
0000
0100
0000
,
0000
0000
0000
0000
,
0001
0000
0000
0000
,
1000
0000
0000
0000
,
1001
0000
0000
0000
,
0000
0000
0000
0000
;

//---------------dance-single - ----------------
#NOTEDATA:;
#CHARTNAME:;
#STEPSTYPE:dance-single;
#DESCRIPTION:;
#CHARTSTYLE:;
#DIFFICULTY:Easy;
#METER:5;
#RADARVALUES:0.255446,0.381530,0.172119,0.296427,0.000000,187.000000,169.000000,18.000000,31.000000,0.000000,0.000000,0.000000,0.000000,0.000000,0.255446,0.381530,0.172119,0.296427,0.000000,187.000000,169.000000,18.000000,31.000000,0.000000,0.000000,0.000000,0.000000,0.000000;
#CREDIT:;
#DISPLAYBPM:140.000000;
#NOTES:
0000
0000
0000
0000
,
0000
0000
0000
0000
,
0000
0000
0000
0000
,
1000
0001
1000
0001
,
0010
0100
0010
0000
,
2000
0100
3100
1000
,
0002
0100
0103
0001
,
0100
0010
0100
0010
,
1000
0001
1000
0001
,
0002
0010
0010
0013
,
2000
0100
0100
3100
,
0010
0000
0010
0000
,
1000
1000
0001
0001
,
0200
0010
0310
0000
,
0020
0100
0130
0000
,
0010
0000
0010
0000
,
1000
1000
0001
0001
,
0020
0000
0130
0000
,
0100
0001
1000
0000
,
0002
0103
2000
3100
,
0002
0103
2000
3100
,
0010
0001
0100
1000
,
1001
0010
1001
0100
,
2000
3010
0002
0013
,
2000
3010
0002
0013
,
0010
1000
0100
0001
,
1001
0110
1001
0110
,
1001
0000
0000
0000
,
0001
0000
0010
0010
,
0110
0000
0000
0000
,
1000
0000
0000
0010
,
1002
0000
0000
0003
,
0120
0100
0100
0130
,
2000
0000
0000
3000
,
0200
0000
0000
0310
,
0100
0000
0100
0000
,
0001
1000
0001
1000
,
0100
0000
0100
0000
,
0010
0100
0010
0100
,
1000
0000
0001
0000
,
1000
0001
1000
0001
,
0010
0000
0100
0000
,
1001
0001
0001
0000
,
2000
0000
0000
3000
,
0200
0000
0000
0300
,
0002
0000
0000
0003
,
0020
0000
0000
0030
,
0002
0103
2000
3100
,
0002
0103
2000
3100
,
0010
0001
0100
1000
,
1001
0010
1001
0100
,
2000
3010
0002
0013
,
2000
3010
0002
0013
,
0010
1000
0100
0001
,
1001
0110
1001
0110
,
0010
0010
0100
0100
,
0001
0100
1000
0100
,
1001
0000
0000
0000
,
0000
0000
0000
0000
;

//---------------dance-single - ----------------
#NOTEDATA:;
#CHARTNAME:;
#STEPSTYPE:dance-single;
#DESCRIPTION:;
#CHARTSTYLE:;
#DIFFICULTY:Medium;
#METER:7;
#RADARVALUES:0.351067,0.354278,0.286864,0.172119,0.000000,257.000000,227.000000,30.000000,18.000000,0.000000,0.000000,0.000000,0.000000,0.000000,0.351067,0.354278,0.286864,0.172119,0.000000,257.000000,227.000000,30.000000,18.000000,0.000000,0.000000,0.000000,0.000000,0.000000;
#CREDIT:;
#DISPLAYBPM:140.000000;
#NOTES:
0000
0000
0000
0000
,
0000
0000
0000
0000
,
0000
0000
0000
0000
,
1000
0101
1000
0010
,
0001
0100
0001
0010
,
1100
0101
1100
0101
,
0010
0100
0010
0100
,
0001
1100
0001
0010
,
1000
0100
1000
0010
,
0101
1100
0101
1100
,
0010
0100
0010
0100
,
0001
0010
0100
0100
,
1000
0010
0100
0100
,
0102
1000
0013
0001
,
2100
0001
3010
1000
,
0010
0100
0001
1000
,
0010
0001
0100
0010
,
1020
0100
0031
0010
,
1200
0010
0301
0000
,
0001
0000
1100
0000
0010
0000
0001
0100
,
0010
0000
0101
0000
0100
0000
0001
0010
,
0100
0000
1000
0001
2000
0000
0001
0000
,
3001
0010
0100
1000
,
1000
0000
0101
0000
0010
0000
1000
0100
,
0010
0000
1100
0000
0100
0000
1000
0010
,
0100
0000
0100
0000
0100
0100
0100
0000
,
0010
0010
0010
0010
0000
0010
0010
0000
,
1001
0000
0000
0000
,
0001
0000
0000
1000
0100
1000
0100
0000
,
0002
0000
0000
0003
,
2000
0000
0000
3001
,
0001
0000
0100
0000
0001
0000
0100
0010
,
1000
0000
0010
0000
1000
0000
0010
1000
,
0001
0000
1000
0000
0100
0000
1000
0100
,
0010
0000
0001
0000
0001
0000
1000
1000
,
1000
0001
0100
0100
,
0010
0010
1000
0100
,
0102
1000
0013
0001
,
2100
0001
3010
1000
,
0100
0001
0100
0100
,
1000
1000
0010
0100
,
1020
0100
0031
0010
,
1200
0010
0301
0100
,
2000
0001
0000
0000
0001
0000
3001
0000
,
0200
1000
0000
0000
1000
0000
1300
0000
,
0020
0001
0000
0000
0001
0000
0031
0000
,
0002
0100
0000
0000
0100
0000
0103
0000
,
0001
0000
1100
0000
0010
0000
0001
0100
,
0010
0000
0101
0000
0100
0000
0001
0010
,
0100
0000
1000
0001
2000
0000
0001
0000
,
3001
0010
0100
1000
,
1000
0000
0101
0000
0010
0000
1000
0100
,
0010
0000
1100
0000
0100
0000
1000
0010
,
0100
0000
0100
0000
0100
0100
0100
0000
,
0010
0010
0010
0010
0000
0010
0010
0000
,
0012
0000
0100
0103
,
2010
0000
0100
3100
,
1001
0000
0000
0000
,
0000
0000
0000
0000
;

//---------------dance-single - ----------------
#NOTEDATA:;
#CHARTNAME:;
#STEPSTYPE:dance-single;
#DESCRIPTION:;
#CHARTSTYLE:;
#DIFFICULTY:Hard;
#METER:11;
#RADARVALUES:0.484938,0.599547,0.143432,0.200805,0.243835,355.000000,340.000000,15.000000,21.000000,0.000000,0.000000,0.000000,0.000000,0.000000,0.484938,0.599547,0.143432,0.200805,0.243835,355.000000,340.000000,15.000000,21.000000,0.000000,0.000000,0.000000,0.000000,0.000000;
#CREDIT:;
#DISPLAYBPM:140.000000;
#NOTES:
0000
0000
0000
0000
,
0000
0000
0000
0000
,
0000
0000
0000
0000
,
1001
0002
0023
0230
,
2300
3020
0230
0301
,
1000
0000
1100
0000
0010
1000
0010
1000
,
0001
0000
0100
0001
1000
0001
0100
0010
,
1001
2000
3020
0230
,
0302
0023
0230
1300
,
0010
1000
0000
0010
1000
0000
0000
0000
0010
0000
1000
0000
0100
0000
0000
0000
,
0010
0001
0000
0010
0001
0000
0000
0000
1000
0000
0010
0000
0100
0000
0001
0000
,
0100
0000
0000
1000
0100
0000
1000
0000
0100
0000
0000
0001
0100
0000
0001
0000
,
0100
0000
0000
1000
0100
0000
0010
0000
0001
0000
0100
0000
0001
0000
0000
0000
,
0200
0000
0000
0010
0000
0000
0320
0000
1000
0000
0000
2030
0000
0000
3100
0000
,
0000
0000
0001
0000
0000
0020
0000
0000
0001
0000
0000
0032
0000
0000
1003
0000
,
0100
0000
0000
0010
0001
0000
0010
0000
0001
0000
0000
0010
1000
0000
0010
0000
,
1000
0000
0000
0010
0001
0000
0100
0000
0010
0000
1000
0000
0010
0000
0000
0000
,
0001
0000
0000
0100
0001
0000
0100
0000
0001
0000
0000
0100
1000
0000
0100
0000
,
1000
0000
0000
0010
0100
0000
0001
0000
1000
0000
0000
0000
0000
0000
0000
0000
,
0110
0000
1000
0001
0100
0000
0001
1000
,
0100
0000
0010
0001
0100
0000
0010
1000
,
0100
0000
0010
0001
0200
0000
1000
0000
,
0302
0000
0010
0000
0103
0000
0010
1000
,
0100
0000
0010
0001
0100
0000
0001
1000
,
0100
0000
1000
0001
0100
0000
0010
1000
,
0001
0000
0010
0001
1000
0010
0100
0000
,
0001
0010
0100
1000
0000
0001
1000
0000
,
1001
0000
0000
0100
0000
0000
1000
0000
0010
0000
0000
0001
0000
0000
1000
0000
,
0000
0000
0000
1000
0010
0100
0001
0000
,
0110
0000
0000
0100
0000
0000
1000
0000
0010
0000
0000
0001
0000
0000
1000
0000
,
0000
0000
0000
1100
,
0001
0000
0011
0000
0100
0001
0100
0001
,
0011
0001
1001
1000
1100
0100
0110
0000
,
0001
0000
0101
0000
0010
1000
0010
1000
,
0001
0000
1000
0010
1000
0010
0100
0001
,
0010
0000
0000
0100
1000
0000
0100
0000
1000
0000
0000
0100
0001
0000
0100
0000
,
0001
0000
0000
0100
1000
0000
0010
0000
0100
0000
0001
0000
0100
0000
0000
0000
,
1000
0000
0000
0010
1000
0000
0010
0000
1000
0000
0000
0010
0001
0000
0010
0000
,
0001
0000
0000
0100
0010
0000
1000
0000
0100
0000
1000
0000
0010
0000
0000
0000
,
0010
0000
0000
0100
1000
0000
0010
0000
0100
0000
0000
0100
0001
0000
0010
0000
,
0100
0000
0000
0100
1000
0000
0010
0000
0100
0000
0001
0000
1000
0000
0000
0000
,
0001
0000
0000
0010
0001
0000
1000
0000
0100
0000
0000
0010
1000
0000
0001
0000
,
0100
0000
0000
0010
0001
0000
0100
0000
0010
0000
1000
0000
0100
0000
0000
0000
,
1000
0000
0001
0100
0000
0001
0100
0000
0010
0000
0000
1000
0000
0000
0100
0000
,
0000
0000
0010
0000
0000
0001
0000
0000
0010
0000
0000
0100
0000
0000
1000
0000
,
0001
0000
1000
0100
0000
1000
0100
0000
0010
0000
0000
0001
0000
0000
0100
0000
,
0000
0000
0010
0000
0000
1000
0000
0000
0010
0000
0000
0100
0000
0000
0001
0000
,
0110
0000
0001
1000
0010
0000
1000
0001
,
0010
0000
0100
1000
0010
0000
0100
0001
,
0010
0000
0100
1000
0020
0000
0001
0000
,
2030
0000
0100
0000
3010
0000
0100
0001
,
0010
0000
0100
1000
0010
0000
1000
0001
,
0010
0000
0001
1000
0010
0000
0100
0001
,
1000
0000
0100
1000
0001
0100
0010
0000
,
1000
0100
0010
0001
0000
1000
0001
0000
,
1000
0000
0001
0000
0010
0001
0000
0010
0001
0000
0100
0010
0000
0100
0010
0000
,
1000
0000
0100
0000
1000
0100
0000
1000
0100
0000
0010
0100
0000
0010
0100
0000
,
1001
0000
0000
0000
,
0000
0000
0000
0000
;

//---------------dance-double - ----------------
#NOTEDATA:;
#CHARTNAME:;
#STEPSTYPE:dance-double;
#DESCRIPTION:;
#CHARTSTYLE:;
#DIFFICULTY:Easy;
#METER:4;
#RADARVALUES:0.133870,0.190765,0.038249,0.334675,0.000000,98.000000,94.000000,4.000000,35.000000,0.000000,0.000000,0.000000,0.000000,0.000000,0.133870,0.190765,0.038249,0.334675,0.000000,98.000000,94.000000,4.000000,35.000000,0.000000,0.000000,0.000000,0.000000,0.000000;
#CREDIT:;
#DISPLAYBPM:140.000000;
#NOTES:
00000000
00000000
00000000
00000000
,
00000000
00000000
00000000
00000000
,
00000000
00000000
00000000
00000000
,
00100000
00000000
00100000
00000000
,
00010000
00000000
00010000
00000000
,
01000000
00000000
00001000
00000000
,
00010000
00000000
00000100
00000000
,
00000010
00000000
00000010
00000000
,
00000001
00000000
00000001
00000000
,
00001000
00001000
00000100
00000100
,
00020000
00000000
00000000
00030000
,
00001000
00000000
01000000
00000000
,
00010000
00010000
10000000
10000000
,
02000000
00000000
03000000
00000000
,
00020000
00000000
00030000
00000000
,
00001000
00010000
00001000
00000000
,
00000010
00001000
00000001
00000000
,
00001000
00000000
00001000
00000000
,
00000100
00010000
00001000
00000000
,
00200000
00300000
20000000
30000000
,
02000000
00000000
00000000
00000000
00000000
00000000
00000000
00000000
00000000
00000000
00000000
00000000
00000000
00000000
00000000
03000000
00000000
00000000
00000000
00000000
00000000
00000000
00000000
00000000
00000000
00000000
00000000
00000000
00000000
00000000
00000000
00000000
00020000
00000000
00000000
00000000
00000000
00000000
00000000
00000000
00000000
00000000
00000000
00000000
00000000
00000000
00000000
00000000
00030000
00000000
00000000
00000000
00000000
00000000
00000000
00000000
00000000
00000000
00000000
00000000
00000000
00000000
00000000
00000000
,
00002000
00003000
00020000
00030000
,
00000000
00000000
00000000
00000000
,
00002000
00003000
00000020
00000030
,
00000002
00000003
00000200
00000300
,
00001000
00010000
00001000
00000000
,
00000000
00000000
00000000
00000000
,
01100000
00000000
00000000
00000000
,
00010000
00000000
00000000
00000000
,
00001000
00000000
00000000
00000000
,
00000110
00000000
00000000
00000000
,
00000002
00000000
00000000
00000003
,
00000200
00000000
00000000
00000300
,
00002000
00000000
00000000
00003000
,
00020000
00000000
00000000
00030000
,
00001000
00000000
00010000
00000000
,
00001000
00100000
00010000
00000000
,
10000000
00000000
00100000
00000000
,
01000000
00001000
00010000
00000000
,
00000010
00000000
00001000
00000000
,
00000001
00001000
00000100
00000000
,
00000010
00000000
00000100
00000000
,
00001001
00000000
00000000
00000000
,
00000020
00000000
00000000
00000030
,
00020000
00000000
00000000
00030000
,
00002000
00000000
00000000
00003000
,
00200000
00000000
00000000
00300000
,
02000000
03000000
20000000
30000000
,
00200000
00300000
00020000
00030000
,
00002000
00003000
00020000
00030000
,
00000000
00000000
00000000
00000000
,
00000200
00000300
00000002
00000003
,
00000020
00000030
00002000
00003000
,
00020000
00030000
00002000
00003000
,
00000000
00000000
00000000
00000000
,
00020000
00000000
00000000
00030000
,
00002000
00000000
00000000
00003000
,
00011000
00000000
00000000
00000000
,
00000000
00000000
00000000
00000000
;

//---------------dance-double - ----------------
#NOTEDATA:;
#CHARTNAME:;
#STEPSTYPE:dance-double;
#DESCRIPTION:;
#CHARTSTYLE:;
#DIFFICULTY:Medium;
#METER:8;
#RADARVALUES:0.331943,0.381530,0.239054,0.172119,0.000000,243.000000,218.000000,25.000000,18.000000,0.000000,0.000000,0.000000,0.000000,0.000000,0.331943,0.381530,0.239054,0.172119,0.000000,243.000000,218.000000,25.000000,18.000000,0.000000,0.000000,0.000000,0.000000,0.000000;
#CREDIT:;
#DISPLAYBPM:140.000000;
#NOTES:
00000000
00000000
00000000
00000000
,
00000000
00000000
00000000
00000000
,
00000000
00000000
00000000
00000000
,
10000000
00010000
01000000
00001000
,
00010000
00000100
00001000
00000000
,
00000011
00000001
00000011
00000000
,
00001100
00001000
00001100
00000000
,
00000001
00001000
00000100
00010000
,
00001000
01000000
00010000
00000000
,
11000000
10000000
11000000
00000000
,
00110000
00010000
00110000
00000000
,
00200000
00000000
02300000
00000000
,
03010000
00010000
00001000
00001000
,
00012000
00100000
00013000
00000000
,
00021000
00000010
00031000
00000000
,
00000010
00001000
00000100
00001000
,
00000010
00000001
00000100
00000010
,
00000200
00000000
00002300
00000000
,
00013000
00001000
00010000
00000000
,
01000000
00000000
00100000
10000000
00100000
00000000
01000000
00010000
,
01000000
00000000
00100000
10000000
00100000
00000000
01000000
00100000
,
10000000
00000000
01000000
00100000
00010000
00000000
00000000
00000000
,
10000000
01000000
00010000
00001000
,
00000100
00000000
00000010
00001000
00000010
00000000
00000100
00000001
,
00000100
00000000
00000010
00001000
00000010
00000000
00000100
00000010
,
00000001
00000000
00000100
00000010
00001000
00000000
00000000
00000000
,
00000100
00010000
00001000
00010000
,
00011000
00000000
00000000
00000000
,
00101000
00000000
00000000
00010000
00100000
00010000
00100000
00000000
,
12000000
00000000
00000000
03000000
,
00200000
00000000
00000000
00300000
,
00011000
00000000
00001000
00000000
00010000
00000000
00001000
00010000
,
00000100
00000010
00000100
00000010
,
00000001
00000000
00000100
00000000
00000001
00000000
00000100
00001000
,
00010000
00011000
00010000
00001000
,
00101000
00010000
01000000
01000000
,
00100000
10000000
01000000
01000000
,
00020000
00000010
00031000
00011000
,
00002000
00100000
00013000
00011000
,
00000010
00001000
00000100
00000100
,
00000010
00000001
00000100
00000100
,
00012000
01000000
00013000
00021000
,
00000100
00031000
00011000
01001000
,
00200000
01000000
10000000
10300000
,
02000000
10000000
00010000
03010000
,
00002000
00100000
00010000
00013000
,
00000200
00000010
00000001
00000301
,
00000100
00000000
00000010
00000001
00000010
00000000
00000100
00001000
,
00000100
00000000
00000010
00000001
00000010
00000000
00000100
00000010
,
00000001
00000000
00000100
00000010
00001000
00000000
00000000
00000000
,
00000001
00000100
00001000
00010000
,
01000000
00000000
00100000
00010000
00100000
00000000
01000000
10000000
,
01000000
00000000
00100000
00010000
00100000
00000000
01000000
00100000
,
00010000
00000000
01000000
00100000
10000000
01000000
00010000
00000000
,
00001000
00010000
00000010
00010000
00000000
00001000
00000010
00000000
,
00002010
00000001
00000010
00003100
,
00000012
00001000
00000010
00000103
,
00000110
00000000
00000000
00000000
,
00000000
00000000
00000000
00000000
;

//---------------dance-double - ----------------
#NOTEDATA:;
#CHARTNAME:;
#STEPSTYPE:dance-double;
#DESCRIPTION:;
#CHARTSTYLE:;
#DIFFICULTY:Hard;
#METER:11;
#RADARVALUES:0.428931,0.572295,0.028686,0.353800,0.210367,314.000000,311.000000,3.000000,37.000000,0.000000,0.000000,0.000000,0.000000,0.000000,0.428931,0.572295,0.028686,0.353800,0.210367,314.000000,311.000000,3.000000,37.000000,0.000000,0.000000,0.000000,0.000000,0.000000;
#CREDIT:;
#DISPLAYBPM:140.000000;
#NOTES:
00000000
00000000
00000000
00000000
,
00000000
00000000
00000000
00000000
,
00000000
00000000
00000000
00000000
,
00000000
02000000
03020000
00032000
,
00003200
00000302
00000023
00000031
,
00000100
00000000
00001000
00000000
00010000
00001000
00010000
00000100
,
00010000
00000000
00001000
00010000
00001000
00100000
00001000
00010000
,
00000000
00000200
00002300
00023000
,
02030000
23000000
30200000
10300000
,
10000000
01000000
00000000
01000000
10000000
00000000
00000000
00000000
00010000
00000000
01000000
00000000
00001000
00000000
00010000
00000000
,
00001000
00010000
00000000
00010000
00001000
00000000
00000000
00000000
00010000
00000000
00000010
00000000
00001000
00000000
00000001
00000000
,
00000100
00000000
00000000
00000010
00001000
00000000
00000100
00000000
00000100
00000000
00000000
00000010
00000001
00000000
00000100
00000000
,
00000100
00000000
00000000
00001000
00010000
00000000
00001000
00000000
00010000
00000000
01000000
00000000
00100000
00000000
00000000
00000000
,
00010000
00000000
00000000
01000000
00010000
00000000
10000000
00000000
10000000
00000000
00000000
01000000
10000000
00000000
00010000
00000000
,
00010000
00000000
00000000
10000000
01000000
00000000
00010000
00000000
00001000
00000000
00000100
00000000
00000001
00000000
00000000
00000000
,
00000010
00000000
00000000
00000001
00001000
00000000
00000100
00000000
00000100
00000000
00000000
00001000
00000001
00000000
00000100
00000000
,
00000100
00000000
00000000
00000010
00000100
00000000
00001000
00000000
00010000
00000000
00100000
00000000
01000000
00000000
00000000
00000000
,
00010000
00000000
00000000
00100000
01000000
00000000
10000000
00000000
10000000
00000000
00000000
00100000
01000000
00000000
00010000
00000000
,
00010000
00000000
00000000
00100000
01000000
00000000
10000000
00000000
10000000
00000000
00000000
00000000
00000000
00000000
00000000
00000000
,
00000000
00200000
00320000
00032000
,
00003020
00000032
00000203
00000301
,
00000010
00000000
00001000
00000000
00010000
00001000
00010000
00000010
,
00010000
00000000
00001000
00010000
00001000
01000000
00001000
00010000
,
00000000
00000020
00002030
00023000
,
00230000
20300000
32000000
03000000
,
00010000
00000000
00001000
00000000
00100000
00010000
01000000
00000000
,
00001000
00010000
00000100
00001000
00000000
00000001
00000010
00000000
,
00000110
00000000
00000000
00000000
,
00000000
00000000
00000000
00000001
00000100
00001000
00010000
00000000
,
00011000
00000000
00000000
00000000
,
00000000
00000000
00000000
10100000
,
00010000
00000000
10000000
00000000
01000000
10000000
01000000
00010000
,
00001000
00010000
00000010
00001000
00000001
00000100
00001000
00010000
,
00001000
00000000
00010000
00000000
00001000
00100000
00010000
10000000
,
01000000
00000000
00010000
00001000
00000100
00000001
00001000
00000010
,
00000100
00000000
00000000
00001000
00010000
00000000
00001000
00000000
00010000
00000000
00000000
00100000
00010000
00000000
00100000
00000000
,
00010000
00000000
00000000
10000000
01000000
00000000
10000000
00000000
00100000
00000000
10000000
00000000
01000000
00000000
00000000
00000000
,
01000000
00000000
00000000
00010000
00001000
00000000
00010000
00000000
00001000
00000000
00000000
00000010
00001000
00000000
00000010
00000000
,
00001000
00000000
00000000
00000001
00000100
00000000
00000001
00000000
00000010
00000000
00000001
00000000
00000100
00000000
00000000
00000000
,
00000100
00000000
00000000
00000100
00001000
00000000
00010000
00000000
00010000
00000000
00000000
00010000
00001000
00000000
01000000
00000000
,
01000000
00000000
00000000
01000000
00100000
00000000
10000000
00000000
01000000
00000000
00010000
00000000
01000000
00000000
00000000
00000000
,
10000000
00000000
00000000
00010000
01000000
00000000
00001000
00000000
00001000
00000000
00000000
00001000
00010000
00000000
00000100
00000000
,
00000100
00000000
00000000
00000100
00000010
00000000
00000001
00000000
00000100
00000000
00001000
00000000
00000100
00000000
00000000
00000000
,
00000000
00000000
00000001
00000000
00000000
00000100
00000000
00000000
00001000
00000000
00000000
00010000
00000000
00000000
00001000
00000000
,
00000000
00000000
00010000
00000000
00000000
00100000
00000000
00000000
10000000
00000000
00000000
01000000
00000000
00000000
00010000
00000000
,
00000000
00000000
00100000
00000000
00000000
00010000
00000000
00000000
00001000
00000000
00000000
00000100
00000000
00000000
00000001
00000000
,
00000000
00000000
00000010
00000000
00000000
00001000
00000000
00000000
00010000
00000000
00000000
01000000
00000000
00000000
10000000
00000000
,
02000000
03020000
00032000
00003200
,
00000302
00000023
00000032
00000103
,
00001000
00000000
00010000
00000000
00001000
00010000
00001000
00100000
,
00001000
00000000
00010000
00001000
00010000
00000100
00010000
00001000
,
00000000
00000200
00002300
00023000
,
00230000
20300000
32000000
03000000
,
00010000
00000000
00001000
00000000
00100000
00010000
01000000
00000000
,
00001000
00010000
00000100
00001000
00000000
00000001
00001000
00000000
,
00000001
00000000
00001000
00000000
00000100
00001000
00000000
00000100
00001000
00000000
00000010
00001000
00000000
00000010
00001000
00000000
,
00000100
00000000
00010000
00000000
00001000
00100000
00000000
00001000
00100000
00000000
00010000
01000000
00000000
00010000
01000000
00000000
,
00100000
00000000
00000000
00000000
,
00000000
00000000
00000000
00000000
;

//---------------dance-single - ----------------
#NOTEDATA:;
#CHARTNAME:;
#STEPSTYPE:dance-single;
#DESCRIPTION:;
#CHARTSTYLE:;
#DIFFICULTY:Challenge;
#METER:14;
#RADARVALUES:0.657056,0.687279,0.411172,0.047811,0.368143,481.000000,438.000000,43.000000,5.000000,0.000000,0.000000,0.000000,0.000000,0.000000,0.657056,0.687279,0.411172,0.047811,0.368143,481.000000,438.000000,43.000000,5.000000,0.000000,0.000000,0.000000,0.000000,0.000000;
#CREDIT:;
#DISPLAYBPM:140.000000;
#NOTES:
// measure 0
0000
0000
0000
0000
,  // measure 1
0000
0000
0000
0000
,  // measure 2
0000
0000
0000
0000
,  // measure 3
1001
0000
0100
0001
0100
0010
1000
0100
,  // measure 4
0001
0000
0010
0001
1000
0001
0100
0010
,  // measure 5
1000
0100
0001
0000
1000
0001
0100
0010
,  // measure 6
1000
0000
0001
0010
0001
0100
0010
1000
,  // measure 7
0110
0000
1000
0010
1000
0001
0010
0100
,  // measure 8
1000
0000
0001
0010
0001
0100
0010
1000
,  // measure 9
0100
0010
0000
0010
0001
0000
0000
1000
0100
1000
0001
0000
0000
0100
0010
1000
,  // measure 10
0000
0000
0001
0010
0001
0100
0010
1000
0000
0000
0100
0000
0100
1000
0001
0100
,  // measure 11
0010
0000
1000
0000
0100
0010
0000
0010
0001
0000
0001
1000
0000
1000
0010
0000
,  // measure 12
0100
0000
0001
0000
1000
0010
0000
0010
0100
0000
0100
0001
0000
0001
1000
0000
,  // measure 13
0100
0000
0010
0000
0100
1000
0000
1000
0001
0000
0001
0100
0000
0100
0010
0000
,  // measure 14
1000
0000
0001
0000
0010
0100
0000
0100
1000
0000
1000
0001
0000
0001
0100
0000
,  // measure 15
1001
0000
0010
0000
0100
0001
0000
0001
1000
0000
1000
0100
0000
0100
0010
0000
,  // measure 16
0001
0000
0100
0000
0010
0100
0000
0100
0001
0000
0001
1000
0000
1000
0100
0000
,  // measure 17
0010
0000
0001
0000
1000
0001
0000
0001
0010
0000
0010
0100
0000
0100
1000
0000
,  // measure 18
0001
0000
0100
0000
0010
1000
0000
1000
0001
0000
0001
1000
0000
1000
0100
0000
,  // measure 19
0110
0000
0001
1000
0101
0010
1000
0100
,  // measure 20
0011
0000
1000
0001
1010
0100
0001
1000
,  // measure 21
1100
0000
0010
0001
1001
0000
0100
0001
,  // measure 22
1000
0000
0000
0000
0001
0000
0010
0000
0001
0100
0001
0000
1000
0000
0100
0000
,  // measure 23
0110
0000
0001
1000
1010
0100
0001
0010
,  // measure 24
0011
0000
1000
0001
1100
0010
0001
0100
,  // measure 25
1010
0000
0100
0001
0101
1000
0010
0100
,  // measure 26
0001
0000
0010
0000
0001
0000
0100
0000
0010
0000
1000
0000
0100
0010
0001
0000
,  // measure 27
2100
0000
0000
0001
0000
0000
0001
0000
0100
0000
0000
0010
0000
0000
3002
0000
,  // measure 28
1000
0000
0000
0010
0000
0000
1000
0000
0100
0000
0100
0000
0103
0000
0000
0000
,  // measure 29
0012
0000
0000
0010
0000
0000
0100
0000
1000
0000
0000
1000
0000
0000
0203
0000
,  // measure 30
0010
0000
0000
1000
0000
0000
0001
0000
0010
0000
0310
0000
0110
0000
0000
0000
,  // measure 31
1001
0100
0010
0000
1000
0100
1000
0001
,  // measure 32
0011
0011
0110
0110
1100
1100
1001
0100
,  // measure 33
1001
0000
0010
0000
0010
1000
0100
0001
,  // measure 34
0011
0000
1000
0001
0010
0100
1100
0110
,  // measure 35
0011
1000
0010
1000
0100
0010
0001
0100
,  // measure 36
0001
0010
1000
0100
0010
0001
0100
0010
,  // measure 37
1000
0001
1000
0010
0100
0001
0010
1000
,  // measure 38
0100
0010
0100
1000
0001
0010
1000
0001
,  // measure 39
0100
0001
0010
0001
1000
0010
1000
0100
,  // measure 40
0001
1000
0010
0100
0001
0010
0100
1000
,  // measure 41
0001
1000
0100
0001
0010
1000
0001
0100
,  // measure 42
0001
1000
0010
1000
0100
0010
0100
1000
,  // measure 43
0001
0000
0100
0000
0010
1000
0000
1000
0100
0000
0100
0010
0000
0010
0001
0000
,  // measure 44
0010
0000
0100
0000
1000
0010
0000
0010
0100
0000
0100
0001
0000
0001
0010
0000
,  // measure 45
0100
0000
1000
0000
0010
0100
0000
0100
0001
0000
0001
0010
0000
0010
0100
0000
,  // measure 46
1000
0000
0001
0000
1000
0100
0000
0100
0010
0000
0010
0001
0000
0001
0100
0000
,  // measure 47
0110
0000
1000
0001
1010
0100
0001
0010
,  // measure 48
0101
0000
0010
1000
0110
0001
0100
0010
,  // measure 49
1010
0000
0001
0100
1001
0010
1000
0100
,  // measure 50
0001
0000
0000
0000
1000
0000
0001
0000
1000
0010
1000
0000
0100
0000
0010
0000
,  // measure 51
0011
0000
1000
0001
0101
0010
1000
0100
,  // measure 52
1100
0000
0010
0001
1001
0100
0001
0010
,  // measure 53
0101
0000
0010
1000
0011
0100
1000
0001
,  // measure 54
0100
0000
1000
0000
0100
0000
0001
0000
0010
0100
1000
0000
0001
0000
0100
0000
,  // measure 55
0010
0000
1000
0000
0100
0010
0000
0010
0001
0000
0001
1000
0000
1000
0001
0000
,  // measure 56
0100
0000
0010
0000
1000
0100
0000
0100
0010
0000
0010
0001
0000
0001
1000
0000
,  // measure 57
0200
0000
0300
0000
;
