#TITLE:Silly Love;
#SUBTITLE:;
#ARTIST:DÉ DÉ MOUSE;
#TITLETRANSLIT:;
#SUBTITLETRANSLIT:;
#ARTISTTRANSLIT:;
#GENRE:;
#CREDIT:;
#MUSIC:Silly Love.ogg;
#BANNER:Silly Love-bn.png;
#BACKGROUND:Silly Love-bg.png;
#CDTITLE:;
#SAMPLESTART:51.653;
#SAMPLELENGTH:20.000;
#SELECTABLE:YES;
#OFFSET:0.000;
#BPMS:0.000=153.000
,228.000=124.000
,260.000=153.000
;
#STOPS:;
#BGCHANGES:;
#FGCHANGES:;

//--------------- dance-single - ----------------
#NOTES:
     dance-single:
     :
     Beginner:
     4:
     0,0,0,0,0:
0000
0000
0000
0000
,
0000
0000
0000
0000
,
0000
0000
0000
0000
,
0000
0000
0000
0000
,
0000
0000
0000
0000
,
1000
0000
1000
0000
,
0001
0000
0001
0000
,
1001
0000
0000
0000
,
0010
0000
0100
0000
,
0010
0000
0010
0000
,
0100
0000
0100
0000
,
0110
0000
0000
0000
,
1000
0000
0001
0000
,
1000
0000
0010
0000
,
0100
0000
0001
0000
,
0010
0000
0010
0000
,
0100
0100
0100
0000
,
2000
0000
0000
0000
,
3000
0000
1000
1000
,
0002
0000
0000
0000
,
0003
0000
0001
0001
,
0020
0000
0000
0000
,
0030
0000
0010
0010
,
0200
0000
0000
0000
,
0300
0000
0100
0100
,
0001
0000
0001
0000
,
1000
0000
1000
0000
,
0010
0000
0010
0000
,
0100
0000
0100
0000
,
0001
0000
0010
0000
,
0100
0000
1000
0000
,
0010
0000
0100
0000
,
0001
0000
1001
0000
,
0010
0000
0100
0000
,
0010
0010
0100
0000
,
0001
0000
1000
0000
,
0001
0001
1000
0000
,
1000
0000
0010
0000
,
1000
1000
0010
0000
,
0100
0000
0001
0000
,
0100
0100
0001
0000
,
0100
0000
0010
0000
,
0100
0010
0100
0000
,
1000
0000
0001
0000
,
1000
0001
1000
0000
,
0001
0000
0100
0000
,
0001
0100
0001
0000
,
0010
0000
1000
0000
,
0010
1000
0010
0000
,
0001
0000
0000
2000
,
0000
0000
3000
0000
,
0002
0000
0003
2000
,
0000
0000
3000
0000
,
0020
0000
0030
0200
,
0000
0000
0300
0000
,
0002
0000
0003
1000
,
0000
0000
0000
0000
,
0010
0000
0010
0000
,
0100
0100
0100
0000
,
0001
0000
0001
0000
,
1000
1000
1000
0000
,
1000
0000
0001
0000
,
0010
0010
0010
0000
,
0001
0000
1000
0000
,
0100
0100
0100
0000
,
1000
0000
1001
0000
,
0001
0000
1001
0000
,
0010
0000
0110
0000
,
0100
0000
0110
0000
,
0001
0001
0010
0000
,
1000
1000
0010
0000
,
0001
1000
0001
0000
,
1000
0001
1000
0000
,
0200
0000
0000
0000
,
0300
0000
0000
0000
;

//--------------- dance-single - ----------------
#NOTES:
     dance-single:
     :
     Easy:
     7:
     0,0,0,0,0:
0000
0000
0000
0000
,
0000
0000
0000
0000
,
0000
0000
0000
0000
,
0000
0000
0000
0000
,
0000
0000
0000
0000
,
1001
0100
0010
0000
,
1000
0010
0100
0001
,
0010
0010
0100
0100
,
1000
0001
1000
0000
,
1001
0100
0010
0000
,
0001
0010
0100
1000
,
0010
0010
0100
0100
,
0001
1000
0001
0000
,
0110
1000
0001
0000
,
0010
0100
1000
0001
,
0010
0010
0100
0100
,
1000
0001
1000
0000
2002
0000
3003
0000
,
0200
0000
0010
0010
,
0310
0000
0000
0000
1000
0001
1000
0000
,
0020
0000
0100
0100
,
0130
0000
0000
0000
0001
1000
0001
0000
,
2000
0000
0010
0001
,
3100
0000
0000
0000
0010
0001
0010
0000
,
0002
0000
0010
1000
,
0103
0000
0000
0000
1000
0010
1000
0000
,
0001
0010
0100
1000
,
0010
0000
0100
0000
0010
0100
0010
0000
,
1000
0010
0100
0001
,
0010
0000
0100
0000
1000
0001
1000
0000
,
0010
1000
0100
0010
,
0001
0000
0100
0000
0010
0100
0010
0000
,
1000
1000
0001
0001
,
2000
0000
3002
0000
1003
0001
1000
0000
,
0001
0010
0001
1001
,
1000
0010
1000
1001
,
0001
0100
0010
0110
,
1000
0100
0010
0110
,
0010
0001
0100
1001
,
0010
1000
0100
1001
,
1000
0010
0100
0001
,
1000
0001
1000
0000
0001
1000
0001
0000
,
1000
0100
1000
1001
,
0001
0100
0001
1001
,
1000
0010
0100
0110
,
0001
0010
0100
0110
,
0100
1000
0010
1001
,
0100
0001
0010
1001
,
0001
0100
0010
1000
,
0001
1000
0001
0000
1000
0001
1000
0000
,
0000
0000
0000
0002
,
0000
0000
0000
0003
,
2000
0000
3000
0002
,
0000
0000
1000
1003
,
0010
0100
0110
1000
,
0001
1000
0010
0010
,
0100
0000
0001
0000
0010
0000
0100
0010
,
0000
0000
0000
0000
,
2000
3100
0002
0103
,
2000
3010
0002
0013
,
0200
1300
0020
0130
,
0002
0000
0013
0000
0200
0010
0310
0000
,
2000
3010
0002
0013
,
2000
3100
0002
0103
,
0010
1000
0001
0100
,
0010
0010
0010
0010
0000
0000
0000
0000
,
1000
0100
0001
0110
,
0010
0000
0001
0000
1000
0100
0001
0000
,
0100
1000
0001
1001
,
0100
0000
0010
0000
0100
0010
0100
0000
,
0001
0010
1000
0110
,
1000
0000
0100
0000
1000
0100
0001
0000
,
0100
0100
0010
0010
,
0100
0010
0100
0000
0001
1000
0001
0000
,
0200
0000
0000
0000
,
0300
0000
0000
0000
;

//--------------- dance-single - ----------------
#NOTES:
     dance-single:
     :
     Medium:
     11:
     0,0,0,0,0:
0000
0000
0000
0000
,
0000
0000
0000
0000
,
0000
0000
0000
0000
,
0000
0000
0000
0000
,
0000
0000
0000
0000
,
0010
0000
0100
0000
1001
0000
0000
1000
,
0000
0100
0010
0001
1000
0000
0010
0100
,
0010
1000
0001
0100
,
0010
0100
2002
3003
,
0010
0000
0100
0000
1001
0000
0000
0001
,
0000
0100
0010
1000
0001
0000
0010
0100
,
0010
0001
1000
0100
,
0010
0100
2002
3003
,
1000
0000
0010
0100
0010
0000
0001
0000
,
0010
1000
0100
0000
0010
0001
0100
0000
,
0001
0100
0010
1000
0100
0010
0001
1000
,
0010
0100
0001
0010
0200
0000
0000
0310
,
0100
0000
0000
0000
0110
0000
0000
0000
0001
0000
0000
0010
0000
0000
0200
0000
,
0000
0000
0000
0000
0310
0001
0010
0100
,
0010
0000
0000
0000
1001
0000
0000
0000
0100
0000
0000
0010
0000
0000
2000
0000
,
0000
0000
0000
0000
3001
0100
0010
1000
,
0001
0000
0000
0000
0110
0000
0000
0000
0010
0000
0000
1000
0000
0000
0002
0000
,
0000
0000
0000
0000
1003
0010
0100
0001
,
1000
0000
0001
0000
0010
0000
0100
0000
1000
0000
0000
0001
0000
0000
0200
0000
,
0000
0000
0000
0000
0310
1000
0001
0100
,
0001
0000
0000
0001
0100
0000
0000
0100
0010
0000
0000
0010
1000
0000
0000
1000
,
0001
0000
0000
0001
0100
0000
0000
0100
0010
0000
0100
0000
0001
0000
0100
0000
,
0010
0000
0000
0010
1000
0000
0000
1000
0100
0000
0000
0100
0010
0000
0000
0010
,
0001
0000
0000
0001
1000
0000
0000
1000
0001
0000
0100
0000
1000
0000
0100
0000
,
0001
0000
0000
0001
0010
0000
0000
0010
0100
0000
0000
0100
1000
0000
0000
1000
,
0001
0000
0000
0001
0100
0000
0000
0100
0010
0000
0001
0000
0010
0000
1000
0000
,
1000
0100
1000
0100
0010
0001
0010
0001
,
0100
0010
1000
0010
0100
0001
2000
0000
,
3001
0000
0100
0000
0010
0000
0000
0000
0100
0000
0000
0010
1000
0000
0000
0000
,
1010
0000
0000
0000
0101
0000
0000
0000
0001
0100
0000
0001
0100
0000
0001
0000
,
1000
0000
0100
0000
0010
0000
0000
0000
0100
0000
0000
0010
0001
0000
0000
0000
,
0011
0000
0000
0000
1100
0000
0000
0000
1000
0100
0000
1000
0100
0000
1000
0000
,
0001
0000
1000
0000
0010
0000
0000
0000
0100
0000
0000
0001
1000
0000
0000
0000
,
0101
0000
0000
0000
0011
0000
0000
0000
0001
0010
0000
0001
0010
0000
0100
0000
,
1000
0000
0001
0000
0010
0000
0000
0000
0100
0000
0000
1000
0001
0000
0010
0000
,
0001
0100
0010
1000
0001
0010
0200
0000
,
0310
0001
1000
0100
0020
0000
0130
0000
,
0001
0000
0100
0000
1000
0000
0000
0000
0100
0010
0000
0100
0010
0000
0100
0000
,
0010
0001
1000
0010
0200
0000
0310
0000
,
0001
0000
0010
0000
1000
0000
0000
0000
0010
0100
0000
0010
0100
0000
0010
0000
,
1000
0100
0010
0001
0020
0000
0130
0000
,
1000
0000
0100
0000
0010
0000
0000
0000
0001
1000
0000
0001
1000
0000
0001
0000
,
1000
0010
1000
0010
0100
0001
0100
0001
,
2000
0000
3002
0000
0103
0010
0100
0000
,
0000
0000
0000
2002
,
0000
3000
0103
0010
,
2020
0030
3001
0220
,
0000
0300
0130
0010
,
0001
0100
0001
0000
0101
0000
1000
0100
,
1000
0000
1100
0000
0010
0100
0010
0000
,
1000
0100
0010
0000
0100
0000
0010
0100
,
0000
0000
0000
0000
,
1000
0000
1000
0000
0001
0010
0001
0000
,
0100
0000
0000
0000
0100
0000
0000
0000
0010
0000
0100
0010
0000
0100
0010
0000
,
1000
0001
1000
0000
0010
0100
0010
0000
,
0100
0000
0000
0000
0000
0000
0010
0000
0000
0000
0000
0000
0100
0000
0010
0000
0100
0000
0010
0000
0000
1000
0000
0000
,
0001
0010
0001
0000
1000
0100
1000
0000
,
0020
0000
0230
0000
0310
0010
0100
0100
,
0001
0010
0100
0000
1000
0010
0100
0000
,
0010
1000
0001
0100
0000
0000
0000
0000
,
0001
0011
1000
1010
,
0100
0000
0101
0001
0010
0100
1000
0100
,
1000
1010
0100
0011
,
0100
0000
0110
0000
0001
0100
1000
0100
,
0001
1010
0100
0011
,
0100
0000
0110
0100
0001
0010
0100
1000
,
0010
1000
0100
0000
0010
0001
0100
0000
,
0001
0100
0010
1000
0100
0010
0001
1000
,
0002
0000
0000
0000
,
0003
0000
0000
0000
;

//--------------- dance-single - ----------------
#NOTES:
     dance-single:
     :
     Hard:
     14:
     0,0,0,0,0:
0000
0000
0000
0000
,
0000
0000
0000
0000
,
0000
0000
0000
0000
,
0000
0000
0000
0000
,
0000
0000
0000
0000
,
0020
0000
0130
0001
0020
0000
0000
0130
,
0000
1000
0001
0100
0010
0000
1000
0001
,
0010
0100
1000
0000
0010
0100
0001
2000
,
0000
3001
0100
0010
0100
0001
1000
0000
,
1001
0000
0010
0100
0210
0000
0000
0310
,
0000
0100
0010
1000
0001
0000
0001
1000
,
0010
0100
0001
0000
0010
0100
1000
0002
,
0000
1003
0010
0100
0010
1000
0001
0000
,
0110
0000
0010
1000
2100
0000
3001
0011
,
0000
0010
0100
1000
0001
0000
0100
0010
,
0100
0001
0100
0010
1000
0001
0100
0010
,
1000
0010
1000
0000
0001
0100
0001
0000
0200
0000
0000
0000
0000
0000
0310
0000
,
0100
0000
0000
0000
0001
0000
0100
0000
1000
0000
0000
0100
0010
0000
2000
0000
,
0000
0000
0000
0000
3000
0000
0000
0000
0001
0100
0001
0100
0010
1000
0010
1000
,
0001
0000
0000
0000
1000
0000
0100
0000
0001
0000
0000
0100
0010
0000
0002
0000
,
0000
0000
0000
0000
0003
0000
0000
0000
1000
0100
1000
0100
0010
0001
0010
0001
,
1000
0000
0000
0000
0100
0000
0010
0000
0001
0000
0000
0100
0010
0000
0200
0000
,
0000
0000
0000
0000
0300
0000
0000
0000
0001
0100
0001
0100
0000
0010
1000
0010
,
1000
0000
0100
0000
0010
0000
0001
0000
1000
0000
0000
0100
0010
0000
0200
0000
,
0000
0000
0000
0000
0300
0000
0000
0000
1000
0010
1000
0010
0000
0100
0001
0100
,
0002
0000
0000
0013
0100
0000
1000
0000
0020
0000
0000
0130
0001
0000
0010
0000
,
0200
0000
0000
1300
0001
0000
0100
0000
0010
0100
0010
0100
0001
1000
0001
1000
,
0002
0000
0000
0103
0010
0000
1000
0000
0200
0000
0000
0310
0001
0000
1000
0000
,
0002
0000
0000
0103
0010
0000
1000
0000
0001
0100
0001
0100
0010
1000
0010
1000
,
0002
0000
0000
0013
1000
0000
0010
0000
0002
0000
0000
1003
0010
0000
0001
0000
,
0020
0000
0000
0130
0010
0000
1000
0000
0010
0100
0010
0100
0001
1000
0001
1000
,
0001
0000
0010
0000
0100
0000
1000
0000
0100
0000
0000
0010
0001
0000
1000
0000
,
0001
0100
0001
0000
1000
0100
1000
0000
0001
0100
0001
0000
1001
0000
0000
0000
,
0001
0000
0100
0000
0010
0000
1000
0000
0200
0000
0000
0310
0000
0001
0100
0000
,
0010
0000
1000
0000
0100
0000
0001
0000
0100
0000
0010
0001
0000
0010
0100
0000
,
1000
0000
0100
0000
0010
0000
0001
0000
0200
0000
0000
0310
0000
0100
0010
0000
,
1000
0000
0001
0000
0100
0000
1000
0000
0100
0000
0010
1000
0000
0001
0100
0000
,
1000
0000
0100
0000
0001
0000
1000
0000
0020
0000
0000
1030
0000
0001
0100
0000
,
0001
0000
0010
0000
1000
0000
0001
0000
0100
0000
0010
0001
0000
1000
0010
0000
,
0100
0000
0001
0000
0010
0000
0100
0000
2000
0000
0000
3100
0000
0010
0001
0000
,
0010
0001
0010
0000
0100
1000
0100
0000
0010
0100
0010
0000
0110
0000
0000
0000
,
0010
0000
0001
0000
0100
0000
1000
0000
0100
0000
0001
0010
0000
0010
0001
0000
,
0100
0000
1000
0000
0100
0000
0001
0000
0010
0000
1000
0010
0000
0010
0001
0000
,
0100
0000
1000
0000
0100
0000
0001
0000
0010
0000
1000
0010
0000
0010
1000
0000
,
0010
0000
0001
0000
0100
0000
0010
0000
0100
0000
1000
0100
0000
0100
0001
0000
,
0010
0000
0100
0000
1000
0000
0010
0000
0100
0000
0001
0100
0000
0100
0001
0000
,
0100
0000
0001
0000
1000
0000
0010
0000
1000
0000
0010
0001
0000
0010
1000
0000
,
0100
0000
0010
0000
0001
0000
1000
0000
0002
0000
0000
1003
0000
0010
0100
0000
,
0001
0100
0001
0000
1000
0100
1000
0000
0001
0100
0010
0000
0110
0000
0000
0000
,
0000
0000
0000
0220
,
0000
0000
0000
0000
0300
0000
0000
0000
0130
0000
0001
0100
0001
0000
0100
0000
,
0220
0300
0130
2002
,
0000
0000
0000
0000
3003
0000
0000
0000
1000
0100
0010
0000
0001
0100
0010
0000
,
1000
0100
0010
0001
1001
0000
0001
0010
,
0100
0000
1000
0000
0010
0000
0100
0000
0001
0100
0010
0000
1000
0100
0010
0000
,
0001
0100
0010
1000
0010
0000
0010
0220
,
0000
0000
0330
0000
,
1000
0100
1100
0001
0011
1010
0011
0010
,
0100
0000
0000
0000
0110
0000
0000
0000
0001
0000
0100
0010
0000
0010
0100
0000
,
0010
1000
1001
0100
0101
1100
0101
1000
,
0010
0000
0000
1010
0000
0000
0100
0000
0000
0101
0000
0000
0001
0000
0100
0000
0010
0000
1000
0000
0000
1001
0000
0000
,
0010
0100
0110
0001
1010
0110
0101
0010
,
1200
0301
1020
0031
0100
1100
0101
0000
,
0100
0010
1001
0010
1100
0101
1100
0100
,
0020
0001
0001
0031
0000
0000
0000
0000
,
0001
0010
0001
0000
0100
0000
0010
0000
1000
0000
0010
0000
0100
0000
0001
0000
,
0010
0100
0010
0000
0001
0000
0200
0000
0320
0000
2030
0000
3002
0000
0023
0000
,
0130
0010
0001
0000
0100
0000
0010
0000
1000
0000
0010
0000
0001
0000
1000
0000
,
0100
0010
1000
0000
0001
0000
0010
0000
1000
0000
0001
0000
0100
0000
1000
0000
,
0100
0010
1000
0000
0010
0000
0001
0000
1000
0000
0010
0000
0001
0000
1000
0000
,
0100
0010
0001
0000
1000
0000
0200
0000
0302
0000
0023
0000
0230
0000
2300
0000
,
3010
0100
0001
1000
0001
0010
0100
1000
,
0001
0010
0100
0000
1000
0010
0100
0000
0001
0100
0001
0100
0010
1000
0010
1000
,
0002
0000
0000
0000
,
0003
0000
0000
0000
;

//--------------- dance-single - ----------------
#NOTES:
     dance-single:
     :
     Challenge:
     17:
     0,0,0,0,0:
0000
0000
0000
0000
,
0000
0000
0000
0000
,
0000
0000
0000
0000
,
0000
0000
0000
0000
,
0000
0000
0000
0000
,
1100
0000
0001
0100
0010
0000
0000
0101
,
0000
1000
0010
0001
0100
0010
1000
0001
,
0010
0100
1000
0010
0000
0000
0000
0200
,
0000
0302
0000
1000
1003
0000
0010
0000
,
0101
0000
0000
1000
0100
0000
0010
0000
0001
0000
0100
0000
0010
0000
1010
0000
,
0000
0000
0001
1000
0010
0000
1000
0000
0100
0000
0010
0001
0010
0000
0100
0000
,
1000
0010
0100
0010
0100
0010
0100
0001
,
0000
0000
0000
0010
0000
0000
0001
0000
0000
0100
0000
0000
1000
0000
0000
0000
0000
0000
0001
0100
0001
0100
0000
0000
,
0010
0000
1000
0100
1000
0000
0001
0000
0010
0000
0100
0000
1000
0000
0001
0000
,
0010
0000
0000
0000
0000
0000
0001
0000
0000
0100
0000
0000
0001
0000
0000
0000
0000
0000
1000
0000
0000
0000
0000
0000
0010
0000
0100
0000
0010
0000
0100
0000
0010
0000
0100
0000
0001
0000
0000
0000
0000
0000
1000
0000
0000
0000
0000
0000
,
0100
1000
0001
1000
0100
0000
0010
0000
0001
0000
0001
0000
1000
0000
1000
0000
,
0001
0000
0000
0100
0000
0000
1000
0000
0000
0010
0000
0000
1000
0000
0000
0001
0000
0000
0010
0000
0000
0100
0000
0000
1000
0000
0010
0000
1000
0000
0010
0000
0100
0000
0001
0000
0100
0000
0000
0000
0000
0000
0001
0000
0000
0000
0000
0000
,
1001
0000
0000
0000
0000
0000
0010
0001
0100
0000
0010
1000
0000
0000
0001
1000
,
0000
0000
0100
0010
0000
0010
0001
0100
0001
1000
0100
0010
0000
0010
0001
0100
,
0010
0000
0000
0000
0000
0000
1000
0100
0010
0000
0001
0100
0000
0000
0010
1000
,
0000
0000
0100
0010
0000
0010
0001
0100
0001
0010
0100
1000
0000
1000
0010
0100
,
0001
0000
0010
0000
1000
0000
0010
0000
0001
0000
1000
0100
0000
0100
1000
0000
,
0000
0000
0001
1000
0000
0000
0100
0010
0001
1000
0010
0100
0000
0100
0001
0010
,
1000
0000
0010
0001
0100
0000
0010
0000
1000
0000
0001
0010
0000
0010
0100
0000
,
0000
0000
1000
0001
0000
0001
0010
0100
1000
0010
1000
0001
0000
0001
0100
0010
,
1000
0000
0001
0100
0001
0000
0010
0100
1000
0000
0010
1000
0100
0000
1000
0001
,
1000
0000
0001
0010
0100
0000
1000
0010
1000
0100
0010
0001
1000
0010
0001
0100
,
0010
0000
0100
0001
0100
0000
0001
0010
0001
0000
1000
0100
0010
0000
0100
1000
,
0001
0000
0010
0001
0100
0000
0001
1000
0001
0010
0100
1000
0010
0001
0100
1000
,
0001
0000
0010
1000
0100
0000
1000
0001
0010
0000
0100
0010
0001
0000
1000
0010
,
1000
0000
0100
0010
0001
0000
1000
0001
0010
0100
0010
0001
0100
0010
1000
0100
,
0001
0001
0001
0001
0001
0001
0001
0001
,
0001
0000
0000
0010
0000
0000
1000
0000
0000
0100
0000
0000
0001
0000
0000
0010
0000
0000
1000
0000
0000
0100
0000
0000
0001
0000
0010
0000
0100
0000
1000
0000
0100
0000
0010
0000
0001
0000
0000
0000
0000
0000
1000
0000
0000
0100
0000
0000
,
0010
0000
0001
0100
0001
0000
0010
0100
1000
0000
0010
1000
0001
0000
0010
0100
,
1000
0000
0010
1000
0100
0000
0010
0001
0100
1000
0001
0010
1000
0100
0001
0010
,
1000
0000
0100
0010
0100
0000
1000
0010
0001
0000
0100
0001
0010
0000
0001
0100
,
0010
0000
1000
0001
1000
0000
0100
0010
0001
1000
0010
0001
1000
0100
0001
0100
,
1000
0000
0001
0010
0001
0000
1000
0100
0001
0000
1000
0010
0100
0000
0010
0100
,
0010
0000
1000
0100
0001
0000
0010
0001
0100
1000
0001
0010
0001
1000
0100
0001
,
0010
0000
0001
0100
0001
0000
0010
0100
1000
0000
0001
1000
0010
0000
0100
0001
,
1000
0000
0000
0010
0000
0000
1000
0000
0000
0001
0000
0000
0100
0000
0000
0001
0000
0000
0010
0000
0000
0100
0000
0000
1000
0000
0100
0000
1000
0000
0001
0000
0100
0000
0001
0000
1000
0000
0000
0010
0000
0000
0001
0000
0000
0100
0000
0000
,
0010
0000
1000
0100
0010
0000
0001
1000
0001
0000
0010
0100
1000
0000
0001
0010
,
1000
0000
0100
0010
0100
0000
1000
0010
0001
0001
0010
0010
1000
1000
0100
0100
,
0010
0000
0001
0100
0010
0000
1000
0100
0001
0000
0010
1000
0001
0000
1000
0010
,
0100
0000
0001
0010
0001
0000
1000
0100
0010
0010
0100
0100
0001
0001
1000
1000
,
0100
0000
0001
0010
1000
0000
0001
1000
0010
0000
0100
0010
0100
0000
0001
1000
,
0100
0000
0010
0001
1000
0000
0001
0010
1000
1000
0100
0100
0010
0010
0001
0001
,
0100
0101
0010
1010
1000
1100
0001
0011
,
1000
0000
0000
0100
0000
0000
0001
0000
0000
0010
0000
0000
1000
0000
0000
0010
0000
0000
0001
0000
0000
0100
0000
0000
0001
0000
0010
0000
0100
0000
1000
0000
0100
0000
0010
0000
0001
0000
0100
0000
0010
0000
1000
0000
0010
0000
0100
0000
,
0001
0200
0320
2030
3002
0003
2020
0000
,
0000
0000
0000
0000
0000
0000
0000
0000
0000
0000
0000
0000
0030
0000
0000
0000
0000
0000
0001
0000
0000
0000
0000
0000
3001
0000
0000
0000
0000
0000
0100
0000
0010
0000
1000
0000
0001
0000
0000
1000
0000
0000
0100
0000
0000
0010
0000
0000
,
0001
2000
3020
0230
0302
0003
0022
0000
,
0000
0030
1003
1001
,
0010
2000
3002
0023
0230
0300
2100
0002
,
0003
0000
0000
0000
0000
0000
0010
0000
0000
0000
0000
0000
0010
0000
0000
0000
0000
0000
0010
0000
0000
0000
0000
0000
3100
0000
0000
0000
0000
0000
1000
0000
0100
0000
0010
0000
0001
0000
0000
1000
0000
0000
0010
0000
0000
0100
0000
0000
,
0010
2000
3200
0320
0032
0003
0101
0010
,
2000
0000
0000
3020
0000
0000
0032
0000
0000
0203
0000
0000
0310
0000
0000
0100
0000
0000
0001
1000
0001
1000
0001
1000
,
0100
0000
0020
0000
0032
0000
0203
0000
2300
0000
3010
0100
0000
0100
0001
0000
,
1000
0000
0000
0000
0000
0000
0000
0000
0000
0000
0000
0000
0100
0000
0000
0000
0000
0000
0010
0000
0000
0000
0000
0000
0001
0000
0000
0000
0000
0000
0100
0000
0000
0000
0000
0000
1000
0000
0000
0000
0000
0000
0001
0000
0000
0000
0000
0000
0010
0000
0000
0000
0000
0000
0000
0000
0000
0000
0000
0000
0100
0000
0000
0000
0000
0000
1000
0000
0000
0001
0000
0000
1000
0000
0000
0000
0010
0000
0000
0000
0001
0000
0000
0000
1000
0000
0000
0000
0100
0000
0000
0000
0001
0000
0000
0000
,
0010
0000
0200
0000
0320
0000
0032
0000
2003
0000
3001
1000
0000
1000
0100
0000
,
0010
0000
0000
0000
0000
0000
0001
0000
0000
0000
0000
0000
0010
0000
0000
1000
0000
0000
0001
0000
0000
0000
0000
0000
0100
0000
0000
0000
0100
0000
0000
0000
0100
0000
0000
0000
0100
0000
0000
0000
0000
0000
1000
0000
0001
0000
0010
0000
,
0100
0000
2000
0000
3002
0000
0023
0000
0230
0000
0310
0001
0000
0001
0100
0000
,
0010
0000
0000
0000
1000
0000
0100
0000
0001
0000
0010
0000
0100
0000
1000
0001
1000
0000
0000
0000
0010
0000
0100
0000
0010
0000
0001
0000
0100
0000
0000
0000
,
0010
0000
2000
0000
3200
0000
0320
0000
0032
0000
0103
1000
0000
1000
0010
0000
,
0100
0000
0000
0010
0000
0000
0010
0000
0000
0010
0000
0000
0000
0000
0000
1000
0000
0000
0001
0010
1000
0001
0100
1000
,
0010
0000
1000
0100
0001
0010
0001
0100
0001
0010
0100
1000
0010
0100
0001
1000
,
0000
0000
0100
0010
0100
1000
0010
0001
1000
0100
0001
0010
0100
1000
0010
0001
,
0000
0000
1000
0001
0010
1000
0100
0010
0100
1000
0010
0001
1000
0001
0010
0100
,
0000
0000
0000
0000
0000
0000
1000
0000
0000
0010
0000
0000
1000
0000
0000
0100
0000
0000
0010
0000
0000
0001
0000
0000
0100
0000
0000
0001
0000
0000
0010
0000
0000
0100
0000
0000
1000
0000
0000
0010
0000
0000
0100
0000
0001
0000
0010
0000
,
0100
0000
1000
0010
0001
0100
1000
0000
0010
1000
0010
0100
0001
0010
1000
0100
,
0010
0000
0100
1000
0010
1000
0001
0000
0100
0001
0010
1000
0001
1000
0100
0010
,
0001
1001
0001
1001
0001
1001
0001
1001
,
0010
0000
0000
0010
0000
0000
0100
0000
0000
0100
0000
0000
1000
0000
0000
0001
0000
0000
1000
0000
0000
0001
0000
0000
1000
0000
0100
0000
1000
0000
0001
0000
0100
0000
0001
0000
0100
0000
0010
0000
1000
0000
0010
0000
0001
0000
0010
0000
,
1000
0001
1000
0001
1000
0001
1000
0001
1000
0001
1000
0001
1000
0001
1000
0001
;

//--------------- dance-double - ----------------
#NOTES:
     dance-double:
     :
     Easy:
     7:
     0,0,0,0,0:
00000000
00000000
00000000
00000000
,
00000000
00000000
00000000
00000000
,
00000000
00000000
00000000
00000000
,
00000000
00000000
00000000
00000000
,
00000000
00000000
00000000
00000000
,
00011000
00100000
00010000
00000000
,
00001000
00010000
00100000
00010000
,
00001000
00001000
00010000
00010000
,
00001000
00000100
00000010
00000000
,
00001001
00000010
00000100
00000000
,
00001000
00000100
00000010
00000001
,
00000100
00000100
00001000
00001000
,
00010000
00001000
00010000
00000000
,
00011000
00000010
00001000
00000000
,
00010000
00001000
00000010
00001000
,
00010000
00010000
00001000
00001000
,
00010000
00001000
00010000
00000000
00022000
00000000
00033000
00000000
,
00020000
00000000
00031000
00100000
,
00010000
00000000
00000000
00000000
00100000
00010000
00100000
00000000
,
02000000
00000000
03100000
00010000
,
10000000
00000000
00000000
00000000
10000000
00010000
10000000
00000000
,
02000000
00000000
03100000
00001000
,
00010000
00000000
00000000
00000000
00001000
00010000
00001000
00000000
,
00020000
00000000
00031000
00000100
,
00000010
00000000
00000000
00000000
00000100
00000010
00000100
00000000
,
00000001
00000010
00000100
00001000
,
00000100
00000000
00010000
00000000
00001000
00010000
00001000
00000000
,
00100000
00010000
01000000
00100000
,
10000000
00000000
01000000
00000000
00100000
01000000
00100000
00000000
,
00010000
00100000
00001000
00010000
,
00001000
00000000
00000100
00000000
00000001
00001000
00000001
00000000
,
00000010
00000010
00000100
00000100
,
00002000
00000000
00003200
00000000
00010300
00001000
00010000
00000000
,
00001000
00100000
00010000
10010000
,
00010000
00100000
00001000
00011000
,
00010000
00000100
00001000
00001001
,
00000100
00000010
00000100
00000110
,
00001000
00000100
00010000
00011000
,
00100000
00010000
10000000
10010000
,
00100000
01000000
00010000
00100000
,
00001000
00010000
00001000
00000000
00010000
00001000
00010000
00000000
,
00001000
00000100
00000010
00000110
,
00000001
00000010
00000100
00000110
,
00001000
00000100
00010000
00011000
,
00001000
00100000
00010000
10010000
,
10000000
00100000
01000000
01100000
,
00010000
00100000
01000000
01100000
,
10000000
00010000
00100000
00001000
,
00010000
00001000
00010000
00000000
00001000
00010000
00001000
00000000
,
00000000
00000000
00000000
00002000
,
00000000
00000000
00000000
00003000
,
00000200
00000000
00000300
00000020
,
00000000
00000000
00000100
00000130
,
00000010
00001000
00000100
00010000
,
00001000
01000000
00100000
00100000
,
10000000
00000000
00010000
00000000
00100000
00000000
00001000
00010000
,
00000000
00000000
00000000
00000000
,
00001000
00000100
00000001
00000010
,
00001000
00010000
01000000
10000000
,
00100000
00010000
00001000
00000010
,
00000001
00000100
00000110
00000110
,
00000001
00000100
00001000
00010000
,
01000000
10000000
00100000
00010000
,
00001000
00000010
00000001
00000100
,
00000001
00000001
00000001
00000001
00000000
00000000
00000000
00000000
,
00000001
00000010
00000100
00000110
,
00000001
00000000
00000100
00000000
00000001
00000100
00001000
00000000
,
00010000
00001000
00010000
00011000
,
00010000
00000000
00001000
00000000
00010000
00001000
00100000
00000000
,
00010000
01000000
00100000
01100000
,
10000000
00000000
01000000
00000000
10000000
01000000
00010000
00000000
,
00001000
00001000
00010000
00010000
,
00001000
00010000
00001000
00000000
00010000
00001000
00010000
00000000
,
00022000
00000000
00000000
00000000
,
00033000
00000000
00000000
00000000
;

//--------------- dance-double - ----------------
#NOTES:
     dance-double:
     :
     Medium:
     11:
     0,0,0,0,0:
00000000
00000000
00000000
00000000
,
00000000
00000000
00000000
00000000
,
00000000
00000000
00000000
00000000
,
00000000
00000000
00000000
00000000
,
00000000
00000000
00000000
00000000
,
00010000
00000000
00001000
00000000
00011000
00000000
00000000
00001000
,
00000000
00010000
01000000
10000000
00100000
00000000
01000000
00010000
,
00100000
01000000
10000000
00010000
,
00100000
00001000
00022000
00033000
,
00001000
00000000
00000100
00000000
00000110
00000000
00000000
00000010
,
00000000
00001000
00000100
00000010
00000001
00000000
00000100
00001000
,
00010000
00001000
00100000
00010000
,
01000000
00100000
20020000
30030000
,
00010000
00000000
00100000
00001000
00010000
00000000
00001000
00000000
,
00000100
00000010
00001000
00000000
00000100
00000010
00000001
00000000
,
00000001
00000100
00000010
00001000
00000010
00000100
00000001
00000100
,
00001000
00010000
00001000
00100000
02000000
00000000
00000000
03100000
,
01000000
00000000
00000000
00000000
01100000
00000000
00000000
00000000
10000000
00000000
00000000
00100000
00000000
00000000
02000000
00000000
,
00000000
00000000
00000000
00000000
03100000
10000000
01000000
00100000
,
00010000
00000000
00000000
00000000
00110000
00000000
00000000
00000000
00001000
00000000
00000000
00010000
00000000
00000000
00000200
00000000
,
00000000
00000000
00000000
00000000
00000310
00000001
00001000
00000010
,
00000100
00000000
00000000
00000000
00000110
00000000
00000000
00000000
00000100
00000000
00000000
00001000
00000000
00000000
00020000
00000000
,
00000000
00000000
00000000
00000000
00031000
00010000
00001000
00100000
,
01000000
00000000
10000000
00000000
00010000
00000000
00100000
00000000
00001000
00000000
00000000
00010000
00000000
00000000
00002000
00000000
,
00000000
00000000
00000000
00000000
00013000
00000100
00000010
00000001
,
00001000
00000000
00000000
00000100
00000010
00000000
00000000
00000010
00000001
00000000
00000000
00000001
00000100
00000000
00000000
00000100
,
00000010
00000000
00000000
00000010
00001000
00000000
00000000
00001000
00000100
00000000
00010000
00000000
00001000
00000000
00100000
00000000
,
00010000
00000000
00000000
00010000
00100000
00000000
00000000
00100000
01000000
00000000
00000000
01000000
10000000
00000000
00000000
10000000
,
00100000
00000000
00000000
00100000
01000000
00000000
00000000
01000000
00010000
00000000
10000000
00000000
01000000
00000000
00010000
00000000
,
00001000
00000000
00000000
00001000
00010000
00000000
00000000
00010000
00000100
00000000
00000000
00000100
00000010
00000000
00000000
00000010
,
00000001
00000000
00000000
00000001
00000100
00000000
00000000
00000100
00000010
00000000
00001000
00000000
00000010
00000000
00000001
00000000
,
00000010
00001000
00000100
00000010
00000001
00000100
00001000
00010000
,
01000000
10000000
00010000
01000000
10000000
01000000
00200000
00000000
,
10300000
00000000
01000000
00000000
00100000
00000000
00000000
00000000
00010000
00000000
00000000
00100000
00001000
00000000
00000000
00000000
,
00011000
00000000
00001100
00000000
00000100
00000010
00000001
00000000
,
00000100
00000000
00000010
00000000
00001000
00000000
00000000
00000000
00000100
00000000
00000000
00010000
00001000
00000000
00000000
00000000
,
00011000
00000000
00110000
00000000
00100000
01000000
10000000
00010000
,
01000000
00000000
00100000
00000000
10000000
00000000
00000000
00000000
01000000
00000000
00000000
00100000
00010000
00000000
00000000
00000000
,
00011000
00000000
00001010
00000000
00001000
00000100
00000010
00000001
,
00000100
00000000
00001000
00000000
00010000
00000000
00000000
00000000
00001000
00000000
00000000
00100000
00010000
00000000
01000000
00000000
,
00100000
10000000
01000000
00100000
00001000
00010000
00002000
00000000
,
00013000
00001000
00000100
00000001
00000200
00000000
00000310
00000000
,
00001000
00000000
00000100
00000000
00000001
00000000
00000000
00000000
00000100
00000010
00000000
00000100
00000010
00000000
00000001
00000000
,
00000100
00001000
00010000
00001000
00020000
00000000
01030000
00000000
,
00100000
00000000
00010000
00000000
10000000
00000000
00000000
00000000
00100000
01000000
00000000
00100000
01000000
00000000
00100000
00000000
,
10000000
01000000
00010000
00001000
00020000
00000000
00030100
00000000
,
00000010
00000000
00000001
00000000
00000100
00000000
00000000
00000000
00000010
00000100
00000000
00000010
00000100
00000000
00000001
00000000
,
00000010
00000001
00000010
00000001
00001000
00000100
00001000
00000100
,
00020000
00000000
00032000
00000000
00013000
01000000
00100000
00000000
,
00000000
00000000
00000000
02000000
,
00000000
00000000
03100000
00010000
,
20000000
00000000
30010000
02000000
,
00000000
00000000
03100000
00100000
,
10000000
01000000
00010000
00000000
00011000
00000000
00001000
00000100
,
00000001
00000000
00001001
00000000
00000001
00000010
00000100
00000000
,
00001000
00000100
00010000
00000000
00001000
00000000
00010000
00001000
,
00000000
00000000
00000000
00000000
,
00001000
00000000
00010000
00000000
00001000
00000100
00000010
00000000
,
00000110
00000000
00000000
00000000
00001001
00000000
00000000
00000000
00000100
00000000
00010000
00001000
00000000
00010000
00001000
00000000
,
00010000
00001000
00100000
00000000
01000000
00100000
01000000
00000000
,
00110000
00000000
00000000
00000000
00000000
00000000
11000000
00000000
00000000
00000000
00000000
00000000
00100000
00000000
01000000
00000000
00100000
00000000
01000000
00000000
00000000
10000000
00000000
00000000
,
00010000
00100000
00001000
00000000
00010000
00001000
00000100
00000000
,
00000020
00000000
00000230
00000000
00000310
00000010
00000100
00000100
,
00000010
00001000
00000100
00000000
00001000
00000100
00010000
00000000
,
00001000
00010000
01000000
10000000
00000000
00000000
00000000
00000000
,
00100000
10100000
01000000
00110000
,
00010000
00000000
00011000
00001000
00010000
00001000
00000100
00000001
,
00000010
00000110
00000001
00001100
,
00000010
00000000
00000110
00000000
00000001
00000010
00001000
00010000
,
00001000
00011000
00100000
00110000
,
01000000
00000000
11000000
01000000
10000000
00010000
00100000
00001000
,
00010000
00001000
00000100
00000000
00000010
00001000
00000100
00000000
,
00000010
00000001
00000100
00000010
00001000
00000100
00010000
00001000
,
00200000
00000000
00000000
00000000
,
00300000
00000000
00000000
00000000
;

//--------------- dance-double - ----------------
#NOTES:
     dance-double:
     :
     Hard:
     14:
     0,0,0,0,0:
00000000
00000000
00000000
00000000
,
00000000
00000000
00000000
00000000
,
00000000
00000000
00000000
00000000
,
00000000
00000000
00000000
00000000
,
00000000
00000000
00000000
00000000
,
00001000
00010000
00001000
00000100
00000002
00000000
00000000
00000013
,
00000000
00000100
00000010
00000001
00000100
00000000
00001000
00010000
,
00001000
00100000
01000000
00000000
00100000
00010000
01000000
20000000
,
00000000
31000000
00010000
00100000
01000000
00010000
00001000
00000000
,
00011000
00000000
00001000
00000100
00000020
00000000
00000000
00000130
,
00000000
00000001
00000010
00001000
00000010
00000000
00000010
00000001
,
00000100
00001000
00010000
00000000
00010000
01000000
10000000
00020000
,
00000000
10030000
00100000
01000000
00010000
00100000
00001000
00000000
,
00011000
00000000
00001000
00100000
00020000
00000000
01030000
01010000
,
00000000
01000000
00010000
10000000
00100000
00000000
01000000
00100000
,
10000000
00100000
01000000
00010000
00100000
00001000
00010000
00000100
,
00001000
00000100
00001000
00000000
00000001
00000010
00000001
00000000
00000020
00000000
00000000
00000000
00000000
00000000
00000130
00000000
,
00000010
00000000
00000000
00000000
00000001
00000000
00000100
00000000
00001000
00000000
00000000
00010000
00001000
00000000
00200000
00000000
,
00000000
00000000
00000000
00000000
00300000
00000000
00000000
00000000
01000000
10000000
01000000
10000000
00010000
01000000
00010000
01000000
,
00001000
00000000
00000000
00000000
00010000
00000000
00001000
00000000
00010000
00000000
00000000
01000000
00100000
00000000
00020000
00000000
,
00000000
00000000
00000000
00000000
00030000
00000000
00000000
00000000
10000000
00100000
10000000
00100000
01000000
00010000
01000000
00010000
,
01000000
00000000
00000000
00000000
00001000
00000000
00000100
00000000
00000001
00000000
00000000
00000010
00000100
00000000
00000020
00000000
,
00000000
00000000
00000000
00000000
00000030
00000000
00000000
00000000
00000001
00000100
00000001
00000100
00000000
00000010
00001000
00000010
,
00001000
00000000
00000100
00000000
00000010
00000000
00000001
00000000
00000100
00000000
00000000
00001000
00010000
00000000
00002000
00000000
,
00000000
00000000
00000000
00000000
00003000
00000000
00000000
00000000
00010000
00001000
00010000
00001000
00000000
00100000
00010000
00100000
,
00020000
00000000
00000000
00130000
01000000
00000000
10000000
00000000
00200000
00000000
00000000
01300000
00010000
00000000
00100000
00000000
,
00002000
00000000
00000000
00013000
00000100
00000000
00000010
00000000
00000001
00000100
00000001
00000100
00000010
00001000
00000010
00001000
,
00000002
00000000
00000000
00000103
00001000
00000000
00010000
00000000
00002000
00000000
00000000
00013000
01000000
00000000
00100000
00000000
,
00020000
00000000
00000000
10030000
00100000
00000000
01000000
00000000
00010000
01000000
00010000
01000000
00100000
10000000
00100000
10000000
,
00020000
00000000
00000000
00130000
10000000
00000000
00100000
00000000
00002000
00000000
00000000
00013000
00000100
00000000
00000010
00000000
,
00000002
00000000
00000000
00000103
00000010
00000000
00001000
00000000
00000001
00000100
00000001
00000100
00000010
00001000
00000010
00001000
,
00000010
00000100
00001000
00010000
00001000
00000100
00000010
00001000
,
00000100
00001000
00000100
00000000
00010000
00001000
00010000
00000000
00001000
00100000
00001000
00000000
00011000
00000000
00000000
00000000
,
00001000
00000000
00010000
00000000
00001000
00000000
00000100
00000000
00000002
00000000
00000000
00000013
00000000
00001000
00000010
00000000
,
00000001
00000000
00000100
00000000
00001000
00000000
00010000
00000000
00001000
00000000
00010000
00001000
00000000
00010000
00001000
00000000
,
00010000
00000000
00100000
00000000
00010000
00000000
00100000
00000000
02000000
00000000
00000000
03100000
00000000
01000000
00100000
00000000
,
10000000
00000000
01000000
00000000
00010000
00000000
00001000
00000000
00010000
00000000
00100000
01000000
00000000
00100000
01000000
00000000
,
10000000
00000000
01000000
00000000
00010000
00000000
00100000
00000000
00002000
00000000
00000000
00013000
00000000
00000100
00001000
00000000
,
00000100
00000000
00000001
00000000
00001000
00000000
00000010
00000000
00000001
00000000
00000100
00000010
00000000
00001000
00000010
00000000
,
00000100
00000000
00000001
00000000
00000100
00000000
00001000
00000000
00020000
00000000
00000000
00031000
00000000
00010000
01000000
00000000
,
00100000
00000000
00100000
00000000
01000000
00000000
01000000
00000000
00100000
01000000
00100000
00000000
01100000
00000000
00000000
00000000
,
10000000
00000000
01000000
00000000
00010000
00000000
00001000
00000000
00010000
00000000
00001000
00000100
00000000
00000100
00000001
00000000
,
00000010
00000000
00001000
00000000
00010000
00000000
00001000
00000000
00010000
00000000
01000000
10000000
00000000
10000000
00100000
00000000
,
01000000
00000000
00010000
00000000
00100000
00000000
00001000
00000000
00010000
00000000
00000100
00000010
00000000
00000010
00000100
00000000
,
00001000
00000000
00000010
00000000
00000001
00000000
00000010
00000000
00001000
00000000
00000100
00010000
00000000
00010000
00001000
00000000
,
00010000
00000000
00100000
00000000
01000000
00000000
00010000
00000000
00100000
00000000
01000000
10000000
00000000
10000000
01000000
00000000
,
00100000
00000000
00001000
00000000
00010000
00000000
00001000
00000000
00000100
00000000
00000001
00000010
00000000
00000010
00000100
00000000
,
00001000
00000000
00000010
00000000
00000001
00000000
00000010
00000000
00002000
00000000
00000000
00003100
00000000
00010000
00001000
00000000
,
00001000
00010000
00000100
00000000
00001000
00000100
00010000
00000000
00001000
00010000
00001000
00000000
00011000
00000000
00000000
00000000
,
00000000
00000000
00000000
00022000
,
00000000
00000000
00000000
00000000
00003000
00000000
00000000
00000000
00031000
00000000
00010000
00000100
00001000
00000000
00000100
00000000
,
00002200
00003000
00000310
00000220
,
00000000
00000000
00000000
00000000
00000330
00000000
00000000
00000000
00000001
00000100
00000010
00000000
00001000
00000100
00000010
00000000
,
00000001
00000100
00001000
00010000
00011000
00000000
00001000
00010000
,
01000000
00000000
10000000
00000000
00100000
00000000
01000000
00000000
00010000
00100000
01000000
00000000
00100000
00001000
00010000
00000000
,
00001000
00010000
00001000
00000100
00000010
00000000
00000100
00000220
,
00000000
00000000
00000330
00000000
,
00000001
00000010
00000011
00000100
00001100
00011000
00001100
00010000
,
00001000
00000000
00000000
00000000
00011000
00000000
00000000
00000000
00010000
00000000
00001000
00100000
00000000
00100000
01000000
00000000
,
00100000
00010000
00110000
00001000
00011000
01010000
00011000
00001000
,
00000100
00000000
00000000
00000110
00000000
00000000
00000010
00000000
00000000
00001001
00000000
00000000
00000001
00000000
00000100
00000000
00000010
00000000
00001000
00000000
00000000
00001001
00000000
00000000
,
00000010
00000100
00001100
00010000
00011000
00110000
00011000
00100000
,
00021000
00130000
02100000
03010000
00100000
10100000
00110000
00000000
,
10000000
01000000
01100000
00010000
00110000
00011000
00110000
00001000
,
00020000
00001000
00001000
00031000
00000000
00000000
00000000
00000000
,
00001000
00010000
00001000
00000000
00000100
00000000
00000010
00000000
00001000
00000000
00000001
00000000
00000010
00000000
00000100
00000000
,
00001000
00000100
00001000
00000000
00000100
00000000
00020000
00000000
00032000
00000000
02003000
00000000
03200000
00000000
20300000
00000000
,
31000000
00100000
00010000
00000000
01000000
00000000
00100000
00000000
00010000
00000000
00001000
00000000
00000100
00000000
00000010
00000000
,
00001000
00000100
00000010
00000000
00000001
00000000
00000010
00000000
00001000
00000000
00000010
00000000
00000001
00000000
00000100
00000000
,
00001000
00000100
00000010
00000000
00001000
00000000
00000100
00000000
00010000
00000000
00001000
00000000
00000100
00000000
00001000
00000000
,
00010000
00100000
01000000
00000000
00100000
00000000
02000000
00000000
03020000
00000000
00032000
00000000
00023000
00000000
02030000
00000000
,
03100000
10000000
00010000
01000000
10000000
01000000
00010000
00100000
,
00001000
00010000
00000100
00000000
00001000
00000100
00000010
00000000
00000001
00000100
00000001
00000100
00000010
00001000
00000010
00001000
,
00000002
00000000
00000000
00000000
,
00000003
00000000
00000000
00000000
;
