#TITLE:Shout;
#ARTIST:Lulu;
#BANNER:Shout.png;
#BACKGROUND:Shout-bg.png;
#JACKET:Shout-jacket.png;
#MUSIC:Shout.ogg;
#OFFSET:0.501;
#SAMPLESTART:6.312;
#SAMPLELENGTH:20;
#DISPLAYBPM:132:146;
#BPMS:0=145.3,56=146.4,68=145.6,88=143.4,104=145.1,116=137.6,120=142.9,132=145,133.5=146.3,136=143.1,148=143.4,168=143.1,172=138,176=132,180=132.84;
#BGCHANGES:17.5=Shout.avi=1=1=0=0=StretchNoLoop==CrossFade==,
;

//---------------dance-single - ----------------
#NOTES:
     dance-single:
     :
     Beginner:
     2:
     :
0000
0000
0000
0000
,
0000
0000
0000
0000
,
0000
0000
0000
0000
,
0000
0000
0000
0000
,
0000
0000
0000
0000
,
0100
0000
0000
0000
,
0010
0000
0000
0000
,
0100
0000
0000
0000
,
0001
0000
0000
0000
,
1000
0000
0000
0000
,
0001
0000
0000
0000
,
0010
0000
0000
0000
,
0100
0000
0000
0000
,
1000
0000
1000
0000
,
0001
0000
0000
0000
,
0100
0000
0100
0000
,
0001
0000
0000
0000
,
1000
0000
0001
0000
,
1000
0000
0000
0000
,
0010
0000
0001
0000
,
0010
0000
0000
0000
,
0001
0001
0001
0000
,
0000
0000
0000
0000
,
1000
1000
1000
0000
,
0000
0000
0000
0000
,
0010
0010
0010
0000
,
0000
0000
0000
0000
,
0100
0100
0100
0000
,
0000
0000
0000
0000
,
1000
0000
1000
0000
,
0001
0000
0000
0000
,
0100
0000
0100
0000
,
0001
0000
0000
0000
,
1000
0000
1000
0000
,
0010
0000
0000
0000
,
0100
0000
0100
0000
,
0001
0000
0000
0000
,
1000
0000
0001
0000
,
1001
0000
0000
0000
,
0001
0000
1000
0000
,
1001
0000
0000
0000
,
0100
0000
0010
0000
,
0110
0000
0000
0000
,
0010
0000
0100
0000
,
0110
0000
0000
0000
,
1000
0000
0001
0000
,
0001
0001
0001
0000
,
0100
0000
0010
0000
,
0010
0010
0010
0000
,
1000
0000
1000
0000
,
1000
1000
1000
0000
,
0001
0000
0001
0000
,
0001
0001
0001
0000
,
0100
0000
0100
0000
,
0100
0100
0100
0000
,
0001
0000
1000
0000
,
1001
0000
0000
0000
;

//---------------dance-single - ----------------
#NOTES:
     dance-single:
     :
     Easy:
     5:
     :
0000
0000
0000
0000
,
0000
0000
0000
0000
,
0000
0000
0000
0000
,
0000
0000
0000
0000
,
0000
0000
0000
0000
,
2000
0000
0000
3000
,
0002
0000
0000
0003
,
2000
0000
0000
3000
,
0200
0000
0000
0300
,
1001
0000
1000
0000
,
0001
0000
1000
0000
,
0100
0000
1000
0000
,
0010
0000
1000
0000
,
0001
1000
0001
1000
,
0002
0000
0000
0003
,
1000
0100
1000
0100
,
2000
0000
0000
3000
,
0100
0010
0100
0010
,
0200
0000
0000
0300
,
0010
0001
0010
0001
,
0020
0000
0000
0030
,
0001
0001
2000
3000
,
1000
1000
0002
0003
,
0100
0100
0020
0030
,
0010
0010
0200
0300
,
0001
0002
0000
0003
,
1000
2000
0000
3000
,
0001
0002
0000
0003
,
1001
0000
0000
0000
,
1000
0001
1000
0001
,
2000
0000
0000
3000
,
0001
0100
0001
0100
,
0002
0000
0000
0003
,
0100
0010
0100
0010
,
0200
0000
0000
0300
,
0010
1000
0010
1000
,
0020
0000
0000
0030
,
1000
1000
0002
0003
,
0001
0001
2000
3000
,
0010
0010
0200
0300
,
0100
0100
0020
0030
,
1000
0000
0100
0000
,
0010
0000
0001
0000
,
1000
0000
0010
0000
,
1001
0000
0000
0000
,
1000
0100
2000
3000
,
0200
0300
2000
3000
,
0010
0001
0020
0030
,
0002
0003
0020
0030
,
0001
1000
0002
0003
,
2000
3000
0002
0003
,
0100
0010
0200
0300
,
0020
0030
0200
0300
,
0010
1000
0020
0030
,
2000
3000
0020
0030
,
1000
0000
0001
0000
,
2002
0000
0000
3003
;

//---------------dance-single - ----------------
#NOTES:
     dance-single:
     :
     Medium:
     7:
     :
0000
0000
0000
0000
,
0000
0000
0000
0000
,
0000
0000
0000
0000
,
0000
0000
0000
0000
,
0000
0000
0000
0000
,
0010
0001
0100
0010
,
1000
0000
0100
0000
1000
0000
0100
1000
,
0010
0100
0001
0010
,
0100
0000
1000
0000
0100
0000
1000
0001
,
0100
0010
1000
0010
,
0100
0000
0001
0000
0100
0000
0001
0100
,
0010
1000
0100
0001
,
0100
0000
1000
0000
0100
0000
1000
0010
,
0200
0300
0002
0003
,
1000
0100
1000
0001
,
2000
3000
0200
0300
,
0010
0001
0010
0100
,
0020
0030
0200
0300
,
1000
0001
1000
0010
,
0200
0300
0002
0003
,
2000
0000
0000
3000
,
0010
1000
0100
0000
1000
0000
0100
0000
,
0010
0001
0100
0000
0001
0000
0100
0000
,
0010
1000
0001
0000
1000
0000
0001
0000
,
0100
0001
1000
0000
0001
0000
1000
0000
,
0100
0010
0001
0000
0010
0000
0001
0000
,
0010
0100
1000
0000
0100
0000
1000
0000
,
1000
0001
0100
0000
0001
0000
0100
0000
,
1001
0000
0000
0000
,
0010
1000
0100
0001
,
0100
0000
1000
0000
0010
0000
1000
0100
,
0001
0100
0010
0001
,
0010
0000
1000
0000
0010
0000
0001
0010
,
0001
0100
0010
1000
,
0100
0000
0010
0000
0001
0000
1000
0100
,
1000
0001
0100
0010
,
1000
0000
0010
0000
0100
0000
0001
1000
,
0200
0300
2000
3000
,
0001
0100
0001
0010
,
0110
0000
1001
0000
,
1000
0100
0001
0100
,
1100
0000
0101
0000
,
0001
0100
0010
1000
,
0001
0100
0010
1000
,
1001
0000
0000
0000
,
1100
0100
0010
0001
,
0100
1000
0100
0001
,
0101
0100
0010
1000
,
0100
0001
0100
1000
,
1001
0001
1000
0100
,
0010
0001
0100
0001
,
1001
1000
0001
0010
,
0100
1000
0100
1000
,
1001
0010
0001
0010
,
0100
1000
0010
0100
,
0110
0010
1000
0100
,
1001
0000
0000
0000
;

//---------------dance-single - ----------------
#NOTES:
     dance-single:
     :
     Hard:
     10:
     :
0000
0000
0000
0000
,
0000
0000
0000
0000
,
0000
0000
0000
0000
,
0000
0000
0000
0000
,
0000
0000
0000
0000
,
1001
0000
0010
1000
0010
0000
1000
0100
,
1001
0000
0010
1000
0100
0000
1000
0001
,
1001
0000
0010
0100
0010
0000
0100
0010
,
0110
0000
1000
0001
0000
0100
0000
0000
,
0011
0001
0100
0010
1000
0000
1000
0100
,
0000
2000
0000
0000
0000
0000
0000
0000
,
3001
0000
0011
0001
0100
0010
1000
0000
,
0100
1000
0100
0010
,
0001
0000
1000
0100
1000
0000
0010
0000
,
0100
0000
0001
0100
0001
0000
0010
0100
,
1000
0000
1000
0100
0010
0000
0001
0000
,
1000
0000
0010
0100
0010
0000
1000
0100
,
0010
0000
0010
0100
1000
0000
0001
0000
,
1000
0000
0001
0100
0001
0000
0010
0100
,
1000
0000
1000
0100
0010
0000
0001
0000
,
2100
0100
0001
0100
,
3001
0000
0001
0010
0100
1000
1000
0000
,
0001
0000
0010
0100
1000
0001
0001
0000
,
0010
0000
0100
1000
0001
0010
0010
0000
,
0100
0000
1000
0001
0010
0100
0100
0000
,
1000
0000
0001
0001
0000
0002
0000
0000
,
0003
0000
1000
1000
0000
2000
0000
0000
,
3000
0000
0010
0010
0000
0020
0000
0030
,
0110
0000
0000
0000
,
1000
0100
0010
0100
1000
0010
0100
0001
,
0010
0100
0010
0001
0100
0010
1000
0100
,
0010
0001
1000
0100
0010
0001
1000
0000
,
1001
0000
0000
0110
0000
0000
0000
0000
,
0010
0100
0001
0010
0100
1000
0001
1000
,
0010
0100
0001
0010
0001
1000
0010
1000
,
0100
0001
0100
1000
0010
1000
0010
0000
,
1010
0000
0000
0101
0000
0000
0000
0000
,
0001
0010
0100
0010
0001
0100
0010
1000
,
0100
0010
0100
1000
0010
0100
0001
0010
,
0100
1000
0001
0010
0100
1000
0001
0000
,
1001
0000
0000
0110
0000
0000
0000
0000
,
0100
0010
1000
0100
0010
0001
1000
0001
,
0100
0010
1000
0100
1000
0001
0100
0001
,
0010
1000
0010
0001
0100
0001
0010
0000
,
0011
0000
0000
0000
,
1001
0000
0000
1000
0000
1000
0001
0000
0000
0001
0000
0001
,
0100
0000
0100
0010
0000
0010
1000
0000
0000
0100
0000
0000
,
0110
0000
0000
0010
0000
0010
0001
0000
0000
0001
0000
0001
,
1000
0000
1000
0100
0000
0100
0010
0000
0000
0001
0000
0000
,
0101
0000
0000
0100
0000
0100
0010
0000
0000
1000
0000
1000
,
0001
0000
0001
0010
0000
0010
0001
0000
0000
1000
0000
0000
,
1100
0000
0000
0100
0000
0100
0010
0000
0000
0001
0000
0001
,
1000
0000
1000
0100
0000
0100
0010
0000
0000
0001
0000
0000
,
1001
0000
0000
0001
0000
0001
1000
0000
0000
1000
0000
1000
,
0010
0000
0010
0100
0000
0100
0001
0000
0000
0010
0000
0000
,
0220
0000
0000
0000
,
0000
0330
0000
0000
;

//---------------dance-single - ----------------
#NOTES:
     dance-single:
     :
     Challenge:
     13:
     :
0000
0000
0000
0000
,
0000
0000
0000
0000
,
0000
0000
0000
0000
,
0000
0000
0000
0000
,
0000
0001
0001
1000
1000
0010
1000
0010
,
1001
0000
0000
0000
0010
0000
1000
0000
0100
0000
0010
0001
0010
0000
0100
0000
,
1100
0000
0000
0000
0001
0000
1000
0000
0010
0000
1000
0100
1000
0000
0001
0000
,
0011
0000
0000
0000
0100
0000
0010
0000
0001
0000
1000
0010
1000
0000
0100
0000
,
0110
0000
0011
0100
1000
0010
0001
0000
,
0010
0010
0001
0001
1000
0010
1000
0001
,
0100
0010
0100
0000
0001
0000
1000
0000
0000
0000
0010
1000
0020
0000
0000
0000
,
0130
0100
0001
0001
1000
0000
1100
0000
,
0101
1010
0101
0011
,
0100
0000
0000
0000
1001
0000
0001
0100
0001
0000
0010
0000
0100
0000
1000
0000
,
0010
0100
0100
0001
1000
0100
1000
0001
,
0010
0000
0000
0000
0110
0000
0001
1000
0001
0000
0100
0000
0010
0000
1000
0000
,
0100
0001
0100
0100
1000
0010
0100
0100
,
0001
0000
0000
0000
1010
0000
0100
1000
0100
0000
0010
0000
0001
0000
1000
0000
,
0001
0100
0100
0010
1000
0001
0100
0020
,
1000
0000
0000
0000
0130
0000
0001
0010
0001
0000
0100
0000
1000
0000
0010
0000
,
1000
0000
1010
0001
1000
0100
0010
0000
,
1001
0100
0100
0001
2000
0100
3100
0000
,
1100
0010
0010
1000
0002
0100
0103
0000
,
0101
0010
0010
0001
0200
0010
0310
0000
,
1010
0001
0100
0100
0020
1000
1030
0000
,
0110
0001
1000
1000
0000
1010
0001
0100
,
1001
1000
0010
0010
0000
0101
0010
0001
,
1100
0000
0010
0000
0100
0000
0100
0000
0000
0000
0001
0100
0001
0000
1000
0000
,
0101
0000
0000
0010
2000
0000
3002
0000
,
0013
0001
0100
1000
0100
0010
0100
1000
,
0100
0001
0100
1000
0100
0001
0100
0010
,
0100
0000
1000
0000
0100
0000
0001
0000
0100
0000
0010
0000
1000
0000
0001
0100
,
0001
0010
0100
1100
0000
0001
1000
0100
,
0010
1000
0010
0001
0010
1000
0010
0100
,
0010
1000
0010
0001
0010
0100
0010
0001
,
0010
0000
1000
0000
0010
0000
0001
0000
0010
0000
1000
0000
0010
0000
0001
0100
,
0001
1000
0010
0101
0000
1000
0100
0001
,
0010
1000
0010
0100
0010
0001
0100
1000
,
0100
0001
0100
0010
0001
0010
1000
0100
,
0001
0000
0100
0000
0010
0000
0100
0000
0001
0000
0100
0000
1000
0000
0010
0100
,
0010
1000
0001
1010
0000
0100
0001
0010
,
1000
0010
0100
0010
1000
0010
0001
0100
,
0010
0001
0010
1000
0010
0100
1000
0100
,
0001
0000
0010
0000
1000
0000
0010
0000
0100
0000
0010
0000
0001
1000
0001
0000
,
1001
0000
0000
0000
0000
0100
0010
0000
0000
0010
0000
1000
,
0001
0000
0000
0011
0000
0001
0100
0000
0100
0010
0000
0010
,
1000
0000
0100
1000
0000
0100
1000
0000
0010
0100
0000
0001
,
0010
0000
0001
0100
0000
0100
0010
0000
0010
1000
0000
1000
,
0001
0000
0010
0001
0000
1000
0001
0000
0010
0001
0000
0100
,
0010
0000
0000
1010
0000
0010
0100
0000
0100
0001
0000
0001
,
0010
0000
0100
0010
0000
0100
1000
0000
0010
1000
0000
0100
,
1000
0000
0000
0110
0000
0001
0100
0000
0100
0010
0000
0010
,
1000
0000
0100
1000
0000
0010
1000
0000
0001
0100
0000
0001
,
1000
0000
0000
0101
0000
0001
0010
0000
0010
0001
0000
0001
,
1000
0000
1000
0010
0000
0010
1000
0000
1000
0100
0000
0010
,
0001
0000
0000
1001
0000
0001
1000
0000
1000
0010
0000
0010
,
0100
0000
0000
0000
;

//---------------dance-double - ----------------
#NOTES:
     dance-double:
     :
     Easy:
     5:
     :
00000000
00000000
00000000
00000000
,
00000000
00000000
00000000
00000000
,
00000000
00000000
00000000
00000000
,
00000000
00000000
00000000
00000000
,
00000000
00000000
00000000
00000000
,
00011000
00000000
00001000
00010000
,
01000000
00000000
10000000
01000000
,
10000000
00000000
01000000
00010000
,
00001000
00000000
00010000
00001000
,
00000100
00000000
00001000
00000100
,
00000010
00000000
00001000
00000001
,
00000100
00000000
00001000
00010000
,
00001000
00010000
01000000
10000000
,
02000000
00000000
00000000
03000000
,
00010000
00000000
00001000
00000000
,
00000200
00000000
00000000
00000300
,
00001000
00000000
00010000
00000000
,
02000000
00000000
00000000
03000000
,
10000000
00000000
01000000
00000000
,
00020000
00000000
00000000
00030000
,
00001000
00000000
00000100
00000000
,
00011000
00000000
00010000
01000000
,
00010000
00000000
00010000
00001000
,
00010000
00000000
00001000
00000100
,
00001000
00000000
00001000
00010000
,
00001000
00000000
00010000
00100000
,
00010000
00000000
00001000
00000010
,
00001000
00000000
00010000
00001000
,
00011000
00000000
00000000
00000000
,
00100000
00010000
00001000
00000010
,
00000002
00000000
00000000
00000003
,
00001000
00000100
00010000
00001000
,
00020000
00000000
00000000
00030000
,
01000000
10000000
00100000
00010000
,
00002000
00000000
00000000
00003000
,
00010000
00001000
00010000
00000100
,
00000020
00000000
00000000
00000030
,
00000001
00000000
00000100
00001000
,
00010000
00000000
01000000
00000000
,
10000000
00000000
01000000
00010000
,
00001000
00000000
00010000
00000000
,
00000100
00000000
00000010
00000001
,
00000100
00000000
00001000
00000000
,
01000000
00000000
00010000
10000000
,
10010000
00000000
00000000
00000000
,
10000000
01000000
00010000
00001000
,
00020000
00030000
00002000
00003000
,
00000100
00000010
00001000
00000100
,
00002000
00003000
00000200
00000300
,
00000100
00010000
00001000
00010000
,
02000000
03000000
20000000
30000000
,
01000000
00010000
00001000
00010000
,
00002000
00003000
00020000
00030000
,
00001000
00000100
00000001
00000100
,
00002000
00003000
00020000
00030000
,
00001000
00000000
00000100
00000000
,
00000220
00000000
00000000
00000330
;

//---------------dance-double - ----------------
#NOTES:
     dance-double:
     :
     Medium:
     7:
     :
00000000
00000000
00000000
00000000
,
00000000
00000000
00000000
00000000
,
00000000
00000000
00000000
00000000
,
00000000
00000000
00000000
00000000
,
00000000
00000000
00000000
00000000
,
00001000
00010000
00000100
00000010
,
00001000
00010000
01000000
00100000
,
00001000
00010000
01000000
00100000
,
00010000
10000000
01000000
00010000
,
00022000
00000000
00000000
00033000
,
00001000
00000000
00000100
00000000
00000010
00000000
00000100
00000001
,
00000100
00001000
00010000
01000000
,
00100000
00000000
00010000
00000000
10000000
00000000
01000000
00010000
,
01000000
00000000
00010000
00000000
,
00001000
00010000
01000000
00010000
,
00002000
00003000
00000200
00000300
,
00000001
00001000
00000100
00010000
,
00002000
00003000
00020000
00030000
,
00001000
01000000
00010000
00100000
,
02000000
03000000
20000000
30000000
,
00200000
00000000
00000000
00300000
,
00010000
00001000
00010000
00000000
00001000
00000000
00000100
00000000
,
00000001
00000010
00000001
00000000
00000100
00000000
00001000
00000000
,
00010000
00001000
00010000
00000000
01000000
00000000
10000000
00000000
,
01000000
00010000
01000000
00000000
00010000
00000000
00001000
00000000
,
00010000
00001000
00010000
00000000
00001000
00000000
00000010
00000000
,
00000001
00000100
00000001
00000000
00000100
00000000
00001000
00000000
,
00010000
00001000
00010000
00000000
00001000
00000000
00010000
00000000
,
00011000
00000000
00000000
00000000
,
00000010
00000001
00000100
00001000
,
00010000
00000000
00001000
00000000
00000100
00000000
00001000
00010000
,
00001000
00010000
01000000
10000000
,
00100000
00000000
10000000
00000000
00010000
00000000
10000000
01000000
,
10000000
01000000
00010000
00001000
,
00000010
00000000
00001000
00000000
00010000
00000000
00001000
00010000
,
00001000
00010000
01000000
00010000
,
00001000
00000000
00000100
00000000
00000001
00000000
00000010
00000001
,
00000010
00000000
00000100
00000000
,
00001000
00010000
01000000
00010000
,
00002000
00003000
00000200
00000300
,
00000001
00001000
00000100
00010000
,
00002000
00003000
00020000
00030000
,
00001000
01000000
00010000
00100000
,
02000000
03000000
20000000
30000000
,
11000000
00000000
00000000
00000000
,
10000000
00100000
00010000
00001000
,
00000010
00000001
00000100
00001000
,
00010000
01000000
10000000
00100000
,
00010000
00100000
10000000
01000000
,
00010000
00001000
00010000
01000000
,
00010000
00001000
00010000
00001000
,
00000100
00000001
00000100
00000010
,
00010000
00001000
01000000
00100000
,
01000000
10000000
01000000
00010000
,
00001000
00000100
00001000
00010000
,
00001000
00000100
00000001
00000010
,
00001001
00000000
00000000
00000000
;

//---------------dance-double - ----------------
#NOTES:
     dance-double:
     :
     Hard:
     10:
     :
00000000
00000000
00000000
00000000
,
00000000
00000000
00000000
00000000
,
00000000
00000000
00000000
00000000
,
00000000
00000000
00000000
00000000
,
00000000
00000000
00000000
00000000
,
00011000
00000000
00001000
00000100
00000001
00000000
00000001
00000100
,
00001000
00000000
00010000
01000000
10000000
00000000
10000000
01000000
,
00010000
00000000
00001000
00010000
01000000
00000000
00010000
00001000
,
00000100
00000000
00000001
00000010
00000000
00000100
00000000
00000000
,
00001100
00000100
00000100
00010000
00001000
00000000
00010000
01000000
,
00000000
20000000
00000000
00000000
00000000
00000000
31000000
00000000
,
11000000
10000000
10000000
00100000
01000000
00000000
00010000
00000000
,
00100000
00001000
00010000
00000010
,
00000100
00001000
00010000
00000000
00010000
00000000
00001000
00000000
,
00010000
00100000
10000000
00000000
00010000
00000000
10000000
00000000
,
00100000
00010000
00001000
00000000
00010000
00000000
00001000
00000000
,
00000010
00001000
00010000
00000000
00001000
00000100
00000001
00000000
,
00000010
00000001
00000100
00000000
00000010
00000000
00010000
00000000
,
00000100
00010000
00001000
00000000
01000000
00010000
00100000
00000000
,
01000000
10000000
00010000
00000000
01000000
00000000
00100000
00000000
,
20100000
01000000
00100000
31000000
,
10000000
01000000
00010000
00001000
00010000
00000000
00010000
00000000
,
00001000
00000100
00000001
00000100
00001000
00000000
00001000
00000000
,
00000100
00000001
00000010
00001000
00010000
00000000
00010000
00000000
,
01000000
10000000
01000000
00010000
00001000
00000000
00001000
00000000
,
00000000
00000000
00010000
00010000
00000000
00020000
00000000
00000000
,
00030000
00000000
00000100
00000100
00000000
00000200
00000000
00000000
,
00000300
00000000
00001000
00001000
00000000
00002000
00000000
00003000
,
00001001
00000000
00000000
00000000
,
00000001
00000100
00001000
00010000
00100000
00010000
00001000
00010000
,
00100000
10000000
01000000
00100000
00001000
00100000
01000000
10000000
,
01000000
00010000
00001000
00000010
00000001
00000010
00000001
00000000
,
00000011
00000000
00000000
00001100
00000000
00000000
00000000
00000000
,
00001000
00000100
00010000
00001000
01000000
00010000
00100000
01000000
,
00010000
00001000
00010000
00000100
00000010
00000001
00000100
00001000
,
00010000
01000000
00100000
01000000
10000000
00100000
10000000
00000000
,
10100000
00000000
00000000
01010000
00000000
00000000
00000000
00000000
,
01000000
00100000
00010000
00001000
00000100
00001000
00010000
00001000
,
01000000
00010000
00100000
01000000
10000000
01000000
00100000
00010000
,
00100000
01000000
00010000
00001000
00000100
00001000
00010000
00000000
,
00011000
00000000
00000000
00010100
00000000
00000000
00000000
00000000
,
00010000
00001000
00010000
00000100
00001000
00000010
00010000
00001000
,
01000000
00010000
00100000
00001000
00000100
00000001
00000010
00001000
,
00010000
00100000
10000000
01000000
00010000
00001000
00010000
00000000
,
00011000
00000000
00000000
00000000
,
00000011
00000000
00000000
00000001
00000000
00000001
00001000
00000000
00000000
00001000
00000000
00001000
,
00000100
00000000
00000100
00010000
00000000
00010000
00001000
00000000
00000000
00010000
00000000
00000000
,
00011000
00000000
00000000
00001000
00000000
00001000
01000000
00000000
00000000
01000000
00000000
01000000
,
00100000
00000000
00100000
10000000
00000000
10000000
01000000
00000000
00000000
01000000
00000000
00000000
,
11000000
00000000
00000000
10000000
00000000
10000000
00010000
00000000
00000000
00010000
00000000
00010000
,
01000000
00000000
01000000
00001000
00000000
00001000
00010000
00000000
00000000
00010000
00000000
00000000
,
00011000
00000000
00000000
00001000
00000000
00001000
00000100
00000000
00000000
00000100
00000000
00000100
,
00000001
00000000
00000001
00000010
00000000
00000010
00001000
00000000
00000000
00001000
00000000
00000000
,
00011000
00000000
00000000
00000100
00000000
00000100
00000010
00000000
00000000
00000010
00000000
00000010
,
00001000
00000000
00001000
00000001
00000000
00000001
00000100
00000000
00000000
00001000
00000000
00000000
,
00002002
00000000
00000000
00000000
,
00000000
00003003
00000000
00000000
;
