#TITLE:She's Got It All;
#ARTIST:Kenny Chesney;
#BANNER:She's Got It All-bn.png;
#BACKGROUND:She's Got It All-bg.png;
#JACKET:She's Got It All-jacket.png;
#MUSIC:She's Got It All.ogg;
#OFFSET:1.163;
#SAMPLESTART:43.141;
#SAMPLELENGTH:20;
#LASTBEATHINT:0.342;
#DISPLAYBPM:133;
#BPMS:0=132.7;
#BGCHANGES:;

//---------------dance-single - ----------------
#NOTES:
     dance-single:
     :
     Beginner:
     4:
     :
0000
0000
0000
0000
,
0000
0000
0000
0000
,
0000
0000
0000
0000
,
0000
0000
0000
0000
,
0000
0000
0000
0000
,
1000
0000
1000
0000
,
0001
0000
0001
0000
,
0010
0000
0010
0000
,
0100
0000
0100
0000
,
1000
0000
0010
0000
,
0100
0000
0001
0000
,
0000
0000
0010
0000
,
0100
0000
1000
0000
,
0000
0000
0001
0000
,
1000
0000
0010
0000
,
1000
0000
2000
0000
,
3000
0000
0001
0001
,
0001
0000
1000
0000
,
0010
0000
0100
0000
,
0000
0000
0010
0000
,
1000
0000
0100
0000
,
0000
0000
1000
0000
,
0001
0000
0010
0000
,
0001
0000
0100
0000
,
1000
0000
0010
0000
,
1000
0000
0001
0000
,
0100
0100
0100
0000
,
0010
0000
1000
0000
,
0100
0100
0100
0000
,
1000
0000
0001
0000
,
0010
0000
0001
0000
,
0100
0000
0100
0000
,
0010
0000
1000
0000
,
0100
0000
1000
0000
,
0001
0001
0001
0000
,
0010
0000
0001
0000
,
0100
0100
0100
0000
,
0010
0000
1000
0000
,
0001
0000
0010
0000
,
0001
0000
0200
0000
,
0300
0000
0010
0010
,
0010
0000
1000
0000
,
0001
0000
1000
0000
,
0100
0000
0010
0000
,
0001
0001
0001
0000
,
1000
0000
1000
0000
,
0001
0000
0001
0000
,
0020
0000
0030
0000
,
0001
0000
1000
0000
,
0010
0000
1000
0000
,
0001
0001
0001
0000
,
0010
0000
0100
0000
,
0010
0010
0010
0000
,
0001
0000
1000
0000
,
0010
0000
1000
0000
,
1000
0000
0001
0000
,
0110
0000
1001
0000
,
0010
0000
0001
0000
,
1000
1000
1000
0000
,
0010
0000
1000
0000
,
0100
0100
0100
0000
,
1000
0000
0001
0000
,
0010
0000
0001
0000
,
0100
0000
0010
0000
,
1000
0000
0001
0001
,
0001
0000
2000
0000
,
0000
0000
0000
0000
,
3000
0000
0000
0000
;

//---------------dance-single - ----------------
#NOTES:
     dance-single:
     :
     Easy:
     7:
     :
0000
0000
0000
0000
,
0000
0000
0000
0000
,
0000
0000
0000
0000
,
0000
0000
0000
0000
,
0000
0000
0000
0000
,
2000
3000
0010
0100
,
0001
0010
0001
1000
,
0010
1000
0100
0020
,
0030
0001
1000
0001
,
0100
0000
0010
1000
,
0100
0010
0001
0000
,
1000
0000
0001
1000
,
0010
1000
0100
0000
,
0010
0000
0001
0100
,
0001
0010
0100
1000
,
0020
0000
0200
0330
,
0001
0010
0001
1000
,
0100
0000
1000
0010
,
1000
0100
0001
0000
,
0010
0000
0001
1000
,
0020
0000
1030
0001
,
0100
0000
0001
0010
,
0001
0100
2000
3000
,
0010
1000
0001
1000
,
0100
0000
1000
0001
,
0101
0101
1010
1010
,
1000
0100
0001
0000
,
0011
0011
1100
1100
,
0010
1000
0001
0000
,
0100
0100
0001
1000
,
0100
0100
1000
0001
,
0200
0000
0020
0330
,
1000
0100
0001
0100
,
1010
1010
0101
0101
,
0010
0001
0100
0000
,
0011
0011
1100
1100
,
0010
1000
0100
0000
,
1001
1001
0110
0110
,
1000
0010
0100
0001
,
2000
0000
0002
3003
,
0010
0001
0100
1000
,
0010
1000
0100
1000
,
0001
0001
1000
0100
,
0010
0001
1000
0010
,
0100
0100
0100
0000
,
0001
0001
1000
1000
,
0001
1000
0100
0010
,
0002
0003
0200
0300
,
2000
3000
0020
0030
,
0110
0110
1001
1001
,
0010
1000
0100
0000
,
1100
1100
0011
0011
,
0010
0001
1000
0000
,
1010
1010
0101
0101
,
1000
0001
1000
0100
,
0010
0010
0010
0000
,
0001
1000
0100
0000
,
1100
1100
0101
0101
,
0001
0010
1000
0000
,
1010
1010
0011
0011
,
1000
0001
0010
0000
,
0110
0110
1001
1001
,
0001
0010
0001
1000
,
0100
1000
0001
0000
,
1000
0001
0001
0100
,
0020
0000
2000
0000
,
0000
0000
0000
0000
,
3030
0000
0000
0000
;

//---------------dance-single - ----------------
#NOTES:
     dance-single:
     :
     Medium:
     9:
     :
0000
0000
0000
0000
,
0000
0000
0000
0000
,
0000
0000
0000
0000
,
0000
0000
0000
0000
,
0000
0000
0000
0000
,
2000
0000
3000
0010
1000
0100
0010
0002
,
0000
0000
0103
0000
0100
0010
1000
0001
,
0020
0000
0031
1000
0000
0001
0200
0000
,
0300
0010
1000
0001
1000
0100
0010
0001
,
0100
0000
0000
0010
1000
0001
1000
0200
,
0000
0320
0000
0032
0000
0000
0003
0000
,
0100
0000
0000
0010
1000
0001
1000
0200
,
0000
0000
1300
0002
0000
0203
0000
0000
,
0310
0000
0110
0000
0001
1000
0001
0200
,
0000
0310
1000
0002
0000
1003
0000
1010
,
0000
0000
0001
0100
0000
0010
1000
0000
,
0100
0010
0000
0001
1000
0000
1100
0000
,
0101
0000
0000
0001
0010
0001
1000
0020
,
0000
0230
0000
0302
0000
0000
0003
0000
,
0010
0000
0000
0001
1000
0010
1000
0200
,
0000
0000
0000
2300
0000
3002
0000
0000
,
0013
0000
0011
0000
0001
0100
0010
2000
,
0000
3002
0000
0203
0000
0000
0310
0100
,
0000
0101
0000
1100
0000
1010
0000
0101
,
0000
0110
0000
0000
1000
0001
0100
0020
,
0000
1030
0001
0000
0011
0000
0110
0000
,
1100
0000
1010
0000
0001
1000
0000
0020
,
0000
0130
0001
0000
1001
0000
0110
0000
,
1010
0000
0101
0000
1000
0100
0000
0020
,
0000
0031
0100
0000
0101
0000
1100
0000
,
0101
0000
0010
1000
0001
1000
0100
0010
,
0002
0000
0003
1000
0020
0000
0030
0000
,
0100
0001
1000
0001
1000
0100
0000
0020
,
0000
0031
0100
0000
0101
0000
0011
0000
,
1100
0000
0001
1000
0001
0100
0000
0020
,
0000
1030
0010
0000
1100
0000
0011
0000
,
0101
0000
1010
0000
0010
0100
0000
0002
,
0000
1003
0001
0000
0020
0000
0031
1000
,
0010
0000
0010
0000
1000
0100
0001
0100
,
2000
0000
3000
0001
0200
0000
0300
0110
,
0000
0000
1001
0000
0001
0010
0100
2000
,
0000
0000
0000
3010
0100
0001
0100
0010
,
0000
0010
1000
0001
2000
0000
3200
0000
,
0320
0000
0031
1000
0000
0001
0100
0000
,
0010
0000
1000
0000
0100
0000
0000
1000
0000
0000
0002
0000
0000
0000
0000
0000
,
0013
0001
0000
0001
0100
0000
0100
0010
,
2000
0000
3002
0000
1003
0001
0100
0000
,
0020
0000
0000
2030
0000
0000
3002
0000
,
0000
0203
0000
0000
0301
1000
0010
0200
,
0000
0310
0100
0000
0101
0000
0011
0000
,
1100
0000
0010
1000
0100
0010
0000
0002
,
0000
1003
0001
0000
0101
0000
1010
0000
,
1100
0000
0011
0000
0100
0010
0000
2000
,
0000
3001
0100
0000
1001
0000
0010
1000
,
0200
0000
0320
0000
0031
1000
0002
0000
,
0203
0000
0320
0000
2030
0000
3001
1000
,
0000
0000
0101
0000
1100
0000
0000
0020
,
0000
1030
0001
0000
0101
0000
1010
0000
,
1100
0000
0110
0000
0001
1000
0000
0200
,
0000
1300
0001
0000
0011
0000
1001
0000
,
0110
0000
1010
0000
0100
1000
0000
0002
,
0000
0013
0001
0000
1001
0000
0010
1000
,
0200
0000
0320
0000
0031
1000
0002
0000
,
0103
0000
1010
0000
1000
0001
0100
0000
,
0001
1000
0001
1000
0010
0100
0010
0200
,
0000
0000
0300
0001
2000
0000
0000
0000
,
0000
0000
0000
0000
,
3000
0000
0000
0000
;

//---------------dance-single - ----------------
#NOTES:
     dance-single:
     :
     Hard:
     12:
     :
0000
0000
0000
0000
,
0000
0000
0000
0000
,
0000
0000
0000
0000
,
0000
0000
0000
0000
,
0000
0000
0000
0000
,
2000
0010
3010
0100
0001
0010
0001
0200
,
0000
0000
0001
0000
0301
0000
0000
0000
0001
1000
0001
0000
0100
0000
0010
0000
,
1000
0100
1000
0002
0000
0103
0020
0000
,
1030
0010
0100
0001
0010
0100
1000
0001
,
0100
0000
0010
1000
0010
0100
0001
0020
,
0000
0230
0000
1300
0010
0100
0001
0000
,
1000
0010
0100
0000
0010
1000
0001
0200
,
0000
0301
0010
0002
0000
1000
1003
0010
,
0000
1000
0100
0000
1000
0010
0100
0002
,
0000
0013
0001
2000
0000
3020
0000
0230
,
0001
0000
0301
0101
0000
1000
1100
0000
,
0010
0110
0000
1000
1000
0001
0100
0000
,
1001
0000
0010
1000
0001
1000
0100
0020
,
0000
0000
0032
0000
0000
0000
1003
0010
1000
0000
0001
0000
0100
0000
0010
0000
,
0000
1000
1000
0010
1000
0100
0010
0002
,
0000
0013
0100
1000
0000
1000
0010
0100
,
0001
0000
0011
0000
0010
0001
1000
0010
,
0000
1000
0100
0002
0000
0013
0001
1000
,
0000
1010
0000
0101
0000
1100
0000
0001
,
0100
1000
0010
0000
1000
0100
0010
0012
,
0000
1003
1001
0000
1010
0000
1100
0000
,
0010
1000
0100
0010
0001
0001
1000
0120
,
0000
1030
1001
0000
0101
0000
0011
0000
,
1100
0000
0101
0000
0010
0010
1000
0002
,
0000
0100
0103
0000
0110
0000
1001
0000
,
0010
1000
0010
0100
0001
0010
0100
1000
,
0020
0100
0130
0010
1000
0001
1000
0000
,
0001
0010
0100
1000
0010
0100
0001
2001
,
0000
3010
0110
0000
0101
0000
1100
0000
,
0001
0010
0001
0100
0010
1000
0100
2001
,
0000
3010
1010
0000
0101
0000
1100
0000
,
1010
0000
0011
0000
1000
1000
0010
0102
,
0000
0010
0013
0000
0001
0100
0010
1000
,
0001
0000
1010
0000
1000
0010
0100
0001
,
0020
0100
0130
1000
0010
0100
0001
2000
,
0000
0000
0100
0000
3200
0000
0000
0000
1300
0000
0010
0000
0100
0000
0001
1000
,
0001
0010
0100
2000
0000
3001
0000
0011
,
0000
0100
0100
0010
0002
1000
2003
0000
,
3010
1000
0010
0100
0001
0010
0001
1000
,
0100
0000
0010
0000
0001
0000
0000
1000
0000
0000
0200
0000
0000
0000
0000
0000
,
2300
0010
3010
0200
0001
0301
0010
0100
,
1000
0010
1000
0001
1000
0100
0010
0001
,
0201
0000
0310
1020
0000
0130
0210
0000
,
0301
0012
0000
1003
0010
0100
0001
0210
,
0000
0001
0301
0000
0011
0000
1100
0000
,
0010
1000
0010
0100
0001
1000
0100
0020
,
0000
0001
0031
0000
1001
0000
1100
0000
,
0011
0000
0101
0000
1000
0010
0100
0002
,
0000
1000
1003
0000
1010
0001
0100
0010
,
1000
0000
1100
0000
0010
1000
0200
0000
,
0001
0000
2300
0000
3001
0100
1000
0020
,
0000
0130
0110
0000
1001
0010
0010
2010
,
0000
3001
0011
0000
1100
0000
0101
0000
,
0010
0001
0010
0100
1000
1000
0010
0102
,
0000
1000
1003
0000
1100
0000
0110
0000
,
0011
0000
1001
0000
0100
0100
0010
2010
,
0000
0001
3001
0000
0011
1000
0100
0010
,
0001
0000
0101
0000
1000
0010
0200
0000
,
0001
0000
1000
0000
0301
0010
0200
0000
,
1300
1000
0001
0100
0001
0010
0001
1000
,
0020
0000
0000
0000
0030
0000
1000
0001
2000
0000
0000
0000
0000
0000
0000
0000
,
0000
0000
0000
0000
,
3000
0000
0000
0000
;
