#TITLE:She's Country;
#SUBTITLE:;
#ARTIST:Jason Aldean;
#TITLETRANSLIT:;
#SUBTITLETRANSLIT:;
#ARTISTTRANSLIT:;
#GENRE:;
#CREDIT:;
#BANNER:She's Country-bn.png;
#BACKGROUND:She's Country-bg.png;
#LYRICSPATH:;
#CDTITLE:;
#MUSIC:She's Country.ogg;
#OFFSET:1.725000;
#SAMPLESTART:34.554001;
#SAMPLELENGTH:20.000000;
#LASTBEATHINT:1.027700;
#SELECTABLE:YES;
#DISPLAYBPM:86.000000;
#BPMS:0.000000=86.000000
;
#STOPS:
;
#BGCHANGES:;
#KEYSOUNDS:;
#ATTACKS:;

//---------------dance-single - ----------------
#NOTES:
     dance-single:
     :
     Hard:
     12:
     0.518425,0.521691,0.417493,0.064230,0.449608,452.000000,400.000000,52.000000,8.000000,0.000000,0.000000,0.518425,0.521691,0.417493,0.064230,0.449608,452.000000,400.000000,52.000000,8.000000,0.000000,0.000000:
0000
0000
0000
0000
,
0000
0000
0000
0000
,
0000
0000
0000
0000
,
1001
0000
0100
0010
0100
0000
0101
0000
1010
0000
1000
0000
0001
0000
0011
0000
,
1100
0000
0001
1000
0001
0000
0010
0100
1000
1000
0000
0000
0001
0001
0000
0000
,
0010
0000
0001
0000
0100
0000
0001
0000
1000
0010
0000
0110
0000
0000
0000
0000
,
0100
0001
1000
0000
0010
0100
0001
0000
1000
0000
0001
0010
0000
0100
1000
0000
,
0010
0000
0100
0000
1001
0000
0100
0000
0001
0000
1000
0010
1000
0001
0000
0000
,
1000
0000
1000
0100
0010
0000
0001
0100
0000
0001
0100
0000
0010
1000
0001
0000
,
0012
0103
1020
0130
,
0001
0100
1000
0100
0001
0000
1010
0000
1000
0100
0001
0100
1000
0000
0011
0000
,
0100
0000
0100
0000
0100
1000
0001
0000
0100
0000
0100
0000
0100
0001
1000
0000
,
0100
0000
0100
0000
0100
0010
0001
0000
1001
0000
0000
0000
0100
0100
0000
0000
,
1001
0000
0100
0000
1010
0000
0001
1000
0001
0010
0100
0000
1000
0000
0001
0000
,
0100
0010
0000
1000
0000
0000
0001
1000
0100
0000
0110
0000
1001
0000
0010
0000
,
0101
0000
1000
0000
1100
0000
0001
1000
0001
0010
0100
0000
1000
0000
0010
0000
,
0100
0000
0001
0000
0010
0000
0100
1000
0100
0000
0010
0000
0001
0000
0000
0000
,
0011
0000
0100
1000
0000
0000
0010
0100
0001
0000
1000
0010
0000
0000
0000
0100
,
0001
0000
0100
1000
0000
0100
0001
0000
0010
0100
1000
0010
1000
0001
0100
0000
,
0110
0000
0001
0000
1010
0000
0100
0001
0010
0100
1000
0000
0001
0000
0000
1000
,
0001
0000
0000
0000
1100
0000
0000
0000
0010
1000
0100
0000
1100
0000
0101
0000
,
1000
0100
1000
0000
1000
0000
0001
0000
0100
0010
0100
0000
0001
0000
1000
0000
,
0001
0010
0100
0000
1000
0000
0001
0000
0100
0010
0000
0000
1000
0001
0000
0000
,
0010
0001
0100
0000
0100
0000
0010
0000
1000
0001
1000
0000
0100
0000
0010
0000
,
0001
1000
0001
0000
0100
0000
0010
0000
1000
0001
0000
0001
0010
0100
0000
0000
,
2100
0000
0001
0000
0001
0000
0100
0000
3010
1000
0001
0000
0100
0000
0010
0000
,
0100
0001
1000
0000
0100
0010
0001
0000
1000
1000
0000
0000
0001
0001
0000
0000
,
0010
0001
0000
0000
0102
0000
1000
0000
1003
0100
0010
0000
0001
0000
1000
0000
,
0001
0100
0010
0000
1000
0100
0010
0000
0001
0001
0000
0000
1000
1000
0000
0000
,
1010
0000
0001
0000
0101
0000
0010
1000
0001
1000
0100
0000
0010
0000
0001
0000
,
0100
0010
0000
1000
0000
0000
0001
0010
0100
0000
0100
0000
0100
0000
1000
0000
,
1100
0000
0010
0000
1001
0000
0100
0001
0010
0100
1000
0000
0001
0000
0100
0000
,
0001
0000
1000
0000
0010
0000
1000
0100
1000
0000
0001
0000
0100
0000
0000
0000
,
0110
0000
0001
0010
0000
0000
0001
1000
0010
0000
1000
0100
0000
0000
0000
0010
,
0001
0000
0010
1000
0000
0010
0001
0000
0100
0010
1000
0001
0010
0100
1000
0000
,
1100
0000
0010
0000
0101
0000
0010
1000
0001
1000
0100
0000
0010
0000
0000
0000
,
0011
0000
0100
1000
0010
0100
0001
1000
0010
0100
0001
0000
1001
0000
0110
0000
,
1001
0000
1000
0100
1000
0000
1010
0000
0101
0000
0000
0000
0001
1000
0100
0000
,
0110
0000
0010
0000
0001
0000
1000
0010
0000
1000
0010
0100
0001
0000
0001
0000
,
1001
0200
0310
1010
0101
2000
3001
0011
,
1010
0000
0200
0000
0302
0000
1003
0010
1000
0001
0000
1000
0100
0010
0000
0010
,
0001
0000
1000
0010
0100
0000
0101
0000
1100
0000
0010
0001
0100
0000
0010
0000
,
1010
0000
0100
0000
0100
0001
1000
0000
0010
0100
0001
0000
1000
0000
0100
0000
,
1001
0000
0010
0100
0010
0000
1010
0000
0101
0000
0000
0000
1000
0001
1000
0000
,
1100
0000
0010
0001
0010
0100
1000
0001
0100
0100
0000
0000
0010
0010
0000
0000
;

//---------------dance-single - ----------------
#NOTES:
     dance-single:
     :
     Medium:
     9:
     0.354410,0.377776,0.240861,0.192689,0.124445,309.000000,279.000000,30.000000,24.000000,0.000000,0.000000,0.354410,0.377776,0.240861,0.192689,0.124445,309.000000,279.000000,30.000000,24.000000,0.000000,0.000000:
0000
0000
0000
0000
,
0000
0000
0000
0000
,
0000
0000
0000
0000
,
1001
0000
0000
0100
1010
0000
0000
0100
,
0011
0000
0000
0000
0000
0000
0010
0100
1000
1000
0000
0000
0001
0001
0000
0000
,
0010
0001
0100
0001
1000
0010
0110
0000
,
0100
0001
1000
0001
0100
0010
1000
0000
,
0001
0010
0001
0100
0010
1000
0001
0000
,
1000
1000
1000
0001
0100
0010
0100
0001
,
0201
0310
1200
0310
,
0001
0001
0011
0011
1000
1000
1010
1010
,
0000
1000
0100
0010
0000
0001
1000
0001
,
0000
0100
0010
1000
1001
0000
0110
0000
,
2000
0000
3002
0000
0013
0001
0100
0000
,
0010
1000
0001
1000
0100
0100
0100
0010
,
0002
0000
2003
0000
3010
1000
0100
0000
,
1000
0001
0010
0001
0100
0010
1000
0000
,
1100
0000
0001
0000
0100
0000
0000
0000
0101
0000
1000
0000
0100
0000
0000
0001
,
1000
0000
0001
1000
0000
0001
2000
0000
0010
0000
0100
0000
3100
0000
0000
0000
,
2000
0000
3002
0000
0013
0100
1000
0000
,
0101
0000
0000
0000
1100
0000
0000
0000
0001
1000
0001
0000
0100
0000
0100
0000
,
0010
1000
1000
0000
0100
0001
0001
0000
,
1000
0000
0001
0000
0001
0000
0000
0000
0010
0100
0000
0000
0010
0100
0000
0000
,
1000
0100
0100
0010
0001
0010
0010
0000
,
0100
0000
0010
0000
0010
0000
0100
0000
1000
0001
0000
0000
1000
0001
0000
0000
,
2010
0001
0001
0000
0010
0100
3100
0000
,
1000
0001
1000
0000
0010
0000
0100
0000
0001
0001
0000
0000
1000
1000
0000
0000
,
0010
1000
0101
0010
1000
0001
0001
0000
,
0010
0100
0010
0000
0001
0000
1000
0000
0010
0010
0000
0000
0100
0100
0000
0000
,
0002
0000
2003
0000
3010
1000
0100
0000
,
1000
0001
0010
0001
0100
0100
0100
0010
,
2000
0000
3002
0000
0103
0001
0010
0000
,
0100
1000
0010
1000
0001
1000
0010
0000
,
1010
0000
0100
0000
0001
0000
0000
0000
0011
0000
0100
0000
1000
0000
0000
0010
,
0100
0000
0010
0100
0000
0010
0200
0000
0001
0000
1000
0000
0301
0000
0000
0000
,
0020
0000
2030
0000
3100
0010
0001
0000
,
0100
0000
0110
0000
1000
0000
0001
0000
1000
0100
1000
0000
0010
0000
0010
0000
,
1001
0000
0000
0100
1010
0000
0000
0100
,
0011
0000
0000
0000
0000
0000
1000
0001
0000
1000
0001
0000
0100
0000
0100
0000
,
0000
0002
2000
3003
0000
0020
0200
0330
,
0000
0000
0020
0000
2000
0000
3030
0000
0001
0001
0000
0000
1000
1000
0000
0000
,
0000
0000
0010
0000
1001
0000
0110
0000
0000
0000
1000
0100
1000
0000
0001
0000
,
0000
0000
0100
0000
0010
1000
0001
0000
0000
0000
1000
0000
1100
0000
0101
0000
,
0000
0000
0001
1000
0002
0000
0010
0000
0013
0000
0000
0000
0100
0000
1100
0000
,
0011
0000
1000
0000
0001
0000
0010
0100
1000
1000
0000
0000
0001
0001
0000
0000
;

//---------------dance-single - ----------------
#NOTES:
     dance-single:
     :
     Easy:
     5:
     0.172044,0.197607,0.160574,0.176632,0.000000,150.000000,130.000000,20.000000,22.000000,0.000000,0.000000,0.172044,0.197607,0.160574,0.176632,0.000000,150.000000,130.000000,20.000000,22.000000,0.000000,0.000000:
0000
0000
0000
0000
,
0000
0000
0000
0000
,
0000
0000
0000
0000
,
0010
0000
1000
0000
,
0001
0000
1001
1001
,
0010
0100
1000
0001
,
0100
0010
1000
0001
,
1000
0100
1000
0001
,
0100
0010
0100
0001
,
2000
3100
0002
0103
,
0010
0010
1000
0001
,
0100
0100
0010
0010
,
1000
0001
1001
0000
,
0020
0200
0000
0330
,
0001
0010
0100
1000
,
0020
0200
0000
0330
,
0010
1000
0001
0100
,
1010
0000
0101
0000
,
1000
0001
0220
0330
,
0002
2000
0000
3003
,
0010
0010
1001
1001
,
0100
0000
0010
0000
,
0100
0000
0001
1000
,
0001
0010
0001
0100
,
0010
1000
0100
0100
,
2002
0000
0000
0003
,
0001
0010
3100
0100
,
1000
0002
0010
1000
,
0100
1003
0001
0001
,
0020
0200
0000
0330
,
1000
0001
0100
0010
,
2000
0200
0000
3300
,
1000
0010
0100
0001
,
0011
0000
1100
0000
,
0001
1000
0220
0330
,
2000
0002
0000
3003
,
0100
0010
1001
1001
,
1001
0000
0100
0000
,
0001
0000
1000
0100
,
0110
0000
0001
0000
,
1000
0000
0010
0100
,
0000
0101
0000
1100
,
0000
0010
1000
0100
,
0010
0002
1000
0100
,
1003
0000
1001
1001
;

//---------------dance-single - ----------------
#NOTES:
     dance-single:
     :
     Beginner:
     3:
     0.100932,0.143714,0.064230,0.016057,0.000000,88.000000,80.000000,8.000000,2.000000,0.000000,0.000000,0.100932,0.143714,0.064230,0.016057,0.000000,88.000000,80.000000,8.000000,2.000000,0.000000,0.000000:
0000
0000
0000
0000
,
0000
0000
0000
0000
,
0000
0000
0000
0000
,
0010
0000
0010
0000
,
0100
0000
0100
0000
,
0010
0000
1000
0000
,
0010
0000
0100
0000
,
0001
0000
0010
0000
,
0001
0000
1000
0000
,
1001
0000
0110
0000
,
1000
0000
0001
0000
,
0010
0000
0010
0000
,
0010
0000
1001
0000
,
1000
1000
0000
0000
,
0001
0000
0100
0000
,
0001
0001
0000
0000
,
0010
0000
0100
0000
,
1001
0000
0110
0000
,
1000
1000
1000
0000
,
0010
0010
0000
0000
,
0100
0000
0001
0000
,
0110
0000
0000
0000
,
0000
0000
0000
0000
,
1000
0000
1000
0000
,
0001
0000
0001
0000
,
0020
0000
0000
0000
,
0000
0000
0030
0000
,
0001
0002
0000
0000
,
0003
0000
0100
0000
,
0010
0010
0000
0000
,
1000
0000
0001
0000
,
1000
1000
0000
0000
,
0100
0000
0010
0000
,
1001
0000
0110
0000
,
0001
0001
0001
0000
,
0100
0100
0000
0000
,
0010
0000
0100
0000
,
0010
0000
0010
0000
,
1000
0000
1000
0000
,
0001
0000
0001
0000
,
0100
0000
0100
0000
,
0001
0000
0010
0000
,
0001
0000
1000
0000
,
0010
0000
1000
0000
,
0001
0000
0100
0100
;

//---------------dance-single - ----------------
#NOTES:
     dance-single:
     :
     Challenge:
     14:
     0.653766,0.593648,0.272976,0.016057,0.859072,570.000000,536.000000,34.000000,2.000000,0.000000,0.000000,0.653766,0.593648,0.272976,0.016057,0.859072,570.000000,536.000000,34.000000,2.000000,0.000000,0.000000:
// measure 0
0000
0000
0000
0000
,  // measure 1
0000
0000
0000
0000
,  // measure 2
0000
0000
0000
0000
,  // measure 3
1001
0000
0100
0010
0100
0000
0001
0010
0001
0100
1000
0000
0010
0000
0100
0001
,  // measure 4
1000
0010
1000
0100
0010
0000
0001
1000
0010
0010
1000
0001
0010
0010
0100
1000
,  // measure 5
0010
0100
0010
1000
0001
0010
0001
1000
0100
0010
0000
0001
1000
0000
0010
0100
,  // measure 6
0010
1000
0001
0000
1000
0100
1000
0000
0110
0001
1000
0010
0100
0001
1000
0100
,  // measure 7
0010
0001
0100
0000
0010
1000
0001
1000
0100
0000
0010
0001
0100
0001
1000
0010
,  // measure 8
0100
0000
0001
0010
1000
0010
0001
0100
0010
0010
1000
0001
0010
0010
0100
1000
,  // measure 9
2100
0001
3100
0010
0102
1000
0103
0010
,  // measure 10
1000
0100
0001
0100
1000
0000
0010
0000
0100
0001
0100
1000
0100
0001
0010
0100
,  // measure 11
1000
0000
1000
0000
1000
0100
0001
0000
0010
0000
0010
0100
1000
0001
0100
0000
,  // measure 12
0010
0000
0100
0001
1000
0001
0010
0100
1001
0000
0010
0000
0100
0100
0000
0000
,  // measure 13
0001
1000
0010
0000
0101
0000
0010
1000
0001
1000
0100
0000
0010
0000
0001
0100
,  // measure 14
0001
1000
0000
0010
0100
0000
0001
0010
0100
1000
0100
0001
0100
1000
0001
0000
,  // measure 15
0100
0010
1000
0000
0101
0000
0001
0010
0001
0100
1000
0010
0100
0000
0001
1000
,  // measure 16
0001
0000
0010
0100
1000
0000
0010
0100
0010
1000
0100
0010
0001
1000
0001
0000
,  // measure 17
0110
0000
1000
0010
0100
0000
0001
0010
0110
0000
1000
0001
0100
0000
0000
0010
,  // measure 18
1000
0000
0010
0001
0000
0010
1000
0001
1000
0100
0010
0100
0010
0001
0100
0010
,  // measure 19
1000
0100
0010
0000
0011
0000
1000
0001
0100
0010
1000
0000
0100
0000
1000
0001
,  // measure 20
0100
0000
0010
0000
0100
0000
0010
0000
1000
1000
1000
0100
0010
0001
0100
0000
,  // measure 21
0001
0010
0100
0000
0100
0000
1000
0010
0001
0010
1000
0000
1000
0000
0001
0100
,  // measure 22
1000
0100
0001
0000
0001
0010
0100
0010
0001
0001
0000
0100
1000
1000
0000
0000
,  // measure 23
1001
1000
0100
0000
0010
0000
0001
0100
1000
0100
0001
0000
0010
0000
0100
1000
,  // measure 24
0010
0100
0001
0000
1000
0010
0100
0001
0010
0010
0100
1000
0010
0010
0100
0001
,  // measure 25
1000
0010
0100
0000
0110
0000
0001
0010
0100
1000
0010
0000
0101
0000
1000
0010
,  // measure 26
0001
0100
1000
0000
0001
0010
0001
0100
1000
1000
0010
0100
0001
0001
1000
0000
,  // measure 27
0100
0100
0010
0000
1001
0000
0100
0001
0010
0100
1000
0000
0001
0000
1000
0010
,  // measure 28
0001
0100
1000
0000
0010
1000
0100
0010
0001
0001
0010
0100
1000
1000
1000
0000
,  // measure 29
0010
1000
0100
1000
1010
0000
0100
0001
0010
0100
1000
0001
0101
0000
0010
0100
,  // measure 30
0010
1000
0000
0001
1000
0000
0010
1000
0100
0010
0100
0001
0100
1000
0010
0000
,  // measure 31
0100
0001
1000
0001
0011
0000
0100
0010
0100
1000
0010
0100
0101
0000
0010
1000
,  // measure 32
0001
0000
0010
0100
1000
0000
0001
1000
0001
0010
0100
0010
0100
1000
0001
0000
,  // measure 33
0110
0000
1000
0001
0010
0000
0001
0100
0110
0000
0010
1000
0001
0000
0000
0100
,  // measure 34
0001
0000
0100
1000
0000
0100
0001
0010
0001
1000
0010
0100
0010
1000
0100
0001
,  // measure 35
0010
0100
1000
0010
1010
0000
0100
0001
0010
0100
1000
0000
1100
0000
0000
0001
,  // measure 36
1000
0000
0010
0010
0100
0100
0001
0001
1000
0100
0001
0000
1000
0010
0001
0000
,  // measure 37
1001
0000
0100
0001
0010
0000
0110
0000
1000
0001
0000
0000
0100
0010
1000
0000
,  // measure 38
0001
0100
0001
1000
0010
0100
0010
1000
0100
0010
0001
0100
0001
0010
1000
0000
,  // measure 39
1100
0000
0001
0100
0001
0010
1000
0000
0101
0010
0100
0000
0010
1000
0001
0000
,  // measure 40
0011
0100
1000
0000
1001
0000
0010
0100
0001
0001
1000
0010
1000
1000
0001
0100
,  // measure 41
0010
1000
1100
1000
0101
0100
0010
0000
1000
0000
0001
0010
0001
0100
1000
0000
,  // measure 42
0010
0000
0100
0000
0010
1000
0001
0000
1000
1000
0100
0010
0001
0100
0001
1000
,  // measure 43
1010
0000
0100
0100
0100
0010
1000
0001
0010
0100
1000
0000
0001
0100
0010
0000
,  // measure 44
0110
0000
0001
0001
0001
1000
0100
0010
0001
0101
0000
0010
1000
1100
0000
0000
;
