#TITLE:Share The Love;
#ARTIST:Brenda Burch;
#BANNER:Share The Love-bn.png;
#BACKGROUND:Share The Love-bg.png;
#JACKET:Share The Love-jacket.png;
#MUSIC:Share The Love.ogg;
#SAMPLESTART:53.18;
#SAMPLELENGTH:20;
#DISPLAYBPM:158;
#BPMS:0=158;
#BGCHANGES:;

//---------------dance-single - ----------------
#NOTES:
     dance-single:
     :
     Beginner:
     2:
     :
0000
0000
0000
0000
,
0000
0000
0000
0000
,
0000
0000
0000
0000
,
0000
0000
0000
0000
,
0000
0000
0000
0000
,
1000
0000
0000
0000
,
0000
0000
0000
0000
,
0001
0000
0000
0000
,
0000
0000
0000
0000
,
1000
0000
1000
0000
,
1000
0000
1000
0000
,
1000
0000
1000
0000
,
1000
0000
0000
0000
,
0010
0000
0000
0000
,
0010
0000
0000
0000
,
0010
0000
0100
0000
,
0010
0000
0000
0000
,
0001
0000
0001
0000
,
0001
0000
0001
0000
,
0001
0000
0001
0000
,
0001
0000
0000
0000
,
0010
0000
0000
0000
,
0010
0000
0100
0000
,
0010
0000
0000
0000
,
0000
0000
0000
0000
,
1001
0000
0000
0000
,
1000
0000
0001
0000
,
1001
0000
0000
0000
,
0001
0000
1000
0000
,
1001
0000
0000
0000
,
1000
0000
0001
0000
,
1001
0000
0000
0000
,
0010
0000
1000
0000
,
0001
0000
0000
0000
,
0000
0000
0000
0000
,
1000
0000
0010
0000
,
0100
0000
0001
0000
,
0001
0000
0010
0000
,
0100
0000
1000
0000
,
0001
0000
0100
0000
,
0001
0000
0000
0000
,
1000
0000
0100
0000
,
1000
0000
0000
0000
,
0002
0000
0000
0000
,
0000
0003
0000
0000
,
0020
0000
0000
0000
,
0000
0030
0000
0000
,
0200
0000
0000
0000
,
0000
0300
0000
0000
,
2000
0000
0000
0000
,
0000
3000
0000
0000
,
1000
0000
0000
0000
,
1000
1000
1000
0000
,
0001
0000
0000
0000
,
0001
0001
0001
0000
,
1000
0000
0000
0000
,
1000
1000
1000
0000
,
0001
0000
0000
0000
,
0001
0001
0001
0000
,
0000
0000
0000
0000
;

//---------------dance-single - ----------------
#NOTES:
     dance-single:
     :
     Easy:
     4:
     :
0000
0000
0000
0000
,
0000
0000
0000
0000
,
0000
0000
0000
0000
,
0000
0000
0000
0000
,
0000
0000
0000
0000
,
0000
2000
0002
0000
,
0000
0000
3003
0000
,
0000
0020
0200
0000
,
0000
0000
0330
0000
,
0001
0000
0100
0000
,
0001
0000
0010
0000
,
0001
0000
1000
0000
,
0100
0100
0010
0010
,
0001
0000
1000
1000
,
1000
0000
0001
0001
,
0020
0030
0200
0300
,
2000
0000
3000
0000
,
1000
0000
0100
0000
,
1000
0000
0010
0000
,
1000
0000
0001
0000
,
0100
0100
0010
0010
,
1000
0000
0001
0001
,
0001
0000
1000
1000
,
0020
0030
0200
0300
,
0002
0000
0003
0000
,
0000
0000
1000
0001
,
0000
0000
0010
0010
,
0100
0000
0010
0010
,
0001
0000
1000
0100
,
0000
0000
0001
1000
,
0000
0000
0010
0010
,
1000
0000
0001
0000
,
1000
0001
1000
0001
,
2000
0000
0000
3000
,
0000
0000
0000
0000
,
0002
0000
0000
0003
,
0001
0001
0100
0000
,
2000
0000
0000
3000
,
1000
0010
0010
0000
,
1000
1000
0001
0000
,
0100
0100
0010
0000
,
0100
0000
0010
0000
,
0000
0000
0000
0000
,
1000
0100
1000
0000
,
0100
0000
0100
0000
,
0010
0001
0010
0000
,
0001
0000
0001
0000
,
0010
1000
0010
0000
,
1000
0000
1000
0000
,
2000
0000
0000
0000
,
0002
0000
0000
3003
,
0000
2000
0002
0000
,
0000
0000
3003
0000
,
0000
0002
2000
0000
,
0000
0000
3003
0000
,
0000
0020
0200
0000
,
0000
0000
0330
0000
,
0000
0002
2000
0000
,
0000
0000
3003
0000
,
0000
0000
0000
0000
;

//---------------dance-single - ----------------
#NOTES:
     dance-single:
     :
     Medium:
     8:
     :
0000
0000
0000
0000
,
0000
0000
0000
0000
,
0000
0000
0000
0000
,
0000
0000
0000
0000
,
0000
0000
0000
0000
,
0000
0000
0001
0000
0101
0000
0000
0010
,
0000
0010
0000
0010
1000
0000
1000
0000
,
0000
0000
0100
0000
0101
0000
0000
0010
,
0000
0010
0000
0010
0000
1000
0000
0001
,
1000
0100
0001
0100
,
0010
0001
0100
1001
,
0100
0001
0010
0100
,
1000
0000
0100
0010
0000
0001
0100
0000
,
0001
0000
1100
0000
0010
0000
0100
0001
,
0100
0000
1010
0000
0100
0000
0001
0100
,
0001
1100
0010
0100
,
1010
0100
0100
0000
,
0001
0000
0100
0000
1000
0000
0100
0100
,
0010
1000
0100
1001
,
0100
0000
1000
0000
0010
0000
0100
0100
,
0001
0000
0100
0010
0000
1000
0100
0000
,
1000
0000
0101
0000
0010
0000
0100
1000
,
0100
0000
0011
0000
0100
0000
1000
0100
,
1000
0101
0010
0100
,
0010
1000
0001
0100
0010
0000
0000
0000
,
1000
0000
0010
0100
0010
0000
1000
0000
,
0001
0010
0100
1000
0010
0000
0000
0000
,
0100
0000
0010
0100
0010
0000
0001
0000
,
0010
0001
1000
0100
1000
0000
0000
0000
,
0001
0000
0010
0100
0010
0000
0001
0000
,
1000
0010
0100
0001
0010
0000
0000
0000
,
0100
0100
1000
0001
,
1001
1001
0110
0110
,
0000
1000
0000
1000
0000
0001
0000
0002
,
2000
0000
0000
3003
,
1000
0100
0010
0101
,
1010
0110
2020
3030
,
0001
0010
1000
1010
,
0101
1100
0202
0303
,
1001
1001
0100
0010
,
1100
1100
0010
0001
,
0011
0011
0100
0010
,
0110
0000
0100
0100
,
0001
0101
0001
0100
,
0010
1010
0010
1000
,
0100
1100
0100
0010
,
0001
0011
0001
1000
,
0010
1010
0010
1000
,
0001
0010
0100
1000
,
1000
0000
0001
0000
1000
0001
1000
0000
,
0010
0000
0100
0000
0010
0100
0010
0000
,
0000
0000
0001
0000
0101
0000
0000
0010
,
0000
0010
0000
0010
1000
0000
1000
0000
,
0000
0000
1000
0000
1100
0000
0000
0010
,
0000
0001
0000
0001
1000
0000
0001
0000
,
0000
0000
0010
0000
1001
0000
0000
0010
,
0000
0010
0000
0010
1000
0000
1000
0000
,
0000
0000
0001
0000
0101
0000
0000
0010
,
0000
0010
0000
0010
1000
0000
1001
0000
,
0100
0000
0000
0000
,
0000
0000
0000
0000
;

//---------------dance-single - ----------------
#NOTES:
     dance-single:
     :
     Hard:
     12:
     :
0000
0000
0000
0000
,
0000
0000
0000
0000
,
0000
0000
0000
0000
,
0000
0000
0000
0000
,
0000
0000
0000
0000
,
0010
0000
0001
0000
2100
0000
0000
3100
,
0000
0100
0000
0100
0001
0000
0101
0000
,
0000
0000
1000
0000
0021
0000
0000
1030
,
0000
0101
0000
0110
0000
1001
0000
0010
,
1000
0000
0000
0000
0100
0000
0000
0000
0001
0000
0000
0000
0010
0000
0000
1000
,
0100
0000
0000
0000
0010
0000
0000
0000
0001
0000
0000
0000
0100
0000
0000
0010
,
0100
0000
0000
0000
0001
0000
0000
0000
0010
0000
0000
0000
0100
0000
0000
0001
,
1000
0010
0100
0001
0000
1000
0100
0010
,
0001
0000
1000
0010
0000
1000
0100
0001
,
0100
0000
1000
0010
0000
0100
0001
0100
,
1000
1100
0001
0101
,
1010
0000
0100
0010
0000
0100
0010
0000
,
0001
0000
0000
0000
0100
0000
0001
0000
1000
0000
0000
0000
0010
0000
0000
0001
,
0100
0000
0000
0000
0010
0000
0100
0000
1000
0000
0000
0000
0100
0000
0000
0010
,
0100
0000
0000
0000
1000
0000
0001
0000
0010
0000
0000
0000
0100
0000
0000
1000
,
0001
0010
0100
1000
1000
0001
0100
0010
,
1000
0000
0001
0010
0000
0001
0010
1000
,
0100
0000
0001
0010
0000
0001
1000
0100
,
0001
0000
0000
0000
0101
0000
0000
0000
1000
0000
0000
0000
1100
0000
0000
0100
,
0010
0001
0100
0010
0000
0000
0000
0000
,
1000
0100
0000
0010
0100
0000
1000
0010
,
0000
0100
0001
0010
0001
0100
0010
1000
,
0100
0001
0000
0100
0010
0000
0001
0100
,
0000
1000
0100
0010
1000
0100
0010
0000
,
0001
0100
0000
0010
1000
0000
0001
0010
,
0000
0001
1000
0010
1000
0100
0010
0001
,
0100
0000
0010
0000
1000
0100
0001
0000
,
1100
0000
0110
0000
0001
0100
1000
0000
,
0000
0000
1000
0000
0000
0000
1100
0000
0000
0000
0101
0000
0000
0000
0001
2000
,
0002
0000
0000
3003
,
1000
0010
0100
0010
0001
0000
0101
0000
,
1010
0000
0000
1000
0010
0000
0000
0010
0100
0000
0000
0100
0001
0000
0000
0000
,
0010
0001
0010
0100
1000
0000
1010
0000
,
0101
0000
0000
0001
0100
0000
0000
0100
1000
0000
0000
1000
0100
0000
0000
0000
,
1001
0000
0000
1000
0010
0000
0000
0010
0001
0000
0000
0001
0010
0000
0000
0010
,
1000
0000
0000
1000
0100
0000
0000
0100
0001
0000
0000
0001
0100
0000
0000
0100
,
1000
0000
0000
1000
0010
0000
0000
0010
0001
0000
0000
0001
1000
0000
0000
1000
,
0100
0000
0000
0001
0010
0000
0000
0100
0001
0000
0000
0100
1000
0000
0010
0000
,
0001
0000
0110
0000
1000
0010
0100
0000
,
0001
0000
0000
1000
0100
0000
0000
0010
0001
0000
0000
0100
0010
0000
1000
0000
,
0100
0000
0000
0000
1001
0000
0000
0000
0100
0000
0000
0010
0100
0000
0010
0000
,
1000
0001
0100
0000
,
0100
0000
0000
0000
1001
0000
0000
0000
0100
0000
0000
0010
0100
0000
0010
0000
,
0001
0100
1000
0010
,
1000
0100
0010
0100
0000
0100
0010
0100
,
1000
0001
0100
0010
0000
0001
1000
0100
,
0010
0000
0001
0000
2100
0000
0000
3100
,
0000
0100
0000
0100
0001
0000
0101
0000
,
0010
0000
1000
0000
0012
0000
0000
0103
,
0000
0100
0000
0100
1000
0000
1100
0000
,
0010
0000
0001
0000
0120
0000
0000
0130
,
0000
0100
0000
0100
0001
0000
0101
0000
,
0010
0000
0001
0000
2010
0000
0000
3100
,
0000
0100
0000
0100
0010
0000
1001
0000
,
0100
0000
0000
0000
,
0000
0000
0000
0000
;

//---------------dance-single - ----------------
#NOTES:
     dance-single:
     :
     Challenge:
     15:
     :
0000
0000
0000
0000
,
0000
0000
0000
0000
,
0000
0000
0000
0000
,
0000
0000
0000
0000
,
0000
0000
0000
0000
,
0010
0000
1010
0000
0101
0001
0010
1000
,
0100
0000
0010
0000
0100
0000
1000
0000
0001
0000
0100
0010
0100
0000
0000
0000
,
0001
0010
0001
0100
1000
0010
0001
0101
,
0000
0000
1100
0000
0000
0000
0011
0000
0000
0000
1001
0000
0010
0000
1000
0001
,
2000
0000
3001
0010
0001
0100
1000
0010
,
0100
0000
0001
0000
0010
0000
0001
0000
1000
0000
0010
0100
0010
0000
1000
0000
,
0001
0000
0010
0000
0100
0000
0010
0001
0010
0000
0001
1000
0001
0000
0100
0000
,
0010
0000
1000
0000
0100
0000
1000
0001
1000
0000
0010
0100
0010
0000
1000
0000
,
0001
0010
0001
0100
1000
0010
0100
0001
,
0010
0000
0100
0000
0010
0000
0001
1000
0001
0000
0100
0010
0100
0000
0001
0000
,
1000
0000
0010
0000
0001
0000
0100
0010
0100
0000
0001
1000
0001
0000
0010
0000
,
0100
0000
1000
0000
0010
0000
0100
0001
0100
0000
0001
1000
0001
0000
0000
0000
,
0110
1000
0010
0100
0001
0010
1000
0001
,
0100
0000
0001
0010
0100
0000
1000
0000
0010
0000
0100
0001
1000
0000
0001
0000
,
0010
0000
0100
0010
0001
0000
0100
0001
1000
0000
0001
0010
0100
0000
1000
0000
,
0010
0000
1000
0000
0100
0000
0001
1000
0010
0000
0100
0001
1000
0000
0100
0000
,
0010
0000
0001
0000
0100
0000
1000
0010
0100
0000
0001
1000
0100
0000
0010
0000
,
0100
0000
1000
0010
0100
0000
0001
0000
0010
0000
0100
1000
0001
0000
0010
0000
,
0001
0000
0010
0001
0100
0000
0010
1000
0001
0000
1000
0100
0010
0000
0001
0000
,
0100
0000
0010
0000
1000
0000
0001
0010
0100
0000
1000
0001
0010
0000
0100
0000
,
1100
0000
0001
0000
1000
0000
0010
0100
0001
0000
1000
0000
0001
0000
0010
0000
,
1000
0000
0100
0000
0001
0000
1000
0010
0100
0000
0001
0000
0010
0000
1000
0000
,
0100
0000
0001
0000
0100
0000
1000
0000
0001
0000
1000
0000
0010
0000
0100
0001
,
1000
0000
0001
0000
0010
0000
1000
0000
0100
0000
0010
0001
0010
0000
0100
0000
,
1000
0000
0001
0100
0001
0000
0010
0000
1000
0000
0100
0010
0001
0000
0100
0000
,
0001
0000
1000
0100
1000
0000
0001
0100
0001
0000
0010
0100
0010
0000
0001
0000
,
1000
0000
0100
1000
0010
0000
0100
0000
0001
0000
0010
0001
1000
0000
0010
0000
,
0100
0000
0001
0010
0100
0000
1000
0001
0010
0000
0100
1000
0001
0000
0100
0010
,
1000
0000
0001
0100
0001
0000
0010
0000
0000
0000
0001
1000
0001
0000
0100
0010
,
1000
0000
0000
1100
0000
0000
0101
0000
1001
0000
0000
0000
0110
0000
0010
0100
,
0001
0010
1000
0001
0000
1000
0100
0010
,
0001
0000
0100
0000
1000
0000
0010
0000
0100
0000
0001
0010
0001
0000
1000
0000
,
0100
0010
0001
0100
1000
0010
0001
0100
,
0001
0010
0100
0010
0001
0000
1000
0000
0010
0000
0100
0001
1000
0000
0100
0000
,
0010
0000
0001
0000
0100
0000
0001
0000
0010
0000
1000
0100
1000
0000
0010
0000
,
0001
0000
0010
0000
1000
0000
0100
0000
0010
0000
0001
0100
0002
0000
0000
0000
,
1003
0000
0100
0010
0001
0000
0100
0000
0001
0000
0010
0001
1000
0010
0100
0000
,
0001
0000
0010
0001
0100
0000
0001
0010
1000
0000
0100
1000
0010
0000
0100
0000
,
0110
0000
0001
0000
0010
0000
1000
0000
0100
0010
0001
1000
0010
0000
0100
0000
,
0001
0000
0010
0000
1000
0000
0001
0000
1000
0100
0010
0000
0001
1000
0001
0000
,
0100
0000
0010
0000
1000
0000
0100
0001
0010
0000
0001
1000
0010
0000
0100
0001
,
0100
0000
0010
1000
0001
0000
0010
0000
1000
0000
0100
0000
0010
0000
0001
1000
,
0010
0000
0100
0000
0001
0000
0010
0000
1000
0000
0100
1000
0001
0000
0010
0000
,
1000
0000
0001
0000
1000
0000
0010
0000
0100
0000
0001
0010
0100
0000
1000
0000
,
0001
0000
0010
0000
1000
0000
0100
0000
0001
0000
1000
0001
1000
0000
0010
0000
,
0100
0000
0001
0000
0010
0000
0100
0000
1000
0000
0010
0000
0001
0000
0100
0010
,
0100
0000
0101
1000
1010
0001
0010
1000
,
0100
0000
1000
0000
0010
0000
0100
0001
0010
0000
0001
0100
1000
0000
0010
0000
,
0100
0000
0000
0000
1001
0000
1000
0000
1010
0000
0100
0001
0010
0000
1000
0000
,
0100
0000
0010
0000
0001
0000
0100
0010
1000
0000
0001
0010
1000
0000
0100
0010
,
0001
0000
0000
0000
0110
0000
0010
0000
1001
0000
1000
0100
0010
0000
0001
0000
,
0100
0000
0010
1000
0001
0000
0010
0100
1000
0000
0001
0100
0010
0000
1000
0000
,
0100
0000
0000
0000
0011
0000
0001
0000
0101
0000
0100
0000
0010
0000
1000
0001
,
0100
0000
0001
0010
0100
0000
1000
0001
1000
0000
0010
0100
0001
0000
0000
0000
,
2001
0000
0001
0002
0000
0000
0000
0000
,
3003
0000
0000
0000
;

//---------------dance-double - ----------------
#NOTES:
     dance-double:
     :
     Easy:
     4:
     :
00000000
00000000
00000000
00000000
,
00000000
00000000
00000000
00000000
,
00000000
00000000
00000000
00000000
,
00000000
00000000
00000000
00000000
,
00000000
00000000
00000000
00000000
,
00000000
00200000
00020000
00000000
,
00000000
00000000
00330000
00000000
,
00000000
00000020
00002000
00000000
,
00000000
00000000
00003030
00000000
,
00000001
00000000
00000100
00000000
,
00001000
00000000
00000010
00000000
,
00000100
00000000
00001000
00000000
,
00010000
00010000
00010000
00000000
,
00100000
00000000
10000000
00000000
,
01000000
01000000
01000000
00000000
,
00010000
00000000
00001000
00000000
,
00020000
00000000
00030000
00000000
,
00000100
00000000
00001000
00000000
,
00000010
00000000
00000001
00000000
,
00000100
00000000
00000010
00000000
,
00001000
00001000
00001000
00000000
,
00010000
00000000
00100000
00000000
,
10000000
10000000
10000000
00000000
,
00010000
00000000
10000000
00000000
,
20020000
00000000
30030000
00000000
,
10000000
00000000
01000000
00000000
,
00010000
00100000
00010000
00000000
,
01000000
00000000
00010000
00000000
,
00001000
00010000
00001000
00000000
,
00000010
00000000
00000100
00000000
,
00000010
00000001
00000010
00000000
,
00000100
00000000
00001000
00000000
,
00010000
00001000
00010000
00001000
,
00200000
00000000
00000000
00300000
,
20020000
00000000
30030000
00000000
,
01000000
01000000
00100000
00000000
,
00010000
00000000
00001000
00000000
,
00000100
00000100
00000010
00000000
,
00000001
00000000
00001000
00000000
,
00010000
00010000
00000100
00000000
,
00001000
00000000
00100000
00000000
,
00001000
00001000
01000000
00000000
,
00000000
00000000
00000000
00000000
,
10000000
00010000
10000000
00000000
,
00100000
00000000
01000000
00000000
,
00010000
00001000
00010000
00000000
,
00000100
00000000
00000010
00000000
,
00000001
00001000
00000001
00000000
,
00000100
00000000
00000010
00000000
,
00002002
00000000
00000000
00000000
,
00003003
00000000
00000000
00000000
,
00000000
00000200
00000002
00000000
,
00000000
00000000
00000303
00000000
,
00000000
00000020
00002000
00000000
,
00000000
00000000
00003030
00000000
,
00000000
00200000
00020000
00000000
,
00000000
00000000
00330000
00000000
,
00000000
20000000
00020000
00000000
,
00000000
00000000
30030000
00000000
,
10010000
00000000
00000000
00000000
,
00000000
00000000
00000000
00000000
;

//---------------dance-double - ----------------
#NOTES:
     dance-double:
     :
     Medium:
     7:
     :
00000000
00000000
00000000
00000000
,
00000000
00000000
00000000
00000000
,
00000000
00000000
00000000
00000000
,
00000000
00000000
00000000
00000000
,
00000000
00000000
00000000
00000000
,
00000000
00000000
00000010
00000000
00000002
00000000
00000000
00001003
,
00000000
00001000
00000000
00001000
00000010
00000000
00000100
00000000
,
00000000
00000000
00001000
00000000
00020000
00000000
00000000
00030100
,
00000000
00000100
00000000
00000100
00000000
00010000
00000000
00000000
,
00001000
00010000
01000000
00100000
,
00010000
10000000
01000000
00010000
,
00000100
00001000
00000010
00000100
,
00000001
00000000
00000100
00001000
00000000
00010000
00001000
00000000
,
00100000
01000000
10000000
00010000
,
00100000
01000000
00010000
00001000
,
00010000
00000010
00001000
00000100
,
00000010
00000001
00001001
00000000
,
00000010
00000000
00001000
00000000
00000100
00000000
00010000
00010000
,
00001000
00010000
01000000
10000000
,
01000000
00000000
00010000
00000000
00001000
00000000
00100000
00100000
,
00010000
00001000
00000100
00000010
,
00000001
00000000
00000010
00000000
00001000
00000000
00000010
00000001
,
00000001
00000000
00000100
00000000
00001000
00000000
00010000
00001000
,
00001000
00010000
00100000
01000000
,
00010000
10000000
01000000
00100000
00010000
00000000
00000000
00000000
,
10000000
00000000
00010000
10000000
00000000
01000000
00100000
00000000
,
00001000
00010000
00000100
00000010
,
00000001
00000000
00001000
00000001
00000000
00000100
00000010
00000000
,
00000100
00001000
00010000
00011000
,
00100000
00000000
00010000
00001000
00000000
01000000
00100000
00000000
,
00010000
00100000
10000000
01000000
,
00010000
00000000
00001000
00010000
00000000
00000010
00000100
00000000
,
00000001
00001000
00000100
00000110
,
00000010
00000001
00000000
00000100
00000000
00001000
00000000
00020000
,
00002000
00000000
00000000
00033000
,
00001000
01010000
00100000
00010000
,
00010000
00001100
00000010
00001000
,
00001000
00000010
00000001
00000100
,
00001000
00010000
00001000
00010000
00001000
00000000
00000000
00000000
,
00001000
00110000
01000000
00010000
,
00010000
00001010
00000100
00001000
,
00001000
00011000
00010000
00101000
,
00020000
00000000
10000000
10030000
,
10000000
11000000
10000000
01000000
,
00100000
00110000
00100000
00010000
,
00100000
00101000
00010000
00001000
,
00010000
00011000
00010000
00000100
,
00001000
00001001
00001000
00000001
,
00000100
00000101
00000001
00000100
,
00000010
00000000
00001000
00000000
00000001
00001000
00000001
00000000
,
00000100
00000000
00001000
00000000
00010000
00001000
00010000
00000000
,
00000000
00000000
00100000
00000000
20000000
00000000
00000000
30010000
,
00000000
00010000
00000000
00010000
00100000
00000000
01000000
00000000
,
00000000
00000000
00010000
00000000
00002000
00000000
00000000
00103000
,
00000000
00100000
00000000
00100000
00001000
00000000
00011000
00000000
,
00000000
00000000
00000010
00000000
00002000
00000000
00000000
00003100
,
00000000
00000100
00000000
00000100
00000010
00000000
00000001
00000000
,
00000000
00000000
00000010
00000000
00000200
00000000
00000000
00001300
,
00000000
00001000
00000000
00001000
00010000
00000000
00011000
00000000
,
00011000
00000000
00000000
00000000
,
00000000
00000000
00000000
00000000
;

//---------------dance-double - ----------------
#NOTES:
     dance-double:
     :
     Hard:
     12:
     :
00000000
00000000
00000000
00000000
,
00000000
00000000
00000000
00000000
,
00000000
00000000
00000000
00000000
,
00000000
00000000
00000000
00000000
,
00000000
00000000
00000000
00000000
,
00000000
00000000
10010000
00000000
01020000
00000000
00000000
00130000
,
00000000
00100000
00000000
00100000
00010000
00000000
00101000
00000000
,
00000000
00000000
00001001
00000000
00002100
00000000
00000000
00003010
,
00000000
00001010
00000000
00001100
00000000
00001001
00000000
00000010
,
00000001
00000000
00000100
00000000
00001000
00000000
00000100
00000001
,
00000010
00000000
00001000
00000000
00010000
00000000
00001000
00010000
,
00100000
00000000
10000000
00000000
01000000
00000000
00100000
00001000
,
00010000
00000000
01000000
10000000
01000000
00100000
01000000
00010000
,
00001000
00000000
00010000
00000000
00001000
00000000
00000010
00000001
,
00001000
00000001
00000100
00000010
00000000
00000010
00000100
00000000
,
00001000
00011000
00001000
01001000
,
00101000
00000000
00100000
00010000
10000000
00000000
00000000
00000000
,
10000000
00000000
00100000
00000000
00010000
00000000
00100000
10000000
,
01000000
00000000
00010000
00000000
00001000
00000000
00010000
00001000
,
00000100
00000000
00000001
00000000
00000010
00000000
00000100
00010000
,
00001000
00000000
00000010
00000001
00000010
00000100
00000010
00001000
,
00010000
00000000
00001000
00000000
00010000
00000000
01000000
10000000
,
00010000
10000000
00100000
01000000
00000000
01000000
00100000
00000000
,
00010000
00011000
00010000
00010010
,
00010000
00001000
00000100
00000010
00000001
00000000
00000010
00000000
,
00001000
00000010
00001000
00000100
00000000
00000010
00000001
00000010
,
00000000
00000001
00000100
00000010
00000100
00001000
00010000
00000000
,
00001000
01000000
00001000
00100000
00000000
01000000
00100000
01000000
,
00000000
10000000
01000000
00100000
00010000
01000000
00100000
00000000
,
00010000
00100000
10000000
01000000
00000000
10000000
00100000
00010000
,
00000000
00001000
00010000
00001000
00000010
00001000
00000001
00000000
,
00000100
00001000
00000010
00000001
00000000
00000010
00000100
00000010
,
00000100
00000000
00000110
00000000
00001001
00000100
00001000
00010000
,
00000000
00011000
00000000
00101000
00000000
01100000
00000000
10000000
,
00100000
00000000
00000000
00010000
00000000
00000000
00001000
00000000
00011000
00000000
00000000
00000000
00011000
00000000
00000000
00000000
,
00010000
00001000
00100000
00002000
00000000
00000000
00013000
00000100
,
00000010
00000000
00000000
00000010
00000001
00000000
00000000
00000001
00000100
00000000
00000000
00000100
00001000
00000000
00000000
00000000
,
00010000
00000100
00001000
00000020
00000000
00000000
00000130
00001000
,
00010000
00000000
00000000
00010000
00100000
00000000
00000000
00100000
10000000
00000000
00000000
10000000
01000000
00000000
00000000
00000000
,
10010000
00000000
00000000
10000000
00100000
00000000
00000000
00100000
00010000
00000000
00000000
00010000
00001000
00000000
00000000
00010000
,
00001000
00000000
00000000
00001000
00000010
00000000
00000000
00000010
00000001
00000000
00000000
00000001
00001000
00000000
00000000
00000001
,
00001000
00000000
00000000
00001000
00000010
00000000
00000000
00000010
00010000
00000000
00000000
00010000
00001000
00000000
00000000
00010000
,
00001000
00000000
00000000
00001000
01000000
00000000
00000000
01000000
00100000
00000000
00000000
00100000
10000000
00000000
00010000
00000000
,
10000000
00000000
01100000
00000000
10000000
01000000
00100000
00000000
,
01000000
00000000
00000000
01000000
00010000
00000000
00000000
00010000
00001000
00000000
00000000
00001000
00000010
00000000
00000001
00000000
,
00001000
00000000
00001001
00000000
00000010
00001000
00000001
00000000
,
00000100
00000000
00000000
00000100
00001000
00000000
00000000
00001000
00100000
00000000
00000000
00100000
01000000
00000000
10000000
00000000
,
00100000
00000000
10010000
00000000
01000000
00100000
10000000
00100000
,
00010000
00001000
00100000
01000000
,
10000000
01000000
00100000
01000000
00000000
01000000
00010000
01000000
,
00100000
00001000
00010000
00001000
00000000
00010000
00001000
00000100
,
00000010
00000000
00001001
00000000
00002100
00000000
00000000
00003010
,
00000000
00000010
00000000
00000010
00001000
00000000
00010010
00000000
,
00001000
00000000
00101000
00000000
00021000
00000000
00000000
01030000
,
00000000
01000000
00000000
01000000
10000000
00000000
11000000
00000000
,
00100000
00000000
10010000
00000000
21000000
00000000
00000000
30100000
,
00000000
00100000
00000000
00100000
00010000
00000000
00011000
00000000
,
00000010
00000000
00010100
00000000
00001002
00000000
00000000
00000013
,
00000000
00000010
00000000
00000010
00000100
00000000
00001001
00000000
,
00001001
00000000
00000000
00000000
,
00000000
00000000
00000000
00000000
;
