#TITLE:Shake It Up;
#ARTIST:The Cars;
#BANNER:Shake It Up-bn.png;
#BACKGROUND:Shake It Up-bg.png;
#JACKET:Shake It Up-jacket.png;
#MUSIC:Shake It Up.ogg;
#SAMPLESTART:25.6;
#SAMPLELENGTH:20;
#DISPLAYBPM:145:149;
#BPMS:0=147.67,24=147,40=148,60=147.36,88=148.15,104=146,112=147.14,120=148.39,136=145.37,140=147.2,144=149,152=148.07,156=146.333,164=148.019,184=145,188=148.69,204=147.51,208=147.135,216=147.6,220=148.9,228=148.106,232=146.97;
#BGCHANGES:;

//---------------dance-single - ----------------
#NOTES:
     dance-single:
     :
     Beginner:
     3:
     :
0000
0000
0000
0000
,
0000
0000
0000
0000
,
0000
0000
0000
0000
,
0000
0000
0000
0000
,
1000
0000
1000
0000
,
0001
0000
0001
0000
,
0100
0000
0100
0000
,
0010
0000
0010
0000
,
1000
0000
0001
0000
,
0010
0000
0100
0000
,
0000
0000
1000
0000
,
0010
0000
1000
0000
,
0100
0000
0010
0000
,
0001
0000
0100
0000
,
0000
0000
0001
0000
,
1000
1000
0000
0010
,
0010
0000
0000
0000
,
0000
0000
0000
0010
,
0010
0000
0000
0000
,
0000
0000
0000
0010
,
0010
0000
0000
0000
,
0000
0000
0000
0010
,
0010
0000
0000
0000
,
0000
0000
0000
0000
,
1000
0000
0100
0000
,
0001
0000
0100
0000
,
0000
0000
1000
0000
,
0010
0000
1000
0000
,
0001
0000
0001
0000
,
1000
0000
0100
0000
,
0000
0000
0010
0000
,
0001
0001
0000
0010
,
0010
0000
0000
0000
,
0001
0000
0000
0010
,
0010
0000
0000
0000
,
1000
0000
0000
0010
,
0010
0000
0000
0000
,
1000
0000
0000
0010
,
0010
0000
0000
0000
,
0001
0000
0100
0000
,
0001
0000
1000
0000
,
0010
0000
0100
0000
,
0010
0000
1000
0000
,
0100
0000
0001
0000
,
1000
0000
0001
0000
,
0010
0000
0100
0000
,
1001
0000
0000
0000
,
0010
0000
0100
0000
,
0002
0000
0003
0000
,
2000
0000
3000
0000
,
0020
0000
0030
0000
,
1000
0000
0100
0000
,
2000
0000
3000
0000
,
0002
0000
0003
0000
,
0200
0000
0300
0000
,
0010
0010
0010
0000
,
1000
0000
0010
0000
,
1000
0000
0001
0000
,
0100
0000
0010
0000
,
0100
0000
0001
0000
,
0010
0000
0001
0000
,
0010
0000
0100
0000
,
1000
0000
0010
0000
,
1000
0000
0001
0000
,
0100
0000
1001
0000
;

//---------------dance-single - ----------------
#NOTES:
     dance-single:
     :
     Easy:
     6:
     :
0000
0000
0000
0000
,
0000
0000
0000
0000
,
0000
0000
0000
0000
,
0000
0000
0000
0000
,
1000
1000
1000
1000
,
0001
0001
0001
0001
,
0100
0100
0100
0100
,
0010
0010
0010
0010
,
1000
0100
0001
0000
,
0010
0100
1000
0000
,
0000
0001
0100
0010
,
1000
0100
1000
0000
,
0010
1000
0001
0000
,
0100
0001
0010
0000
,
0000
0001
0100
0010
,
1000
1000
0001
0100
,
0010
1000
0001
0001
,
0010
0001
1000
1000
,
0010
0100
0010
0100
,
0001
0000
1000
0100
,
0010
0001
0001
1000
,
0100
1000
0010
0100
,
0010
1000
0100
0001
,
1000
0010
1000
0001
,
1001
0110
1001
0000
,
0010
1000
0100
0000
,
0000
1000
0010
0001
,
0100
0010
0100
0000
,
0110
1001
0110
0000
,
1000
0100
0001
0000
,
0000
0010
0001
0100
,
1000
0010
1000
0001
,
0010
0001
1000
0000
,
0010
0000
1000
0001
,
0010
0001
0100
0000
,
1000
0010
1000
0001
,
0010
0100
1000
0000
,
0001
0000
0100
1000
,
0010
1000
0100
0000
,
0010
0001
0100
1000
,
1001
0110
1001
0000
,
1000
1000
1000
0000
,
0110
1001
0110
0000
,
0001
0001
0001
0000
,
1001
0110
1001
0000
,
0100
0100
0100
0000
,
1001
0010
0010
0010
,
1001
1001
0110
0110
,
1000
0010
0002
0003
,
0100
0001
0020
0030
,
0001
0100
2000
3000
,
0010
0010
0010
0100
,
0010
1000
0002
0003
,
1000
0100
0020
0030
,
0001
1000
0200
0300
,
1001
0110
1001
0110
,
0001
0100
2000
3000
,
0010
1000
0002
0003
,
0010
0010
0001
0001
,
0100
0100
2000
3000
,
0020
0030
1000
0100
,
1000
0010
0001
0001
,
0110
0000
0010
0010
,
1000
0100
0001
0100
,
1001
0110
1001
0000
;

//---------------dance-single - ----------------
#NOTES:
     dance-single:
     :
     Medium:
     9:
     :
0000
0000
0000
0000
,
0000
0000
0000
0000
,
0000
0000
0000
0000
,
0000
0000
0000
0000
,
1000
0000
0010
0000
1000
0100
0010
0000
,
0001
0000
0010
0000
0001
0100
0010
0000
,
1000
0000
0100
0000
1000
0010
0100
0000
,
0001
0000
0100
0000
0001
0010
0100
0000
,
1100
1010
1001
0000
,
0001
0100
0000
0010
0000
1000
0001
0000
,
0010
0000
0001
1000
0001
0100
0000
0000
,
0010
1000
0010
0100
0000
0001
1000
0000
,
0011
0101
1001
0000
,
0010
0000
1000
0001
0000
1000
0100
0000
,
0010
0000
0001
0100
0010
0100
0001
0000
,
0200
0000
1300
0200
0000
0000
0301
1000
,
0010
0000
1000
0000
0100
1000
0001
0000
,
1000
0000
0010
0000
1000
0100
0010
0001
,
0010
0000
0001
0000
1000
0100
1000
0000
,
0001
0000
0100
0000
0001
1000
0010
0100
,
0010
0000
1000
0000
0001
0010
0100
0000
,
1000
0000
0010
0000
0100
0001
1000
0001
,
0010
0000
0100
0000
0010
0001
1000
0000
,
0010
0000
0100
0000
0010
1000
0001
0000
,
0110
1010
0101
0000
,
1000
0001
0000
0010
0000
0001
0100
0010
,
1000
0000
0100
1000
0002
0000
0103
0000
,
0020
0000
1030
0001
0000
1000
0100
0000
,
1100
0000
0011
0000
0110
0000
0000
1000
,
0010
0000
0100
0001
0000
0000
1000
0100
,
1000
0000
0001
0100
0001
0100
0000
0010
,
0200
0000
0301
2000
0000
0000
3001
0100
,
0010
1000
0000
0001
0010
0000
0000
0000
,
0101
0000
0000
1100
0000
0000
0001
1000
,
0010
1000
0000
0001
0100
0000
0000
0000
,
0001
0010
0100
1000
0000
0000
1000
0100
,
0010
0001
0000
1000
0100
0000
0000
0000
,
1010
0000
0000
0011
0000
0000
0100
0001
,
0010
0100
0000
1000
0001
0000
0000
0000
,
1000
0100
1000
0100
1000
0100
1000
0000
,
1100
0101
1100
0000
,
0001
1000
0000
0110
0000
0000
0000
0000
,
0011
1010
0011
0000
,
1000
0001
0100
0010
1000
0000
0000
0000
,
0011
0110
1100
0000
,
0010
0100
0000
1001
0000
0010
0100
0000
,
1002
0010
0010
0013
,
1000
0100
1000
0000
0001
0100
0001
0000
,
1000
0010
0000
0200
0000
0000
0300
0010
,
1000
0001
0000
0020
0000
0000
0030
0001
,
1000
0100
0000
0020
0000
0000
0030
0001
,
0100
0010
0100
0010
0100
0010
0100
0010
,
0100
0001
0000
2000
0000
0000
3000
0010
,
1000
0100
0000
0002
0000
0000
0003
0010
,
0001
0100
0000
2000
0000
0000
3000
0010
,
2000
3020
0230
0301
,
0011
0000
1100
0000
0101
0000
0000
0010
,
1000
0001
0000
1100
0000
0000
0000
0010
,
1000
0100
1000
0100
0010
0001
0100
0000
,
0001
1000
0001
1000
0020
0000
0030
0000
,
1000
0200
0000
1300
0001
0100
0001
0000
,
0010
0100
1000
0001
0010
0100
1000
0000
,
0000
1010
0000
0000
0001
0100
0001
0000
,
1000
0010
0100
0000
0001
0010
0100
0000
,
1100
0101
1001
0000
;

//---------------dance-single - ----------------
#NOTES:
     dance-single:
     :
     Hard:
     12:
     :
0000
0000
0000
0000
,
0000
0000
0000
0000
,
0000
0000
0000
0000
,
0000
0000
0000
0000
,
1000
0100
1000
0001
0100
0010
0010
0000
,
0100
0001
0010
0001
1000
0100
0100
0000
,
1000
0010
0100
0001
0010
0100
0100
0000
,
1000
0001
0001
0010
0010
0100
0100
1000
,
1001
0000
0101
0000
0011
1000
0100
0000
,
1000
0010
1000
0001
0100
0010
0010
0000
,
1000
0000
0001
0100
0001
1000
0100
0000
,
0010
0001
0100
0010
1000
0100
1000
0000
,
1001
0000
1010
0000
1100
0001
0100
0000
,
0020
0000
1030
0002
0000
0100
0103
0000
,
0001
0000
0010
0001
1000
0010
0100
0000
,
0001
0100
1000
1000
0000
0010
1000
0001
,
0010
0001
0100
0010
1000
0100
0001
0000
,
1000
0010
0100
0010
1000
0100
0010
0001
,
0010
0100
0010
0001
0100
0010
1000
0000
,
0100
1000
0100
1000
0010
1000
0001
0100
,
0010
0000
1000
0100
1000
0001
0100
0010
,
1000
0000
1000
0001
0010
0001
1000
0100
,
0010
0001
0001
0100
0001
0010
0100
1000
,
0010
1000
0001
1000
0010
1000
0100
0000
,
0110
0000
1100
0000
0101
0100
0010
0000
,
1000
1000
0001
1000
0010
0100
0100
0000
,
0001
0000
1000
0010
1000
0001
0100
0000
,
0010
1000
0001
0001
0000
0100
0100
0010
,
0110
0000
1010
0000
0011
0100
1000
0000
,
0001
1000
0010
0010
0000
0100
0100
0001
,
0010
0000
0001
1000
0001
0200
0000
0310
,
1000
0001
1000
0200
0000
1300
0010
0100
,
0010
1001
0000
0100
0001
0010
0010
0000
,
0001
0100
0010
2000
0100
0000
3001
0100
,
0010
0101
0000
1000
0001
0100
0100
0000
,
0001
1000
1000
0010
0010
0100
0100
0001
,
0010
1100
0000
0001
1000
0100
0100
0000
,
1000
0010
0100
0002
0010
0000
1003
0001
,
0010
0110
0000
0001
0001
1000
0100
0000
,
1000
0010
0010
1000
1000
0001
0001
0100
,
0101
0000
1100
0000
0101
0010
1000
0000
,
0001
0001
0010
0100
0000
1000
0010
1000
,
1010
0000
0011
0000
1010
0001
1000
0000
,
0010
1000
0010
0100
0010
1000
0001
0000
,
0011
0000
1100
0000
0011
0100
0010
0000
,
1000
1000
0010
0100
0001
0010
1000
0000
,
1002
0000
0000
0000
0100
0000
0000
0000
0010
0000
0000
0000
0103
0000
0000
0010
,
1000
0000
1000
0000
1000
0000
0000
0010
1000
0000
1000
0000
1000
0000
0001
0000
,
0010
0001
0010
0200
0000
1000
1300
0001
,
1000
0010
1000
0002
0000
0100
0103
0010
,
1000
0000
0100
0000
1000
0000
0020
0000
0000
0000
0100
0000
0130
0000
0001
1000
,
0001
0000
0001
0000
0100
0000
0100
0000
0010
1000
0010
0000
0100
0000
0001
0000
,
1000
0001
1000
0200
0000
0010
0310
0100
,
0010
0000
0001
0000
1000
0000
0020
0000
0000
0000
0100
0000
0130
0000
0001
1000
,
0001
0010
0001
2000
0000
0010
3010
0100
,
0001
0010
0000
0000
0001
0100
0000
0000
0001
1000
0000
0000
0100
0000
0000
0000
,
1100
0000
0110
0000
0012
0000
1003
0001
,
0010
0010
0001
2000
0200
0000
3000
0310
,
0001
0000
1000
0010
1000
0000
0001
0000
0100
0000
1000
0000
0100
0000
0001
0000
,
0010
1000
0010
0001
0100
0020
0000
1000
,
1030
0000
0002
0000
0000
0000
1003
0000
0010
0100
0010
0000
1000
0000
0001
0000
,
0010
0000
0100
0000
0010
0000
0001
0000
1000
0100
1000
0000
0002
0000
0000
0000
,
0013
0000
0200
0000
0000
0000
1000
0000
1300
0000
0001
0000
0100
0001
0100
0001
,
0100
0010
1000
0010
1000
0100
0001
0000
,
0101
1100
1001
0000
;
