#TITLE:Serpentine Fire;
#SUBTITLE:;
#ARTIST:Earth, Wind and Fire;
#TITLETRANSLIT:;
#SUBTITLETRANSLIT:;
#ARTISTTRANSLIT:;
#GENRE:;
#CREDIT:;
#BANNER:Serpentine Fire-bn.png;
#BACKGROUND:Serpentine Fire-bg.png;
#LYRICSPATH:;
#CDTITLE:;
#MUSIC:Serpentine Fire.ogg;
#OFFSET:0.000000;
#SAMPLESTART:12.314000;
#SAMPLELENGTH:20.000000;
#SELECTABLE:YES;
#DISPLAYBPM:115.000000:143.000000;
#BPMS:0.000000=136.000000
,16.000000=137.000000
,36.000000=138.000000
,40.000000=139.000000
,68.000000=138.759995
,72.000000=137.750000
,84.000000=139.179993
,92.000000=138.888000
,98.000000=140.000000
,140.000000=139.779999
,156.000000=140.250000
,164.000000=139.427994
,168.000000=137.679993
,184.000000=141.199997
,188.000000=142.000000
,192.000000=136.675003
,196.000000=138.300003
,208.000000=140.199997
,220.000000=115.000000
,228.000000=141.000000
,248.000000=139.875000
,256.000000=143.000000
,268.000000=138.994995
,276.000000=140.108002
;
#STOPS:
;
#BGCHANGES:;
#KEYSOUNDS:;
#ATTACKS:;

//---------------dance-single - ----------------
#NOTES:
     dance-single:
     :
     Hard:
     12:
     0.493863,0.492685,0.179976,0.134982,0.018748,461.000000,437.000000,24.000000,18.000000,0.000000,0.000000,0.493863,0.492685,0.179976,0.134982,0.018748,461.000000,437.000000,24.000000,18.000000,0.000000,0.000000:
0000
0000
0000
0000
,
0000
0000
0000
0000
,
0000
0000
0000
0000
,
0000
0000
0000
0000
,
0020
0000
1030
0200
0001
0000
1300
0001
,
0000
0100
0100
0100
0010
0010
1000
1000
,
0001
0001
0100
0100
0100
0010
0110
0000
,
1001
0100
0000
0001
0001
0000
1000
0000
,
0010
1000
0000
0001
0001
0100
0010
0100
,
0001
1000
0001
0010
0100
1000
1000
0000
,
0001
0010
0100
0010
1000
0010
0001
0100
,
0010
1000
0001
1000
0100
0010
0001
0000
,
0100
0000
0001
0000
0100
0000
1000
0000
0100
0001
0000
0000
1010
0000
0000
0000
,
0100
0000
0001
0000
0010
0000
0001
0000
1000
0010
0000
0000
1000
0001
1000
0000
,
0000
0000
0100
0000
0010
0000
0001
0000
1000
0001
0000
0000
0100
0000
0010
0000
,
1000
0001
0000
0011
0000
1000
0100
0001
,
0010
0100
0000
1000
1000
0010
0100
0001
,
0010
0100
0000
1000
1000
0010
0001
0100
,
0001
1000
1000
0010
0100
0001
1000
0001
,
0010
0100
0000
1000
0001
0100
0001
0020
,
0000
0130
1000
0010
0001
0010
1000
0010
,
0100
0001
0000
0010
0100
0000
1100
0000
,
0001
0100
1000
0010
0100
0001
1000
0100
,
0010
0001
0000
0100
0001
0010
0100
1000
,
0020
0000
0130
0001
2000
0000
3001
0010
,
0100
1000
0010
1000
0001
0100
0100
0010
,
0000
1000
1000
0001
1000
0010
0100
0001
,
0010
0001
0000
1000
0001
0100
0010
1000
,
0000
0100
0010
0001
0000
1000
0001
1000
,
0010
0100
0100
0001
1000
0000
0101
0000
,
0001
0010
0001
0100
0010
1000
0100
0010
,
0001
1000
0001
0100
0020
0000
1030
0001
,
0010
1000
0010
0001
0100
0010
0100
0001
,
1000
0100
0000
0001
0001
0010
0100
1000
,
0000
0001
0001
0100
0010
1000
0010
0100
,
0001
0001
0000
0010
0100
1000
0001
1000
,
0010
0100
0001
0010
0002
0000
1003
0001
,
0010
0100
0000
1000
1000
0010
0001
0010
,
1000
0100
0010
0000
0011
2000
3100
0000
,
1001
0100
0000
0001
0010
0200
1300
0000
,
0001
0100
0000
0010
1000
0100
0000
0010
,
0000
0001
0100
1000
0100
0001
0001
0000
,
0010
0100
1000
0000
1010
0002
0103
0000
,
0110
0001
0000
1000
0010
0200
0301
0000
,
0010
0001
0000
0100
0010
1000
0000
0001
,
0000
1000
1000
0100
0001
0100
1000
0000
,
0010
0100
0001
1000
0100
0000
1001
0000
,
0001
0100
1000
0001
0010
2000
0000
0000
,
0010
0000
0001
0001
0001
0000
3100
0000
,
0110
0000
0001
0100
1000
0000
0010
0000
,
0101
0000
1000
0001
0010
0100
1000
0000
,
0001
0010
1000
0001
0100
2000
0000
0000
,
0100
0000
0010
0010
0010
0000
3001
0000
,
1010
0000
0001
1000
0100
0000
0010
0000
,
0011
0000
1000
0202
0000
0000
0300
0000
,
1000
0000
0000
0200
0000
0000
0000
0000
,
0000
0000
0000
0303
,
1001
0100
0000
0001
0001
0000
1000
0000
,
0001
0000
0010
0000
0001
0000
0100
0000
1000
0000
0000
0010
0100
0000
0000
0000
,
0001
0010
0000
0100
0100
0000
1000
0010
,
0001
0010
0100
0010
0001
0010
1000
0100
,
0010
0001
0010
0100
1000
0000
0001
0100
,
0010
0100
1000
0100
0001
0010
0000
0100
,
1000
0001
0010
0100
1000
0000
1100
0000
,
0001
0010
0000
0001
0100
0020
1030
0000
,
0100
0010
0000
0011
0001
0100
1000
0000
,
0010
0100
0000
0110
0001
0010
0000
0100
,
1000
0010
0001
0010
1000
0100
0010
0000
,
0001
1000
0010
0000
0101
2000
3001
0000
,
1001
0100
0000
0010
1000
0001
0100
0000
,
0010
1000
0000
0100
0010
0001
0000
1000
,
0010
0100
0010
1000
0100
0010
0001
0000
,
1000
0001
0100
0000
1010
0001
0100
0000
,
1001
0000
0000
0000
;

//---------------dance-single - ----------------
#NOTES:
     dance-single:
     :
     Medium:
     10:
     0.392091,0.437942,0.239968,0.269964,0.000000,366.000000,334.000000,32.000000,36.000000,0.000000,0.000000,0.392091,0.437942,0.239968,0.269964,0.000000,366.000000,334.000000,32.000000,36.000000,0.000000,0.000000:
0000
0000
0000
0000
,
0000
0000
0000
0000
,
0000
0000
0000
0000
,
0000
0000
0000
0000
,
0020
0000
0000
2030
0000
0000
0000
3002
,
0000
0100
1000
0100
,
1003
0001
1000
0001
1000
0000
0110
0000
,
1001
0000
0000
1000
0001
0000
0100
0000
,
0001
0010
0000
0100
1000
0000
1010
0000
,
0001
0100
0010
0100
0001
0000
1000
0000
,
0001
0100
0010
0100
0010
0100
0001
1000
,
0000
0100
0010
0000
0011
0000
1100
0000
,
0001
1000
0010
1000
0100
0000
0010
0000
,
0001
1000
0010
1000
0001
0000
0101
0000
,
0010
1000
0100
1000
0001
0000
0100
0001
,
0010
0200
0000
2300
0000
3010
0100
0001
,
0100
0010
0000
1000
0100
0010
0001
1000
,
0000
0001
0000
0010
0001
0100
0010
0000
,
0000
1000
0001
0000
1000
0010
0100
0001
,
0000
0010
0000
0100
1000
0010
1000
0001
,
0000
0100
0010
0100
0010
0100
0010
0100
,
0010
1000
0000
0001
1000
0000
0100
0000
,
0010
0001
0100
0000
0001
1000
0100
0000
,
0110
0000
0000
0001
1000
0000
0010
0000
,
0100
0001
0010
0000
0100
1000
0001
0000
,
0100
0010
0000
0000
1000
0001
1000
0000
,
0000
0100
1000
0000
0001
0100
0010
1000
,
0000
0000
0000
0100
1000
0001
1000
0010
,
0000
0100
0001
0010
0000
0011
0000
1100
,
0000
0001
0100
0001
0000
0000
0000
2000
,
0010
0000
0010
0000
0010
0000
3010
0100
,
0001
1000
0000
0020
0000
0000
0130
0001
,
0100
0010
1000
0000
0001
1000
0100
0000
,
0010
0001
0100
0000
0000
0001
1000
0000
,
0000
0100
0010
0000
0001
1000
0001
1000
,
0000
1010
0000
0000
0000
0100
0001
0000
,
0010
0100
1000
0100
0020
0000
0031
1000
,
0000
0101
0000
1000
0001
0000
1001
0000
,
0010
1000
0100
0000
2000
0002
3003
0000
,
0010
0100
0000
2000
0000
3002
0000
0000
,
0103
0002
0000
2003
0000
3010
0000
0110
,
0000
1000
0010
1000
0010
0100
0001
0000
,
0011
0000
0000
0000
0200
0020
0330
0000
,
0100
0001
0000
0020
0000
0230
0000
0000
,
1300
0002
0000
2003
0000
3010
0000
0101
,
0000
1000
0001
1000
0100
0010
0001
0000
,
1000
0001
0100
0000
0010
0000
1001
0000
,
1000
0001
1000
0001
1000
0200
0000
0000
,
0001
0000
0000
2000
0000
0000
3000
0000
,
0010
0000
0000
0002
0000
0000
0003
0000
,
1000
0000
0000
0020
0000
0000
0330
0000
,
0001
1000
0001
1000
0001
0200
0000
0000
,
1000
0000
0000
0020
0000
0000
0030
0000
,
0001
0000
0000
0020
0000
0000
0330
0000
,
1010
0000
0000
0202
0000
0000
0300
0000
,
2000
0000
0000
0000
,
0000
0000
0000
3003
,
1001
0000
0000
0100
0010
0000
0100
0000
,
0001
0010
0000
0100
1000
0000
1100
0000
,
0010
0100
0000
0001
1000
0000
0001
0100
,
0010
0100
0010
0100
0010
1000
0001
0100
,
0000
0000
0000
0001
1000
0000
0100
0010
,
0001
0010
0001
0010
0001
1000
0000
0010
,
0000
0100
0000
0001
1000
0000
0100
0000
,
1000
0001
0000
0010
0002
2000
3003
0000
,
0010
1000
0000
1010
0000
0101
0000
0001
,
0010
0100
0000
1100
0000
0110
0000
0011
,
0000
1000
0001
1000
0010
0100
0001
0000
,
0010
0100
0000
0000
2000
0002
3003
0000
,
1000
0001
0000
1001
0000
0110
0000
0100
,
0001
0010
0000
0011
0000
1001
0000
1010
,
0000
0100
0010
0100
0001
1000
0100
0000
,
0110
0000
0000
0001
2000
0002
3003
0000
,
1001
0000
0000
0000
;

//---------------dance-single - ----------------
#NOTES:
     dance-single:
     :
     Easy:
     7:
     0.237826,0.301085,0.149980,0.164978,0.000000,222.000000,202.000000,20.000000,22.000000,0.000000,0.000000,0.237826,0.301085,0.149980,0.164978,0.000000,222.000000,202.000000,20.000000,22.000000,0.000000,0.000000:
0000
0000
0000
0000
,
0000
0000
0000
0000
,
0000
0000
0000
0000
,
0000
0000
0000
0000
,
0010
0000
0000
1000
0000
0000
0000
0001
,
0000
0100
0010
0100
,
0001
1000
0001
0000
,
1001
0000
0100
0010
,
1000
0000
0001
0010
,
0011
1100
0001
1000
,
0020
0230
0320
0230
,
0301
1000
1010
0101
,
2000
3002
1003
0100
,
0000
0001
1000
0010
,
0000
0100
0110
0001
,
1000
0010
1000
0001
,
0100
0000
0010
1000
,
0100
0000
0010
0000
,
0001
0000
1000
0001
,
1000
0000
0010
0100
,
0001
0010
0001
1000
,
0010
0000
0100
0000
,
0010
1000
0001
0010
,
0100
0000
1000
0001
,
1000
0010
0100
0001
,
0010
0000
0100
0000
,
1000
0001
1000
0010
,
0100
0000
0001
0010
,
0001
0100
0000
1000
,
0000
1010
0100
0001
,
0022
0000
0030
1003
,
1001
0100
0001
0100
,
0010
0010
1000
0001
,
1000
1100
0000
0001
,
0000
1000
0010
0100
,
0101
0000
1000
1000
,
0001
0010
0001
0100
,
0010
1000
0100
0100
,
0000
0110
0002
0003
,
0010
0000
0000
0001
0000
1000
0000
0000
,
0010
0000
0000
1000
0000
0100
0000
0010
,
0000
0001
1000
0100
,
1001
0000
0200
0300
,
0010
0000
0000
1000
0000
0001
0000
0000
,
0010
0000
0000
0001
0000
1000
0000
0010
,
0000
1000
0100
0010
,
0110
0000
0001
0000
,
0100
0010
2000
0000
,
0001
0000
0000
0100
0000
0000
0000
0000
,
0010
0000
0000
0100
0000
0000
0000
0000
,
0001
0000
0000
0010
0000
0000
3000
0000
,
0001
1000
0020
0000
,
0100
0000
0000
0001
0000
0000
0000
0000
,
1000
0000
0000
0100
0000
0000
0030
0000
,
2000
0000
0000
0002
0000
0000
0000
0000
,
0000
0000
0000
0000
,
0000
0000
0000
3003
,
2002
0000
0000
3000
,
0100
0000
1000
1003
,
0001
0000
0010
0100
,
2000
3002
0023
0032
,
0103
0000
0010
1010
,
0001
0001
0001
0000
,
0010
0000
0001
1000
,
0001
0000
0200
0300
,
0010
0000
0000
1000
0000
0100
0000
0000
,
1000
0000
0000
0001
0000
0100
0000
0010
,
0000
0100
0001
0010
,
0011
0000
2000
3000
,
0010
0000
0000
1000
0000
0001
0000
0000
,
0010
0000
0000
0100
0000
0010
0000
0001
,
0000
1000
0010
0100
,
0101
0000
1100
0000
,
1001
0000
0000
0000
;

//---------------dance-single - ----------------
#NOTES:
     dance-single:
     :
     Beginner:
     3:
     0.130697,0.191600,0.089988,0.104986,0.000000,122.000000,110.000000,12.000000,14.000000,0.000000,0.000000,0.130697,0.191600,0.089988,0.104986,0.000000,122.000000,110.000000,12.000000,14.000000,0.000000,0.000000:
// measure 0
0000
0000
0000
0000
,  // measure 1
0000
0000
0000
0000
,  // measure 2
0000
0000
0000
0000
,  // measure 3
0000
0000
0000
0000
,  // measure 4
0010
0000
1000
0000
,  // measure 5
0002
0000
0000
0000
,  // measure 6
0000
0000
0003
0000
,  // measure 7
1001
0000
0000
0000
,  // measure 8
0100
0000
0010
0000
,  // measure 9
1000
1000
0000
0000
,  // measure 10
0001
0001
0001
0000
,  // measure 11
1000
0000
0010
0000
,  // measure 12
0100
0100
0100
0000
,  // measure 13
0001
0000
1000
0000
,  // measure 14
0001
0001
0001
0000
,  // measure 15
0010
0000
0010
0000
,  // measure 16
0001
0000
1000
0000
,  // measure 17
1001
0000
0000
0000
,  // measure 18
0000
0000
0100
0000
,  // measure 19
0100
0000
0010
0000
,  // measure 20
0100
0000
1000
0000
,  // measure 21
0001
0000
0000
0000
,  // measure 22
0110
0000
1000
0000
,  // measure 23
0001
0000
0010
0000
,  // measure 24
0001
0000
0100
0000
,  // measure 25
0110
0000
0000
0000
,  // measure 26
1000
0000
0001
0000
,  // measure 27
1000
0000
0010
0000
,  // measure 28
0010
0000
0000
0000
,  // measure 29
0100
0000
0000
0000
,  // measure 30
0002
0000
0003
0000
,  // measure 31
1000
0000
1000
0000
,  // measure 32
0001
0000
0010
0010
,  // measure 33
0010
0000
0000
0000
,  // measure 34
0000
0000
0100
0000
,  // measure 35
1001
0000
0000
0001
,  // measure 36
0001
0000
1000
0000
,  // measure 37
0100
0000
0000
0000
,  // measure 38
0010
0000
0001
0000
,  // measure 39
2000
0000
3000
0000
,  // measure 40
0002
0000
0003
0000
,  // measure 41
0100
0000
0010
0000
,  // measure 42
0110
0000
0100
0000
,  // measure 43
0020
0000
0030
0000
,  // measure 44
0200
0000
0300
0000
,  // measure 45
0001
0000
1000
0000
,  // measure 46
1001
0000
0000
0000
,  // measure 47
0001
0001
0001
0000
,  // measure 48
0020
0000
0030
0000
,  // measure 49
0002
0000
0003
0000
,  // measure 50
1000
0000
1000
0000
,  // measure 51
0010
0010
0010
0000
,  // measure 52
0200
0000
0300
0000
,  // measure 53
0002
0000
0003
0000
,  // measure 54
1000
0000
0110
0000
,  // measure 55
0000
0000
0000
0000
,  // measure 56
0000
0000
0000
0000
,  // measure 57
1001
0000
0000
0000
,  // measure 58
0000
0000
0000
0000
,  // measure 59
0000
0000
0000
0000
,  // measure 60
0100
0100
0100
0000
,  // measure 61
0110
0000
0000
1000
,  // measure 62
1000
1000
1000
0000
,  // measure 63
0001
0000
0000
0000
,  // measure 64
1000
0000
0010
0000
,  // measure 65
0200
0000
0300
0000
,  // measure 66
0002
0000
0003
0000
,  // measure 67
0100
0000
0010
0000
,  // measure 68
0110
0000
0100
0000
,  // measure 69
0002
0000
0003
0000
,  // measure 70
2000
0000
3000
0000
,  // measure 71
0010
0000
1000
0000
,  // measure 72
0100
0000
0010
0000
,  // measure 73
1001
0000
0000
0000
;
