#VERSION:0.83;
#TITLE:Separate Ways;
#SUBTITLE:(Worlds Apart);
#ARTIST:Journey;
#TITLETRANSLIT:;
#SUBTITLETRANSLIT:;
#ARTISTTRANSLIT:;
#GENRE:;
#ORIGIN:;
#CREDIT:;
#BANNER:Separate Ways (Worlds Apart)-bn.png;
#BACKGROUND:Separate Ways (Worlds Apart)-bg.png;
#PREVIEWVID:;
#JACKET:Separate Ways (Worlds Apart)-jacket.png;
#CDIMAGE:;
#DISCIMAGE:;
#LYRICSPATH:;
#CDTITLE:;
#MUSIC:Separate Ways (Worlds Apart).ogg;
#OFFSET:0.000000;
#SAMPLESTART:60.416000;
#SAMPLELENGTH:20.000000;
#SELECTABLE:YES;
#DISPLAYBPM:127.000000:136.000000;
#BPMS:0.000=131.400,
15.000=133.000,
37.000=131.000,
47.000=132.750,
52.000=130.000,
57.000=132.000,
89.000=130.456,
96.000=128.000,
104.000=129.000,
110.000=129.750,
128.000=128.667,
142.000=130.500,
144.000=129.357,
148.000=128.421,
163.000=134.000,
165.000=129.419,
180.000=130.167,
188.000=128.567,
190.000=131.200,
194.000=132.430,
210.000=131.369,
226.000=135.000,
228.000=133.015,
230.000=129.565,
232.000=130.421,
234.000=134.100,
237.000=134.650,
244.000=134.340,
248.000=135.160,
256.000=127.000,
263.000=130.450,
268.000=131.573,
271.000=136.000,
275.000=133.460;
#STOPS:;
#DELAYS:;
#WARPS:;
#TIMESIGNATURES:0.000=4=4;
#TICKCOUNTS:0.000=4;
#COMBOS:0.000=1;
#SPEEDS:0.000=1.000=0.000=0;
#SCROLLS:0.000=1.000;
#FAKES:;
#LABELS:0.000=Song Start;
#BGCHANGES:;
#KEYSOUNDS:;
#ATTACKS:
;

//---------------dance-single - ----------------
#NOTEDATA:;
#CHARTNAME:;
#STEPSTYPE:dance-single;
#DESCRIPTION:;
#CHARTSTYLE:;
#DIFFICULTY:Hard;
#METER:12;
#RADARVALUES:0.524049,0.592119,0.410126,0.182278,0.144303,483.000000,429.000000,54.000000,24.000000,0.000000,0.000000,0.000000,0.000000,0.000000,0.524049,0.592119,0.410126,0.182278,0.144303,483.000000,429.000000,54.000000,24.000000,0.000000,0.000000,0.000000,0.000000,0.000000;
#CREDIT:;
#DISPLAYBPM:127.000000:138.000000;
#NOTES:
0000
0000
0000
0000
,
0000
0000
0000
0000
,
0000
0000
0000
0000
,
0000
0000
0000
0000
,
1100
0000
0101
0000
1000
0010
0100
0001
,
0000
0000
0010
0000
0100
0000
0000
0000
1000
0001
1000
0000
0010
0000
1000
0001
,
1000
0000
1010
0000
0001
1000
0100
0010
,
0000
0000
0001
0000
0100
0000
0000
0000
0010
1000
0010
0000
0100
0000
0010
1000
,
0010
0000
0110
0000
0001
1000
0001
0100
,
0000
0000
0010
0000
0100
0000
0000
0000
0001
0010
0001
0000
1000
0000
0001
0010
,
0001
0000
0011
0000
1000
0010
0100
0001
,
0010
1000
0010
0001
0100
0010
1000
0000
,
1001
0000
0110
0000
1000
0010
0100
0001
,
0000
0000
0010
0000
0100
0000
0000
0000
1000
0001
1000
0000
0010
0000
1000
0001
,
1000
0000
0101
0000
0010
1000
0001
0100
,
0000
0000
0010
0000
1000
0000
0000
0000
0001
0100
0001
0000
0010
0000
0001
0100
,
0001
0000
1010
0000
0100
0001
1000
0010
,
0000
0000
0100
0000
0010
0000
0000
0000
0100
0001
0100
0000
1000
0000
0100
0001
,
0100
0000
1001
0000
0001
0010
0001
1000
,
0100
0001
0100
0010
0100
1000
0001
0000
,
0011
0000
1010
0000
1000
0001
1000
0100
,
0000
0000
0010
0000
0001
0000
0000
0000
1000
0010
1000
0000
0100
0000
1000
0010
,
1000
0000
0101
0000
0010
0100
0001
1000
,
0000
0100
0010
0000
0001
0001
1000
1000
,
1002
0000
0100
0000
1000
1000
1003
0010
,
0100
0001
1000
0000
0010
1000
0100
0011
,
0000
0100
2010
0000
0001
0000
0100
0000
,
0010
0000
3100
0000
1000
1000
0001
0001
,
0210
0000
0000
0000
0001
0000
0000
0000
1300
0000
0100
0001
0000
0001
0010
0000
,
0100
1000
0001
0000
0100
0001
1000
0101
,
0000
0000
0010
0000
1100
0000
0000
0000
0001
0010
0001
0010
0001
0000
0110
0000
,
0000
2000
0002
0000
0000
0000
0000
0000
,
0000
0000
3003
1001
,
0010
0000
1100
0000
0101
0001
0100
0010
,
1000
0000
0100
0000
0001
0000
0100
0000
1000
0000
0010
0100
0001
0000
0010
0000
,
1000
0000
0011
0000
1100
0010
0100
0001
,
0010
0000
1000
0000
0010
0000
0001
0000
0100
0000
0010
1000
0001
0000
0100
0000
,
0010
0000
0110
0000
1001
0100
0010
1000
,
0100
0000
0001
0000
0100
0000
0010
0000
0100
0000
1000
0001
0100
0000
0000
0000
,
2010
0000
3001
0001
1000
0100
0010
0100
,
0001
0100
1000
0010
0100
1001
1001
0000
,
0010
0000
1010
0000
1100
0001
1000
0100
,
0010
0000
1000
0000
0010
0000
0001
0000
0100
0000
0010
1000
0001
0000
1000
0000
,
0100
0000
0110
0000
0011
0100
0010
1000
,
0001
0000
0100
0000
0010
0000
1000
0000
0100
0000
0010
0001
0100
0000
0010
0000
,
1000
0000
1100
0000
1001
0010
0100
0001
,
0010
0000
1000
0000
0010
0000
0001
0000
1000
0000
0010
0100
0001
0000
0000
0000
,
0012
0000
1003
1000
0001
0100
0010
0100
,
1000
0000
0100
0000
0001
0000
0100
0000
0010
1000
0000
0010
1000
0000
0000
0000
,
1002
0000
0000
0000
0013
0000
0000
0001
2000
0000
0100
0000
0000
0000
0001
0000
,
0000
0001
3001
0000
1000
0010
0001
0000
,
0200
0000
0000
0000
0310
0000
0000
1000
0002
0000
0100
0000
0000
0000
1000
0000
,
0000
0010
0013
0000
1000
0100
0001
0000
,
2010
0000
0000
0000
3001
0000
1000
0100
0020
0000
0001
0000
0000
0000
0100
0000
,
0000
0001
0031
0000
0201
0000
0320
0000
,
1030
0001
0100
0010
2000
0000
0000
0000
0001
0000
0001
0000
3001
0000
0100
0000
,
0010
0100
1000
0100
0001
0010
0100
1000
,
0001
0100
0010
0100
1000
0100
0001
0010
,
0100
0001
0100
1000
0010
0100
0001
0000
,
0200
0000
0310
0000
1000
0001
0010
0100
,
1000
0010
0100
0010
0001
0010
1000
0000
,
0200
0000
0000
0000
0310
0000
0001
1000
0020
0000
0100
0000
0000
0000
0001
0000
,
0000
1000
1030
0000
2100
0000
3002
0000
,
0103
0010
1000
0001
0020
0000
0000
0000
0130
0000
0000
0000
0110
0000
0000
0000
,
1001
0000
1001
0000
1001
0000
1001
0000
1001
0000
1001
0000
,
2010
0100
0001
0100
,
0010
0000
0100
0000
3001
0000
1001
1001
,
1000
0010
0001
0010
,
1000
0010
0001
0010
,
0012
0100
0010
0100
,
1000
0000
0010
0000
0103
0000
1001
1001
;

//---------------dance-single - ----------------
#NOTEDATA:;
#CHARTNAME:;
#STEPSTYPE:dance-single;
#DESCRIPTION:;
#CHARTSTYLE:;
#DIFFICULTY:Medium;
#METER:9;
#RADARVALUES:0.388426,0.430632,0.501265,0.288607,0.026582,358.000000,292.000000,66.000000,38.000000,0.000000,0.000000,0.000000,0.000000,0.000000,0.388426,0.430632,0.501265,0.288607,0.026582,358.000000,292.000000,66.000000,38.000000,0.000000,0.000000,0.000000,0.000000,0.000000;
#CREDIT:;
#DISPLAYBPM:127.000000:136.000000;
#NOTES:
0000
0000
0000
0000
,
0000
0000
0000
0000
,
0000
0000
0000
0000
,
0000
0000
0000
0000
,
1100
0000
0101
0000
1000
0010
0000
0100
,
0000
0001
1000
0000
0010
0100
0001
0000
,
0011
0000
1010
0000
0100
0010
0000
1000
,
0000
0001
1000
0000
0100
0010
0001
0000
,
0110
0000
1001
0000
0001
1000
0000
0010
,
0000
1000
0001
0000
0010
0100
1000
0000
,
1001
0000
0110
0000
0100
0010
0000
0100
,
0000
0001
0000
0010
0000
0100
1000
0000
,
1100
0000
0001
0000
1000
0010
0000
0101
,
0000
0100
0010
0000
1000
0100
1000
0000
,
1010
0000
0001
0000
1000
0100
0000
0011
,
0000
0001
0200
0000
0320
0000
2030
0000
,
3002
0000
0103
0000
0010
1000
0000
0100
,
0000
1000
0001
0000
0100
0010
1000
0000
,
0110
0000
1001
0000
0010
0100
0000
0001
,
0000
1000
0000
0100
0000
1000
0010
0000
,
0101
0000
0010
0000
1000
0100
0000
1010
,
0000
0001
1000
0000
0100
0010
0001
0000
,
0011
0000
0100
0000
0010
1000
0000
1100
,
0000
1000
0001
0000
0110
0000
1001
0000
,
0102
0000
1000
0000
0100
0103
0000
2000
,
0000
0001
3001
0000
0100
0000
0010
1000
,
0000
0001
0200
0000
0010
0000
1000
0000
,
0010
0301
0011
1100
,
2010
0000
0000
0000
0100
0000
0000
0000
3001
0000
0010
0000
0000
0001
0000
0000
,
0200
0000
0010
0000
1000
0000
0301
0100
,
0000
0000
0010
0000
2000
0000
0000
0000
0100
0000
0000
0001
0000
0000
3010
0000
,
0000
2000
0002
0000
0000
0000
0000
0000
,
0000
0000
3003
1001
,
0010
0000
0101
0000
1100
0000
0000
0001
,
0000
1000
0000
0010
0000
1000
0100
0000
,
0010
0000
0011
0000
1010
0000
0000
0100
,
0000
0010
0000
0100
0000
0001
1000
0000
,
0010
0000
0110
0000
1001
0000
0000
0100
,
0000
0010
0000
1000
0000
0001
0010
0000
,
0011
0000
1000
0001
0000
0100
0000
1010
,
0000
0101
0000
1100
0000
0001
1000
0000
,
0010
0000
0110
0000
1001
0000
0000
0100
,
0000
0001
0000
0010
0000
0100
1000
0000
,
0010
0000
1010
0000
0101
0000
0000
1000
,
0000
0100
0000
0010
0000
0001
0100
0000
,
0001
0000
0011
0000
1100
0000
0000
0010
,
0000
1000
0000
0100
0000
1000
0001
0000
,
1010
0000
0100
0001
0000
0010
0000
0100
,
0000
0000
1100
0000
0000
0000
0101
0000
0000
1100
0000
0000
0101
0000
0000
0000
,
0020
0000
1030
0000
0002
0100
0000
1000
,
0000
0100
0103
0000
0020
0000
2030
0000
,
3200
0000
0310
0000
0002
1000
0000
0010
,
0000
1000
1003
0000
0020
0000
0230
0000
,
0302
0000
0003
1000
0200
0000
0000
0001
,
0000
0010
0310
0000
0110
0000
1001
0000
,
1000
0100
0002
0000
0010
0000
0203
0000
,
1300
0100
0001
0010
0002
0000
2003
0000
,
3010
1010
0000
0101
0000
1100
0000
0011
,
0000
0110
0000
1001
0000
0100
0010
0000
,
2000
0000
3001
0000
0100
0101
0000
1010
,
0000
1001
0000
0110
0000
1000
0001
0000
,
0020
0000
0030
0001
2000
0000
0000
0010
,
0000
0100
3100
0000
1100
0000
0011
0000
,
0100
0010
2000
0000
0001
0000
3100
0000
,
1000
0000
1000
0000
1000
0000
0001
0000
0001
0000
0001
0000
,
0202
0300
2000
3000
,
0200
0000
0300
0000
1003
0000
1001
1001
,
0000
0100
0000
0010
0000
0100
0000
0010
,
0000
1000
0000
0001
0000
1000
0000
0001
,
2200
0300
0020
0030
,
0002
0000
0003
0000
3010
0000
1001
1001
;

//---------------dance-single - ----------------
#NOTEDATA:;
#CHARTNAME:;
#STEPSTYPE:dance-single;
#DESCRIPTION:;
#CHARTSTYLE:;
#DIFFICULTY:Easy;
#METER:6;
#RADARVALUES:0.252802,0.349271,0.151898,0.167088,0.000000,233.000000,213.000000,20.000000,22.000000,0.000000,0.000000,0.000000,0.000000,0.000000,0.252802,0.349271,0.151898,0.167088,0.000000,233.000000,213.000000,20.000000,22.000000,0.000000,0.000000,0.000000,0.000000,0.000000;
#CREDIT:;
#DISPLAYBPM:127.000000:136.000000;
#NOTES:
0000
0000
0000
0000
,
0000
0000
0000
0000
,
0000
0000
0000
0000
,
0000
0000
0000
0000
,
1000
0001
1000
0001
,
0100
0010
1000
1000
,
0001
0010
0001
0010
,
0100
0100
1000
0001
,
1001
0000
0100
0000
,
0010
1000
0100
0100
,
0110
0000
0001
0000
,
0010
0001
0100
1000
,
0010
0010
0010
0000
,
1000
0001
0001
0000
,
0100
0001
0010
0001
,
0100
0010
1000
1000
,
1001
0000
0010
0000
,
0100
0010
1000
0001
,
0110
0000
0001
0000
,
0010
0001
0100
1000
,
0010
0010
0010
0000
,
1000
0001
0001
0000
,
1000
0100
1000
0010
,
0100
0001
0010
0010
,
0012
1000
1000
1000
,
0203
0010
0010
0301
,
0100
0010
1000
0001
,
0010
0100
1000
1000
,
2100
0001
0001
0100
,
3020
0100
0001
0130
,
1000
0200
0000
0300
,
1000
0002
0000
0000
,
0000
0000
0003
1001
,
0010
1000
0001
1000
,
0100
0010
0001
0100
,
0001
0010
0100
1000
,
0010
1000
0100
0001
,
1000
0001
1000
0100
,
0010
0001
1000
0010
,
0110
0001
0010
0100
,
1100
0001
0101
1000
,
1001
0010
0100
0010
,
1000
0100
0010
0001
,
0100
0001
0010
0100
,
1000
0010
1000
0100
,
0001
1000
0001
0010
,
0100
0010
0001
0100
,
0110
0010
1000
0001
,
1000
0100
1000
0001
,
0020
0000
0230
0000
,
0000
0000
1300
0001
,
2000
0000
3020
0000
,
0000
0000
0130
0001
,
0020
0000
0032
0000
,
0000
0000
1003
0010
,
1010
0202
0300
0013
,
1000
1000
0001
0001
,
0100
0001
0010
0100
,
1000
0010
1000
0001
,
0100
0010
0100
0001
,
0010
0100
1000
0010
,
2000
0000
3002
0000
,
0000
0000
0013
0100
,
1100
0022
0003
0130
,
0110
0000
1001
0000
,
2200
0000
0000
0000
,
0000
0000
0300
3001
,
1000
0000
0010
0000
,
1000
0000
0001
0000
,
0202
0000
0000
0000
,
0000
0000
0300
1003
;

//---------------dance-single - ----------------
#NOTEDATA:;
#CHARTNAME:;
#STEPSTYPE:dance-single;
#DESCRIPTION:;
#CHARTSTYLE:;
#DIFFICULTY:Beginner;
#METER:3;
#RADARVALUES:0.122604,0.188069,0.060759,0.030380,0.000000,113.000000,105.000000,8.000000,4.000000,0.000000,0.000000,0.000000,0.000000,0.000000,0.122604,0.188069,0.060759,0.030380,0.000000,113.000000,105.000000,8.000000,4.000000,0.000000,0.000000,0.000000,0.000000,0.000000;
#CREDIT:;
#DISPLAYBPM:127.000000:136.000000;
#NOTES:
// measure 0
0000
0000
0000
0000
,  // measure 1
0000
0000
0000
0000
,  // measure 2
0000
0000
0000
0000
,  // measure 3
0000
0000
0000
0000
,  // measure 4
1000
0000
0001
0000
,  // measure 5
1000
0000
0010
0000
,  // measure 6
0100
0000
0001
0000
,  // measure 7
0010
0000
0100
0000
,  // measure 8
1000
0000
1000
0000
,  // measure 9
1000
0000
0000
0000
,  // measure 10
0001
0000
0001
0000
,  // measure 11
0100
0000
0010
0000
,  // measure 12
0110
0000
0000
0000
,  // measure 13
1001
0000
0000
0000
,  // measure 14
0110
0000
0000
0000
,  // measure 15
0000
1000
1000
1000
,  // measure 16
1000
0000
0010
0000
,  // measure 17
0100
0000
0000
0000
,  // measure 18
0001
0000
0001
0000
,  // measure 19
1000
0000
0001
0000
,  // measure 20
1001
0000
0000
0000
,  // measure 21
0110
0000
0000
0000
,  // measure 22
1001
0000
0000
0000
,  // measure 23
0000
0000
0010
0010
,  // measure 24
0020
0000
0000
0000
,  // measure 25
0030
0000
0000
0000
,  // measure 26
0001
0001
0000
0000
,  // measure 27
0000
0000
0100
0100
,  // measure 28
0200
0000
0000
0000
,  // measure 29
0300
0000
0000
0000
,  // measure 30
0010
0010
0000
0000
,  // measure 31
1000
1000
0000
0000
,  // measure 32
0000
0000
0000
0000
,  // measure 33
0000
0001
0001
0000
,  // measure 34
1000
0000
0001
0000
,  // measure 35
0000
0100
0100
0000
,  // measure 36
0010
0000
1000
0000
,  // measure 37
0000
0010
0010
0000
,  // measure 38
1000
0000
0100
0000
,  // measure 39
0010
0000
0010
0000
,  // measure 40
0001
0000
1000
0000
,  // measure 41
0000
0010
0010
0000
,  // measure 42
0100
0000
0001
0000
,  // measure 43
0000
1000
1000
0000
,  // measure 44
0100
0000
0010
0000
,  // measure 45
0000
0001
0001
0000
,  // measure 46
1000
0000
0010
0000
,  // measure 47
1000
0000
0001
0000
,  // measure 48
1000
0000
0010
0000
,  // measure 49
0100
0000
0001
0000
,  // measure 50
0000
0000
0010
0000
,  // measure 51
0001
0000
1000
0000
,  // measure 52
0000
0000
0010
0000
,  // measure 53
0100
0000
0100
0000
,  // measure 54
0000
0000
0001
0000
,  // measure 55
1000
1000
0000
0000
,  // measure 56
0001
0000
1000
0000
,  // measure 57
0010
0000
1000
0000
,  // measure 58
0010
0000
0100
0000
,  // measure 59
0001
0000
0010
0000
,  // measure 60
0100
0000
1000
0000
,  // measure 61
0001
0000
0001
0000
,  // measure 62
0000
0000
0100
0000
,  // measure 63
0010
0010
0000
0000
,  // measure 64
0110
0000
1001
0000
,  // measure 65
0002
0000
0000
0000
,  // measure 66
0000
0000
0000
0003
,  // measure 67
0000
0000
0000
0000
,  // measure 68
0000
0000
0000
0000
,  // measure 69
2000
0000
0000
0000
,  // measure 70
0000
0000
0000
3000
;
