#VERSION:0.83;
#TITLE:Select shop ni yokotawaru neko;
#SUBTITLE:;
#ARTIST:little lounge * little twinkle;
#TITLETRANSLIT:;
#SUBTITLETRANSLIT:;
#ARTISTTRANSLIT:;
#GENRE:;
#ORIGIN:;
#CREDIT:;
#BANNER:Select shop ni yokotawaru neko-bn.png;
#BACKGROUND:Select shop ni yokotawaru neko-bg.png;
#PREVIEWVID:;
#JACKET:Select shop ni yokotawaru neko-jacket.png;
#CDIMAGE:;
#DISCIMAGE:;
#LYRICSPATH:;
#CDTITLE:;
#MUSIC:Select shop ni yokotawaru neko.ogg;
#OFFSET:1.125000;
#SAMPLESTART:0.356000;
#SAMPLELENGTH:20.000000;
#SELECTABLE:YES;
#DISPLAYBPM:89.000000:167.000000;
#BPMS:0.000=162.000,
204.000=141.000,
206.000=130.000,
208.000=89.000,
220.750=100.000,
225.104=120.000,
230.000=130.000,
234.979=142.000,
235.979=147.000,
237.000=150.000,
241.000=156.000,
249.000=162.000,
253.000=167.000;
#STOPS:211.667=0.674;
#DELAYS:;
#WARPS:;
#TIMESIGNATURES:0.000=4=4;
#TICKCOUNTS:0.000=4;
#COMBOS:0.000=1;
#SPEEDS:0.000=1.000=0.000=0;
#SCROLLS:0.000=1.000;
#FAKES:;
#LABELS:0.000=Song Start;
#BGCHANGES:;
#KEYSOUNDS:;
#ATTACKS:
;

//---------------dance-single - ----------------
#NOTEDATA:;
#CHARTNAME:;
#STEPSTYPE:dance-single;
#DESCRIPTION:;
#CHARTSTYLE:;
#DIFFICULTY:Hard;
#METER:15;
#RADARVALUES:0.794121,0.973151,0.282175,0.432668,0.634894,591.000000,561.000000,30.000000,46.000000,0.000000,0.000000,0.000000,0.000000,0.000000,0.794121,0.973151,0.282175,0.432668,0.634894,591.000000,561.000000,30.000000,46.000000,0.000000,0.000000,0.000000,0.000000,0.000000;
#CREDIT:;
#DISPLAYBPM:89.000000:167.000000;
#NOTES:
0000
0000
0000
0000
,
0000
0000
0000
0000
,
0000
0000
0000
0000
,
0000
0000
0000
0000
,
0001
1000
0000
1001
0000
0010
0010
0010
,
1000
0000
1000
0000
1000
0000
1000
0000
0001
1000
0100
0000
0010
0000
0001
1000
,
0001
0000
0100
0000
0010
0000
1000
0100
0010
0100
1000
0000
0001
0100
0010
0100
,
0001
0000
0001
0000
0001
0000
0001
0000
1000
0001
0100
0000
0010
0000
1000
0001
,
1000
0000
0010
0000
0100
0000
0001
1000
0010
1000
0001
0000
0100
0010
1000
0010
,
0100
0001
1000
0000
0100
1000
0001
1000
0200
0000
0000
0000
0310
0000
0001
1000
,
0001
0000
0100
0000
0020
0000
0000
1030
0001
1000
0100
0000
0010
0001
0100
0000
,
0010
0000
1000
0000
0002
0000
0000
0000
0013
0100
1000
0000
0001
0000
0100
0000
,
0001
0000
0010
0000
1000
0000
0010
0000
0001
0000
0010
0000
0100
1000
0001
0000
,
0100
0010
1000
0000
0100
0010
0001
0000
1000
0001
0100
0000
0010
1000
0001
0000
,
2200
0000
0000
0000
0000
0000
0000
0000
0300
0000
0000
0000
3001
1000
0001
1000
,
0001
0000
0000
0000
0000
0000
0011
0000
0000
0000
0000
0000
1100
0000
1000
0001
,
0100
0000
0101
0000
0000
0000
1000
0000
0001
0000
0001
0000
0001
0000
0100
0001
,
0010
0000
0000
1100
0000
0010
0110
0000
,
0001
1000
0000
1001
0000
0010
0010
0010
,
0100
0000
0100
0000
0100
0000
0100
0010
1000
0001
0100
0000
0010
0000
1000
0001
,
1000
0000
0100
0000
0010
0000
0001
1000
0010
1000
0001
0000
0100
0010
1000
0001
,
0010
0000
0010
0000
0010
0000
0010
0000
0100
1000
0010
0000
0100
0000
0001
1000
,
0001
0000
0010
0000
0100
0000
0010
0001
1000
0001
0010
0000
0100
0000
1000
0010
,
1000
0001
0100
0000
0001
1000
0100
0000
0020
0000
0000
0000
0031
0000
1000
0010
,
0200
0000
0000
0000
0301
0000
0010
0100
0010
0001
1000
0000
0010
1000
0100
0000
,
0010
0000
0001
0000
2000
0000
0000
0000
3001
1000
0010
0000
0100
0000
0001
0000
,
0010
0000
1000
0000
0010
0000
0100
0000
0010
0000
0001
0000
0100
0010
1000
0000
,
0100
0010
0001
0000
1000
0001
0100
0000
0010
1000
0100
0000
0010
0001
0100
0000
,
2020
0000
0000
0000
0000
0000
0000
0000
3000
0000
0000
0000
0130
0001
1000
0000
,
1100
0000
0000
0101
0000
0000
0011
0000
,
0000
0000
0110
0000
0000
0000
1000
0000
0010
0000
0010
0000
0010
0100
0001
0100
,
0010
0000
0000
1001
0000
0100
0100
0001
,
1000
0100
0020
0000
0000
0000
0001
0000
0031
0000
1000
0000
0001
0100
0010
1000
,
0001
0000
0000
0101
0000
0000
1100
0000
,
0000
0000
0110
0000
0000
0000
0001
0000
1000
0000
1000
0000
1000
0010
0100
0010
,
1000
0000
0000
1010
0000
0000
0202
0000
,
0300
0000
1000
0000
0000
0000
0010
0000
0013
0001
0200
0000
0320
0000
2030
0000
,
3001
0100
1000
0100
0010
0100
1000
0100
,
0001
0000
0010
0000
1000
0000
0010
0000
0001
0100
0010
1000
0001
0100
0010
1000
,
0200
0010
0310
0001
2000
0010
3010
0100
,
0002
0010
0013
1000
0200
0301
0200
1300
,
0100
0010
0100
1000
0001
0000
0100
0000
0010
0000
0001
0000
0010
0000
1000
0000
,
0100
0000
0001
0000
0100
0000
1000
0000
0010
0100
0001
1000
0010
0100
0001
1000
,
0200
0010
0310
1000
0002
0100
0103
0010
,
2000
0001
3001
0100
0020
1030
0020
0031
,
0010
1000
0100
1000
0010
1000
0100
1000
0001
0000
0100
0000
1000
0000
0100
0000
,
0001
0000
0010
0000
0001
0000
0100
0000
0010
1000
0100
0010
0001
0000
1000
0000
,
0100
0100
0010
0010
0001
0001
1000
1000
,
0002
0103
0002
1003
0020
0130
0001
1000
,
0100
0010
0001
0010
0100
1000
0001
1000
0010
0000
0100
0000
0001
0000
1000
0000
,
0001
0000
0010
0000
0100
0000
0010
0000
0001
1000
0010
0100
0010
1000
0001
0000
,
1100
0100
0110
0010
0011
0001
1001
1000
,
0020
2030
3200
0302
0023
2030
3200
0302
0023
2030
3200
0302
,
0013
0000
0010
0000
0010
0000
0010
1000
0100
0010
0002
0000
1003
0001
1000
0100
,
0010
0001
0010
1000
0010
0001
0010
1000
0010
0001
0010
0100
0010
1000
0010
0000
,
0011
0000
1000
0000
1000
0000
1000
0001
0010
0100
1000
0000
0010
0100
0010
1000
,
0001
0100
0010
0100
0001
0010
0100
0010
0001
0100
0010
0100
0001
0010
0100
0010
,
0001
1000
0100
0000
1000
0010
0100
0001
1000
0000
0010
0000
0100
0000
0001
0010
,
0100
0000
1000
0000
0010
0000
1000
0001
0100
0010
1000
0000
0001
0010
0100
0000
,
1100
0000
0001
0000
0100
0000
0010
0000
1000
0001
0010
0000
0001
0000
0100
0000
,
0010
0000
0001
0000
0010
0000
1000
0000
0010
0000
0001
0000
0010
1000
0100
0000
,
0010
0001
0100
0000
0001
1000
0010
0000
1000
0100
0010
0000
0001
1000
0010
0000
,
0202
0000
0000
0000
0000
0000
0000
0000
0300
0000
0000
0000
1003
0001
1000
0001
,
1000
0000
0000
0000
0000
0000
0110
0000
0000
0000
0000
0000
0011
0000
0001
0100
,
0001
0000
1010
0000
0000
0000
0001
0000
1000
0000
1000
0000
1000
0000
0100
0010
,
0001
0000
0000
0000
0000
0000
0101
0000
0000
0000
0010
0000
1000
0001
0100
0002
,
2000
0000
0000
3003
;

//---------------dance-single - ----------------
#NOTEDATA:;
#CHARTNAME:;
#STEPSTYPE:dance-single;
#DESCRIPTION:;
#CHARTSTYLE:;
#DIFFICULTY:Medium;
#METER:12;
#RADARVALUES:0.548226,0.690623,0.564350,0.790090,0.202225,408.000000,348.000000,60.000000,84.000000,0.000000,0.000000,0.000000,0.000000,0.000000,0.548226,0.690623,0.564350,0.790090,0.202225,408.000000,348.000000,60.000000,84.000000,0.000000,0.000000,0.000000,0.000000,0.000000;
#CREDIT:;
#DISPLAYBPM:89.000000:167.000000;
#NOTES:
0000
0000
0000
0000
,
0000
0000
0000
0000
,
0000
0000
0000
0000
,
0000
0000
0000
0000
,
0000
0000
0000
0000
0000
0010
0010
0010
,
1000
0000
0001
0000
1000
0000
0001
0000
1000
0100
2000
0000
0000
0000
0000
0000
,
3002
2003
3020
0230
,
0301
0000
1000
0000
0001
0000
1000
0000
0001
0100
0002
0000
0000
0000
0000
0000
,
2003
3020
0230
0302
,
1003
0100
1000
0001
0200
0000
0302
0000
,
0023
0000
0000
0000
0230
0000
0000
0000
1300
0001
1000
0000
0010
0000
0100
0000
,
0000
0000
0001
0000
0002
0000
0000
0000
0103
0010
0100
0000
0001
0000
1000
0000
,
1100
0011
0101
1010
,
0101
1100
0011
1010
,
0202
0000
0000
0000
0000
0000
0000
0000
0300
0000
0000
0000
1003
0001
1000
0001
,
1000
0000
0000
1001
0000
0000
0011
0000
,
0000
1100
0000
0001
1000
0001
0100
0000
,
1010
0000
0000
0101
0000
0001
1000
0000
,
0010
0100
0000
0000
0000
0001
0001
0001
,
1000
0000
0010
0000
1000
0000
0010
0000
0100
0010
0200
0000
0000
0000
0000
0000
,
0302
0023
0230
2300
,
3010
0000
1000
0000
0010
0000
1000
0000
0010
0100
0020
0000
0000
0000
0000
0000
,
2030
3002
2003
3200
,
0310
0001
1000
0001
0200
0000
0320
0000
,
0230
0000
0000
0000
0302
0000
0000
0000
1003
0100
1000
0000
0001
0000
0100
0000
,
0000
0000
0010
0000
0020
0000
0000
0000
1030
0001
1000
0000
0100
0000
0010
0000
,
0011
1100
0101
1010
,
1100
0101
1010
0011
,
2200
0000
0000
0000
0000
0000
0000
0000
3000
0000
0000
0000
1300
0001
1000
0001
,
1000
0000
0000
1010
0000
0000
0101
0000
,
0000
0110
0000
1000
0002
0100
0203
0000
,
0310
0000
0000
1001
0000
1000
0010
1000
,
0001
0100
0002
0000
0000
0000
0000
0000
0023
0000
0000
0000
0230
0000
0000
0000
,
1300
0000
0000
1100
0000
0000
0011
0000
,
0000
0101
0000
0010
2000
0001
3002
0000
,
0203
0000
0000
0320
0000
0000
2030
0000
,
0000
0001
0000
0100
3100
1000
0001
1000
,
1010
0101
0011
1100
,
1001
0000
0000
0000
0110
0000
0000
0000
1000
0010
1000
0010
1000
0000
0001
0000
,
0020
0000
0030
0001
2000
0000
3000
0001
,
0200
0300
0101
1100
,
0101
0011
1100
1010
,
1001
0000
0000
0000
0110
0000
0000
0000
0001
0100
0001
0100
0001
0000
1000
0000
,
0200
0000
0300
1000
0020
0000
0030
0100
,
0002
0003
0011
1010
,
0100
0001
0100
0001
0100
0000
0010
0000
1000
0000
0100
0000
1000
0000
0001
0000
,
1000
0000
0100
0000
0001
0000
0100
0000
1000
0001
1000
0001
1000
0000
0000
0000
,
0001
0010
0001
0100
1000
0010
1000
0100
,
2000
0000
3002
0000
0203
0010
0320
0000
,
1030
0010
1000
0010
1000
0000
0001
0000
0100
0000
0010
0000
0100
0000
0001
0000
,
1000
0000
0100
0000
0001
0000
0100
0000
1000
0001
1000
0001
1000
0000
0010
0000
,
0100
0100
0010
0010
1000
1000
0001
0001
,
2000
3200
0320
0032
2003
3200
0320
0032
2003
3200
0320
0032
,
0103
0000
0010
0000
0100
0000
0010
0000
1000
0001
0200
0000
0000
0000
0000
0000
,
0302
2003
3002
0023
,
0130
0000
1000
0000
0010
0000
1000
0000
0010
0100
0002
0000
0000
0000
0000
0000
,
0023
0032
2003
3020
,
1030
0001
1000
0000
0001
1000
0001
0000
0200
0000
0000
0000
0320
0000
0000
0000
,
0230
0000
0000
0000
0302
0000
0000
0000
1003
0010
1000
0000
0100
0000
0010
0000
,
0000
0000
0001
0000
0002
0000
0000
0000
0103
0010
0100
0000
0001
0000
1000
0000
,
1100
0011
0101
1010
,
0011
0101
1010
1100
,
0022
0000
0000
0000
0000
0000
0000
0000
0030
0000
0000
0000
1003
0001
1000
0001
,
1000
0000
0000
0110
0000
0000
1001
0000
,
0000
1100
0000
0001
0010
0100
1000
0000
,
1010
0000
0000
0000
0000
0000
0101
0000
0000
0000
0010
0000
1000
0001
1000
0001
,
2000
0000
0000
3000
;

//---------------dance-single - ----------------
#NOTEDATA:;
#CHARTNAME:;
#STEPSTYPE:dance-single;
#DESCRIPTION:;
#CHARTSTYLE:;
#DIFFICULTY:Easy;
#METER:8;
#RADARVALUES:0.408482,0.533663,0.376233,0.733655,0.000000,304.000000,264.000000,40.000000,78.000000,0.000000,0.000000,0.000000,0.000000,0.000000,0.408482,0.533663,0.376233,0.733655,0.000000,304.000000,264.000000,40.000000,78.000000,0.000000,0.000000,0.000000,0.000000,0.000000;
#CREDIT:;
#DISPLAYBPM:89.000000:167.000000;
#NOTES:
0000
0000
0000
0000
,
0000
0000
0000
0000
,
0000
0000
0000
0000
,
1100
0000
0000
0101
0000
1000
0001
0000
,
0000
0000
0000
0000
,
1000
0100
1000
0100
1000
0100
0000
0000
,
0020
0032
2003
3020
,
0130
0001
0100
0001
0100
0001
0000
0000
,
2000
3002
0023
0230
,
1300
0001
1100
0101
,
0020
0000
0230
0000
0301
0100
0010
1000
,
0000
0100
0020
0000
0031
1000
0001
0100
,
0020
2030
3002
0023
,
0032
0203
0320
2030
,
3002
0000
0000
0003
,
0011
0000
0000
1100
0000
0000
0101
0000
,
0000
1010
0000
1000
0001
1000
0001
0000
,
0110
0000
0000
1001
0000
0100
0010
0000
,
0000
0000
0000
0000
,
1000
0010
1000
0010
1000
0010
0000
0000
,
2000
3002
2003
3200
,
0310
0001
0010
0001
0010
0001
0000
0000
,
0200
0320
2030
3002
,
0013
0100
1100
0101
,
0020
0000
2030
0000
3001
1000
0100
0010
,
0000
0001
0200
0000
0301
1000
0010
0100
,
0002
0023
0032
0203
,
0320
2030
3200
0320
,
0032
0000
0000
0003
,
0011
0000
0000
0110
0000
0000
1100
0000
,
0000
1010
0000
0000
1000
0000
0001
0000
,
0101
0000
0000
1100
0000
0010
1000
0001
,
1000
0200
0000
0000
0010
0000
0310
0000
,
1001
0000
0000
0110
0000
0000
1001
0000
,
0000
0011
0000
0000
2000
0000
3002
0000
,
0023
0000
0000
0230
0000
0000
2300
0000
,
0000
0000
0000
0000
0000
0000
3001
1000
,
0001
0100
0001
0010
,
0100
0000
1000
0000
0010
0100
0001
1000
,
0200
0000
0300
1000
0002
0000
0003
0100
,
0020
0030
1010
0101
,
0010
0100
0010
0001
,
1000
0000
0010
0000
1000
0100
0010
0001
,
0200
0000
0300
0010
2000
0000
3000
0001
,
0020
0030
1100
0011
,
1000
0000
0100
0000
1000
0001
0100
0000
,
0010
1000
0010
0000
0100
0001
1000
0000
,
0002
0023
0230
2300
,
3020
2030
3002
0203
,
0301
0000
1000
0000
0001
1000
0100
0000
,
0010
0001
1000
0000
0001
0100
0010
0000
,
1010
0101
0011
1100
,
1001
0110
1001
0110
,
1000
0001
1000
0100
1000
0002
0000
0000
,
0013
0001
0100
1000
,
0010
0100
0001
0100
0010
2000
0000
0000
,
3100
1000
0010
0001
,
0100
0010
0100
0001
2000
0000
3002
0000
,
2003
0000
3200
0000
1300
0010
0100
0001
,
0000
1000
0002
0000
0013
0001
0100
0010
,
2000
3002
2003
3200
,
0320
0230
2300
3002
,
0203
0000
0000
0300
,
0101
0000
0000
1100
0000
0000
0011
0000
,
0000
1010
0000
0100
0010
0100
0010
0000
,
1001
0000
0000
0110
0000
1000
0002
0000
,
2000
0000
0000
3003
;

//---------------dance-single - ----------------
#NOTEDATA:;
#CHARTNAME:;
#STEPSTYPE:dance-single;
#DESCRIPTION:;
#CHARTSTYLE:;
#DIFFICULTY:Beginner;
#METER:4;
#RADARVALUES:0.194835,0.217275,0.056435,0.000000,0.000000,145.000000,139.000000,6.000000,0.000000,0.000000,0.000000,0.000000,0.000000,0.000000,0.194835,0.217275,0.056435,0.000000,0.000000,145.000000,139.000000,6.000000,0.000000,0.000000,0.000000,0.000000,0.000000,0.000000;
#CREDIT:;
#DISPLAYBPM:89.000000:167.000000;
#NOTES:
// measure 0
0000
0000
0000
0000
,  // measure 1
0000
0000
0000
0000
,  // measure 2
0000
0000
0000
0000
,  // measure 3
0000
0000
0000
0000
,  // measure 4
0000
0000
0000
0000
,  // measure 5
1000
1000
1000
0000
,  // measure 6
0001
0000
0100
0000
,  // measure 7
0010
0010
0010
0000
,  // measure 8
1000
0000
0100
0000
,  // measure 9
0010
0010
0010
0000
,  // measure 10
0001
0000
1000
1000
,  // measure 11
0000
0001
0001
0000
,  // measure 12
0100
0000
0100
0000
,  // measure 13
0010
0000
0010
0000
,  // measure 14
0110
0000
0000
0000
,  // measure 15
1000
0000
0000
0001
,  // measure 16
0000
0000
0010
0010
,  // measure 17
0010
0000
0100
0000
,  // measure 18
1001
0000
0000
0000
,  // measure 19
0010
0010
0010
0000
,  // measure 20
0100
0000
0001
0000
,  // measure 21
1000
1000
1000
0000
,  // measure 22
0100
0000
0010
0000
,  // measure 23
0001
0001
0001
0000
,  // measure 24
1000
0000
0010
0010
,  // measure 25
0000
0100
0100
0000
,  // measure 26
0001
0000
0001
0000
,  // measure 27
1000
0000
1000
0000
,  // measure 28
1001
0000
0000
0000
,  // measure 29
0110
0000
1000
0000
,  // measure 30
0001
0000
0100
0100
,  // measure 31
0100
0000
0010
0000
,  // measure 32
1000
0000
0100
0100
,  // measure 33
0100
0000
0010
0000
,  // measure 34
0001
0000
1000
1000
,  // measure 35
1000
0000
0000
0010
,  // measure 36
0000
0000
0000
0000
,  // measure 37
0100
0100
0100
0000
,  // measure 38
0001
0000
1000
0000
,  // measure 39
0001
0000
0001
0000
,  // measure 40
0001
0000
0100
0000
,  // measure 41
0010
0010
0010
0000
,  // measure 42
1000
0000
0100
0000
,  // measure 43
1000
0000
1000
0000
,  // measure 44
1000
0000
0001
0001
,  // measure 45
0001
0000
0100
0000
,  // measure 46
0010
0010
0010
0000
,  // measure 47
1000
1000
1000
0000
,  // measure 48
0001
0001
0001
0000
,  // measure 49
0010
0000
0100
0000
,  // measure 50
1000
1000
1000
0000
,  // measure 51
0001
0000
1000
0000
,  // measure 52
0001
0000
0100
0000
,  // measure 53
0010
1000
0010
0000
,  // measure 54
0100
0000
0001
0000
,  // measure 55
0010
0001
0010
0000
,  // measure 56
0100
0000
1000
0000
,  // measure 57
0001
0100
0001
0000
,  // measure 58
1000
0100
1000
0000
,  // measure 59
0000
0010
0100
0000
,  // measure 60
0001
0000
1000
0000
,  // measure 61
0010
0000
0100
0000
,  // measure 62
0110
0000
0000
0000
,  // measure 63
1000
0000
0000
0001
,  // measure 64
0000
0000
0100
0100
,  // measure 65
0100
0000
0001
0000
,  // measure 66
1001
0000
0000
0000
;
