#TITLE:Secret Rendez-vous;
#SUBTITLE:(25th Anniversary Special);
#ARTIST:DIVAS;
#BANNER:Secret Rendez-vous (25th Anniversary Special)-bn.png;
#BACKGROUND:Secret Rendez-vous (25th Anniversary Special)-bg.png;
#JACKET:Secret Rendez-vous (25th Anniversary Special)-jacket.png;
#MUSIC:Secret Rendez-vous (25th Anniversary Special).ogg;
#OFFSET:-0.05;
#SAMPLESTART:39.2;
#SAMPLELENGTH:20;
#DISPLAYBPM:196;
#BPMS:0=196.008;
#BGCHANGES:;

//---------------dance-single - ----------------
#NOTES:
     dance-single:
     :
     Challenge:
     13:
     :
0000
0000
0000
0000
,
0000
0000
0000
0000
,
0000
0000
0000
0000
,
0000
0000
0000
0000
,
1001
0000
0010
1000
0010
0100
0010
1000
,
0001
0011
0000
0011
0000
0001
1000
0000
,
1100
0000
0100
1000
0001
1000
0100
0010
,
0001
0101
0000
1010
0000
0101
1000
0000
,
1001
0000
0010
1000
0001
0000
1000
0100
,
0010
0001
0100
0000
0020
0000
0030
1000
,
0001
0000
0010
0001
0100
0000
0010
1000
,
0010
0100
0001
1000
0010
0000
0100
0001
,
0000
0010
0001
0100
2000
0001
3000
0010
,
1000
0001
0200
0000
0300
0010
1000
0001
,
0010
0001
0100
0010
1000
0100
1000
0001
,
0010
0100
1000
0001
0100
0020
0000
1030
,
0101
0000
0001
0010
0001
0100
0010
1000
,
0100
0010
0001
0100
0020
0000
1030
0001
,
0010
0100
0001
0100
1000
0010
0100
0010
,
1000
0001
0100
0010
0000
0010
0000
1000
,
0001
0010
0100
0010
0001
1000
0010
0100
,
0001
0010
0001
2000
0000
3010
0100
0001
,
1000
0100
1000
0001
0010
0100
0010
0001
,
1000
0010
0100
0001
0010
0100
1000
0000
,
1010
0001
0100
0001
2000
0000
3000
1100
,
0000
0011
0000
0101
0000
1000
0001
0000
,
0011
0000
0100
2000
0000
3001
1000
0100
,
0010
0001
0100
0110
0000
1000
0002
0000
,
0013
0001
0010
0100
1000
0001
0200
0000
,
0310
1000
0000
0002
0000
1003
0100
0000
,
0010
1000
0010
0001
0100
0010
1000
0000
,
0001
0100
0010
0100
1000
0100
0001
1000
,
0010
0100
0001
0010
1000
0010
0100
0010
,
0000
0110
0001
1000
0001
0100
0010
0000
,
1000
0001
1000
0100
0010
1000
0010
0001
,
0100
0010
1000
0001
0010
0001
0100
0010
,
2000
0100
3100
2000
0000
3001
0100
0000
,
0020
1000
1030
0020
0000
0130
0001
0000
,
1010
0001
0000
1100
0000
0010
1000
0100
,
1000
0010
0100
0002
0000
0010
0013
0100
,
1000
0001
0100
0010
0100
1000
0100
0001
,
0000
0010
0001
1001
0000
0010
1000
0000
,
0100
1000
0001
0010
0100
0001
0100
1000
,
0000
0101
0000
0010
1000
0100
1000
0001
,
0020
0000
0031
0100
0020
0000
1030
0100
,
0020
0000
0031
1000
0002
0000
0103
0010
,
1000
0100
1000
1010
0000
0101
0010
0000
,
1000
1001
0000
0011
0000
1100
0000
0101
,
0100
0010
1000
0001
0010
0100
1000
0000
,
0000
0000
1001
0000
0100
1001
0000
1001
,
0010
1000
0001
1000
0100
0001
0100
1000
,
1100
0000
0101
0000
1000
0001
0100
0010
,
1000
0001
0010
1000
0100
0010
0001
0000
,
0000
0000
0110
0000
0001
0110
0000
0110
,
1000
0001
0010
0001
0100
0010
1000
0001
,
0100
1010
0000
0101
0000
1100
0000
0011
,
1000
0010
0100
0001
0000
1000
0000
0010
,
0000
1000
0100
1000
0002
0000
1003
0010
,
1000
0001
0010
0100
0000
0010
0000
0002
,
0000
1003
0100
0000
1000
0010
0100
0000
,
0002
0000
1000
1000
0000
0100
0103
0000
,
2000
0000
0001
0001
0000
0100
3100
0000
,
0010
0100
0000
1000
0000
0001
0001
0000
,
0100
0010
1000
0001
0000
0010
0001
1000
,
1000
0100
0010
0001
0100
0010
0100
1000
,
0100
0010
1000
0010
0100
0001
1000
0000
,
1000
0001
0010
0001
0010
1000
0010
0100
,
0010
0001
0100
0010
1000
0001
0100
0000
,
0020
0000
1030
0001
0020
0000
0130
0010
,
0002
0000
1003
0001
0200
0000
0310
1000
,
0001
0010
0100
1000
0010
0100
0001
0000
,
1000
0001
0100
0010
1000
0100
0001
0000
,
0110
0000
1000
0001
0010
0001
0010
0100
,
1000
0000
0010
0100
1000
0100
0001
0010
,
0000
0000
0101
0000
0000
1100
0000
0000
,
0101
0000
1100
0000
,
0000
0000
0011
0000
0000
0000
0000
0000
0000
0000
0000
0000
;
