#VERSION:0.83;
#TITLE:Second Heaven;
#SUBTITLE:;
#ARTIST:Ryu☆;
#TITLETRANSLIT:;
#SUBTITLETRANSLIT:;
#ARTISTTRANSLIT:;
#GENRE:;
#ORIGIN:;
#CREDIT:;
#BANNER:Second Heaven-bn.png;
#BACKGROUND:Second Heaven-bg.png;
#PREVIEWVID:;
#JACKET:Second Heaven-jacket.png;
#CDIMAGE:;
#DISCIMAGE:;
#LYRICSPATH:;
#CDTITLE:;
#MUSIC:Second Heaven.ogg;
#OFFSET:0.000000;
#SAMPLESTART:45.095001;
#SAMPLELENGTH:20.000000;
#SELECTABLE:YES;
#DISPLAYBPM:75.000000:149.000000;
#BPMS:0.000=149.500,
4.000=149.000,
41.000=74.500,
76.000=149.000,
172.000=74.500,
192.000=149.000;
#STOPS:40.000=2.013;
#DELAYS:;
#WARPS:;
#TIMESIGNATURES:0.000=4=4;
#TICKCOUNTS:0.000=4;
#COMBOS:0.000=1;
#SPEEDS:0.000=1.000=0.000=0;
#SCROLLS:0.000=1.000;
#FAKES:;
#LABELS:0.000=Song Start;
#BGCHANGES:0.000=Second Heaven.avi=1.000=1=0=0=StretchNoLoop==CrossFade==,
99999=-nosongbg-=1.000=0=0=0 // don't automatically add -songbackground-
;
#KEYSOUNDS:;
#ATTACKS:
;

//---------------dance-single - ----------------
#NOTEDATA:;
#CHARTNAME:;
#STEPSTYPE:dance-single;
#DESCRIPTION:;
#CHARTSTYLE:;
#DIFFICULTY:Challenge;
#METER:15;
#RADARVALUES:0.672328,1.104008,0.436234,0.184561,0.738243,561.000000,509.000000,52.000000,22.000000,0.000000,0.000000,0.000000,0.000000,0.000000,0.672328,1.104008,0.436234,0.184561,0.738243,561.000000,509.000000,52.000000,22.000000,0.000000,0.000000,0.000000,0.000000,0.000000;
#CREDIT:;
#DISPLAYBPM:75.000000:149.000000;
#NOTES:
0000
0000
0000
0000
,
0000
0000
0000
0000
,
0000
0000
0000
0000
,
0000
0000
0000
0000
,
0000
0000
0000
0000
,
0000
0000
0000
0000
,
1100
0000
0011
0000
0000
0000
0000
0000
0000
0000
0010
1000
0010
0000
0100
0000
,
0101
0000
1010
0000
0000
0000
0000
0000
0000
0000
0001
0010
0001
0000
1000
0000
,
1100
0101
0000
0000
1010
0011
0000
0000
,
1001
0000
0110
0000
0000
0000
0000
0000
0000
0000
0001
1000
0001
0000
0100
0000
,
0020
0000
0000
0000
0230
0000
0000
0000
0301
0010
0001
0100
0001
0010
0001
0100
,
0001
0010
0001
0100
1000
0100
0001
0100
0010
1000
0100
1000
0010
1000
0100
1000
,
0010
0001
0010
1000
0100
0001
0100
1000
0010
0000
0100
0000
1001
0000
0001
0100
,
0010
0100
1000
0100
0001
0100
0010
1000
0100
0000
0010
0000
1001
0000
0100
0001
,
0010
1000
0010
0100
0010
1000
0010
0001
0000
0100
0010
1000
0000
0100
0010
0001
,
0000
1000
0010
0100
0001
0010
0001
0100
0000
0001
0010
0100
0000
1000
0010
1000
,
0001
0010
0100
0010
0001
1000
0001
0100
0110
0000
1000
0010
0000
1000
0100
0010
,
0011
0000
1000
0001
1000
0010
0100
0001
1010
0000
0000
0000
0101
0000
0000
0000
,
0011
0000
0000
0110
0000
0000
1100
0000
0000
1001
0000
0000
0010
0000
1000
0000
0001
0000
0200
0000
0000
0000
0000
0000
,
0301
0000
0100
0010
0100
0001
0010
0100
1000
0000
1000
0000
1000
0000
0010
0100
,
0001
0000
1000
0010
0000
1000
0100
0010
0002
0000
0100
0000
2003
0000
0100
0000
,
3001
0000
0010
0001
0010
0100
1000
0010
1000
0000
1000
0000
1000
0000
0100
0010
,
0002
0100
2003
0100
3002
0010
0013
0100
,
1000
0000
0010
1000
0100
0010
0001
0100
0010
0000
0010
0000
0010
0000
1000
0001
,
1000
0000
0100
0010
0000
0010
0001
0100
0002
0000
0010
0000
2003
0000
0010
0000
,
3001
0000
0100
0010
0100
0001
1000
0100
0010
0000
0010
0000
0010
0000
0100
1000
,
0002
0010
2003
0010
3002
0100
0103
0010
,
1010
0001
1000
0100
0110
0010
0001
0100
,
0001
0010
1000
0100
1000
0010
0001
0100
,
0110
0010
1000
0100
1100
0001
1000
0010
,
0100
1000
0100
0001
0100
0010
1000
0001
,
0011
0100
1000
0001
1001
0010
1000
0100
,
0001
0100
0010
0100
0001
0100
1000
0010
,
0110
0100
0001
0010
0011
1000
0001
0100
,
1000
0100
0001
0100
0010
1000
0100
0010
,
0000
0000
0001
0010
0000
0000
0001
1000
0000
0000
0001
0100
0000
0000
0010
1000
,
0000
0000
0100
0010
0000
0000
0010
0001
0000
0000
1000
0001
0000
1000
0100
0000
,
0000
0000
1000
0010
0000
0000
1000
0001
0000
0000
0010
0100
0000
0000
0010
0001
,
0000
0000
0100
0001
0000
0000
1000
0001
0000
0000
0100
0010
0000
0100
0001
0000
,
0011
0000
1100
0000
0000
0000
0010
0000
0000
0000
1000
0001
1000
0000
0100
0000
,
1010
0000
0101
0000
0000
0000
0010
0000
0000
0000
0100
0001
0100
0000
0010
0000
,
1010
0011
0000
0000
1100
0101
0000
0000
,
1001
0000
0110
0000
1000
0000
0001
0000
0000
0000
0010
0100
1000
0000
0000
0000
,
0010
0000
1000
0001
1000
0000
0100
0000
1001
0000
0010
0000
0100
0000
0001
0010
0001
0000
1000
0010
0000
0100
0001
0000
1001
0000
0010
0000
1000
0000
0100
0000
,
0010
0000
0001
0100
0001
0000
1000
0000
0110
0000
0001
0000
0100
0000
0010
1000
0010
0000
0100
0000
0001
0000
1000
0000
0110
0000
0000
0000
0000
0000
0000
0000
,
0001
0000
1000
0010
0000
1000
0010
0100
0001
0000
0001
0000
0001
0000
0010
0001
1000
0000
0010
0100
0000
0010
0100
0001
1000
0000
1000
0000
1000
0000
0100
0010
,
0001
0000
1000
0100
1000
0000
0001
0100
0001
0000
1000
0010
1000
0000
0001
0010
0001
0000
0001
0000
0001
0000
0001
0000
0001
1000
0001
1000
0001
1000
0001
1000
,
0001
0000
0000
0000
0000
0000
0000
0000
0000
0000
0000
0000
0000
0000
0000
0000
0010
0000
0000
0000
0000
0000
0000
0000
0000
0000
0000
0000
0000
0000
0000
0000
0100
0000
0000
0000
0000
0000
0000
0000
0000
0000
0000
0000
0000
0000
0000
0000
2000
0000
0000
0000
0000
0000
0000
0000
0000
0000
0000
0000
0000
0000
0000
0000
0000
0000
0000
0000
0000
0000
0000
0000
0000
0000
0000
0000
0000
0000
0000
0000
0000
0000
0000
0000
0000
0000
0000
0000
0000
0000
0000
0000
0000
0000
0000
0000
3001
0000
0000
0000
0000
0000
0100
0000
0000
0000
0000
0000
1000
0000
0000
0000
0000
0000
0100
0000
0000
0000
0000
0000
0001
0000
0000
0000
0000
0000
0100
0000
0000
0000
0000
0000
1000
0000
0000
0000
0000
0000
0100
0000
0000
0000
0000
0000
0001
0000
0000
0000
0000
0000
0000
0000
0000
0000
0000
0000
0000
0000
0000
0000
0000
0000
0000
0000
0000
0000
0000
0000
0000
0000
0000
0000
0000
0000
0000
0000
0000
0000
0000
0000
0000
0000
0000
0000
0000
0000
0000
0000
0000
0000
0000
0000
,
0001
0000
0010
0001
1000
0010
1000
0100
0010
0000
0010
0000
0010
0000
0001
0100
,
0010
0000
1000
0001
0000
1000
0100
0010
0002
0000
0100
0000
2003
0000
0100
0000
,
3001
0000
0010
0001
0100
0010
0100
0001
1000
0000
1000
0000
1000
0000
0100
0010
,
0002
0100
2003
0100
3002
0000
0003
0000
,
0101
0000
0010
1000
0010
0100
0001
1000
0100
0000
1001
0000
0110
0000
1000
0010
,
0100
0000
0001
0010
0000
0001
1000
0010
0100
0000
1010
0000
0101
0000
0011
0000
,
1001
0000
0010
1000
0010
0100
0001
1000
0100
0000
0110
0000
1001
0000
0010
1000
,
0002
0100
2003
0100
3002
0000
0003
0000
,
0011
0000
0000
0000
;

//---------------dance-single - ----------------
#NOTEDATA:;
#CHARTNAME:;
#STEPSTYPE:dance-single;
#DESCRIPTION:;
#CHARTSTYLE:;
#DIFFICULTY:Hard;
#METER:12;
#RADARVALUES:0.511736,0.728176,0.453013,0.100669,0.260063,427.000000,373.000000,54.000000,12.000000,0.000000,0.000000,0.000000,0.000000,0.000000,0.511736,0.728176,0.453013,0.100669,0.260063,427.000000,373.000000,54.000000,12.000000,0.000000,0.000000,0.000000,0.000000,0.000000;
#CREDIT:;
#DISPLAYBPM:149.000000;
#NOTES:
0000
0000
0000
0000
,
0000
0000
0000
0000
,
0000
0000
0000
0000
,
0000
0000
0000
0000
,
0000
0000
0000
0000
,
0000
0000
0000
0000
,
1100
1100
0000
0000
0000
0001
0100
0010
,
0101
0101
0000
0000
0000
1000
0100
0010
,
0011
0011
0000
0000
1010
1010
0000
0000
,
1001
1001
0000
0000
0000
0010
0100
0001
,
2000
0000
0000
0000
3002
0000
0000
0000
0013
0000
0001
0000
0100
0000
0000
0001
,
0000
0010
0000
0001
0000
1000
0100
0000
0010
0000
0001
1000
0001
0000
0100
0010
,
0000
0010
1000
0001
0100
0000
0000
0000
1010
0000
0100
0000
1001
0000
0000
0001
,
0010
0001
0010
0100
1000
0001
0100
0000
0010
0000
1000
0001
0110
0000
0010
1000
,
0010
0100
0001
0010
0001
1000
0010
0100
0000
0001
0010
0001
0000
1000
0010
1000
,
0000
0001
0010
0100
1000
0100
0010
0001
0000
1000
0100
1000
0000
0001
0100
0001
,
1000
0001
0100
0001
1000
0000
0000
0000
1010
0000
0000
0000
0000
0000
0000
0000
,
0101
0000
0011
1100
,
1001
0000
0000
0110
0000
0000
1001
0000
0000
0110
0000
0000
1000
0000
0100
0000
0010
0000
0002
0000
0000
0000
0000
0000
,
0103
0001
0010
0001
1000
1000
1000
0010
,
0100
1000
0100
0001
0010
1000
0010
0001
,
0100
0010
0100
0001
1000
1000
1000
0100
,
0001
0100
1000
0100
0020
0000
0000
0000
,
0031
0100
0010
0100
0001
0001
0001
1000
,
0010
0100
0010
0001
0010
1000
0001
1000
,
0100
0010
0100
1000
0001
0001
0001
0100
,
0010
0001
0010
1000
0200
0000
0300
0000
,
1100
0000
0110
0000
0011
0000
0100
0001
,
0010
0001
0010
0100
1000
0001
0100
0010
,
2000
0000
3100
0010
0001
0100
0001
0010
,
1000
0010
0100
0010
0001
1000
0010
0100
,
0101
0000
1010
0000
1100
0000
0010
0001
,
0100
0001
0010
0100
1000
0010
0100
0001
,
0020
0000
0130
0010
0001
0100
0010
1000
,
0100
0001
0100
1000
0010
0100
0001
1000
,
0000
1010
0000
0011
0000
1100
0000
0101
,
0000
0110
0000
1001
0000
1000
0100
0001
,
0000
0011
0000
1100
0000
0101
0000
1010
,
0000
0110
0000
1001
0000
0010
1000
0100
,
1100
1100
0000
0000
0000
0001
0100
0010
,
0101
0101
0000
0000
0000
1000
0100
0010
,
0011
0011
0000
0000
1010
1010
0000
0000
,
0110
0110
0000
0000
0000
1000
0001
0000
,
0010
0001
0010
0100
1000
1000
1000
0010
0100
1000
0100
0001
0010
0100
0010
0100
,
0001
0100
1000
0010
0100
0100
0100
0010
1000
0001
0010
0100
2000
0000
0000
0000
,
3001
0010
0001
0100
0001
0001
0001
0000
1000
0010
1000
0100
1000
1000
1000
0000
,
1010
0000
0101
0000
0011
0000
1100
0000
0001
0001
0001
0001
0001
0001
0001
0001
,
1000
0000
0000
0000
0100
0000
0000
0000
0010
0000
0000
0000
0002
0000
0000
0000
0000
0000
0000
0000
0000
0000
0000
0000
1003
0000
0000
0001
0000
0000
0100
0000
0000
0010
0000
0000
2000
0000
0000
0000
0000
0000
0000
0000
0000
0000
0000
0000
,
3001
0010
1000
0010
0001
0001
0001
0100
,
0010
0100
1000
0100
0001
0010
1000
0010
,
0100
0010
1000
0010
0001
0001
0001
0100
,
0010
1000
0001
1000
0200
0000
0000
0000
,
1300
0010
1000
0001
0100
0100
0100
0010
,
1000
0100
0001
0100
1000
0010
1000
0001
,
0100
0010
1000
0010
0100
0100
0100
0001
,
0010
1000
0010
0001
0200
0000
0300
0000
,
1001
0000
0000
0000
;

//---------------dance-single - ----------------
#NOTEDATA:;
#CHARTNAME:;
#STEPSTYPE:dance-single;
#DESCRIPTION:;
#CHARTSTYLE:;
#DIFFICULTY:Medium;
#METER:9;
#RADARVALUES:0.348748,0.610728,0.285230,0.100669,0.046140,291.000000,257.000000,34.000000,12.000000,0.000000,0.000000,0.000000,0.000000,0.000000,0.348748,0.610728,0.285230,0.100669,0.046140,291.000000,257.000000,34.000000,12.000000,0.000000,0.000000,0.000000,0.000000,0.000000;
#CREDIT:;
#DISPLAYBPM:75.000000:149.000000;
#NOTES:
0000
0000
0000
0000
,
0000
0000
0000
0000
,
0000
0000
0000
0000
,
0000
0000
0000
0000
,
0000
0000
0000
0000
,
0000
0000
0000
0000
,
1000
1000
0000
0000
0000
0000
0000
0000
,
0001
0001
0000
0000
0000
0000
0000
0000
,
0100
0100
0000
0000
0010
0010
0000
0000
,
1001
1001
0000
0000
0000
0000
0000
0000
,
0002
0000
2003
0000
3001
0100
0010
0000
,
1000
0001
1000
0100
0010
0001
0010
0100
,
1000
0001
1000
0000
0010
0100
1001
0000
,
0010
1000
0010
0100
0001
1000
1001
0000
,
0010
1000
0100
0000
0000
1000
0000
0001
,
0000
1000
0100
0010
0000
0001
0000
1000
,
0010
0100
0010
0000
1010
0000
0000
0000
,
0101
0000
0011
1100
,
1001
0110
1001
0110
1000
0100
0002
0000
,
0013
0001
0100
0000
0010
1000
0100
0000
,
0010
0000
0001
0000
0100
0010
1000
0000
,
0001
1000
0010
0000
1000
0001
0100
0000
,
0011
1100
0202
0300
,
0013
0001
1000
0000
0001
0100
0010
0000
,
1000
0000
0100
0000
1000
0001
0010
0000
,
0100
0010
0001
0000
1000
0001
0100
0000
,
1010
0101
2200
3000
,
1300
0000
0001
0000
1000
0000
0000
0010
,
0000
0100
0000
0010
0000
1000
0001
0000
,
0010
0000
0001
1000
0001
0000
0100
0010
,
1000
0001
1000
0010
0100
0000
0001
1000
,
0001
0000
0010
0000
0100
0000
0000
1000
,
0000
0010
0000
1000
0000
0001
0100
0000
,
0010
0000
0100
0001
1000
0000
0001
0010
,
0001
1000
0100
0010
0002
0000
0003
0000
,
0000
1000
0000
0001
0000
1000
0000
0010
,
0000
0100
0000
0001
0000
0010
0000
0100
,
0000
0010
0000
0001
0000
1000
0000
0010
,
0000
0100
0000
0010
0000
1000
0000
0001
,
0100
0100
0000
0000
0000
0000
0000
0000
,
0010
0010
0000
0000
0000
0000
0000
0000
,
1000
1000
0000
0000
0001
0001
0000
0000
,
1001
1001
0000
0000
0000
0000
0000
0000
,
0010
0000
0001
0000
1001
0100
0010
0000
1000
0000
0100
0000
0110
1000
0001
0000
,
0010
0000
0001
0000
1001
0100
0001
0000
1000
0000
0001
1000
0200
0000
0000
0000
,
0310
0000
0001
0000
1000
0001
1000
0000
0010
0000
0100
0000
0001
1000
0001
0000
,
0011
0000
0011
0000
1100
0000
1100
0000
0001
1000
0001
1000
0001
1000
0001
0000
,
1000
0000
0100
0000
0002
0000
0000
0000
0103
0010
0100
0010
0100
0000
0000
0000
,
0001
0010
1000
0000
0100
0010
0001
0000
,
0100
0000
0010
0000
1000
0100
0001
0000
,
0010
0001
1000
0000
0001
0100
0010
0000
,
1001
1010
2200
3000
,
0310
0001
1000
0000
0001
0100
0010
0000
,
0100
0001
1000
0000
0010
1000
0100
0010
,
0001
1000
0001
0000
0100
0010
1000
0000
,
0011
1100
0101
0000
,
1001
0000
0000
0000
;

//---------------dance-single - ----------------
#NOTEDATA:;
#CHARTNAME:;
#STEPSTYPE:dance-single;
#DESCRIPTION:;
#CHARTSTYLE:;
#DIFFICULTY:Easy;
#METER:7;
#RADARVALUES:0.263658,0.446301,0.318787,0.033556,0.000000,220.000000,182.000000,38.000000,4.000000,0.000000,0.000000,0.000000,0.000000,0.000000,0.263658,0.446301,0.318787,0.033556,0.000000,220.000000,182.000000,38.000000,4.000000,0.000000,0.000000,0.000000,0.000000,0.000000;
#CREDIT:;
#DISPLAYBPM:75.000000:149.000000;
#NOTES:
0000
0000
0000
0000
,
0000
0000
0000
0000
,
0000
0000
0000
0000
,
0000
0000
0000
0000
,
0000
0000
0000
0000
,
0000
0000
0000
0000
,
1000
0000
0000
0000
,
0001
0000
0000
0000
,
0100
0000
0010
0000
,
1001
0000
0000
0000
,
0200
0000
0310
0000
0000
1000
0000
0001
,
0000
0010
0001
0100
0000
0001
0000
1000
,
0100
0010
0001
0000
0100
0000
1001
0000
,
0010
1000
0001
0000
0100
0000
0110
0000
,
0001
0010
1000
0000
0000
0100
0000
0010
,
0000
0001
1000
0001
0000
1000
0000
0010
,
0100
0100
0100
0000
1001
0000
0000
0000
,
0110
0000
1001
0110
,
1001
0110
1001
0110
1000
0001
1002
0000
,
0013
0001
0100
0010
,
1000
0100
1000
0001
,
0010
0100
0010
0001
,
0101
1100
0101
0000
,
0010
1000
0001
1000
,
0100
0010
0001
0100
,
0001
0010
0001
1000
,
1100
0101
1100
0000
,
0010
0110
0110
0000
,
1000
0100
1000
0001
,
0101
0000
1100
0000
,
0001
0100
1000
0000
,
0001
1001
1001
0000
,
0010
1000
0010
0100
,
0101
0000
1100
0000
,
0010
0001
0100
0000
,
0000
0001
0000
0001
,
0000
1000
0000
1000
,
0000
0100
0000
0100
,
0000
0010
0000
1000
,
1000
0000
0000
0000
,
0001
0000
0000
0000
,
0100
0000
0010
0000
,
0110
0000
0000
0000
,
1000
0001
1000
0010
0100
0001
0001
0000
,
0010
0001
0010
0100
1000
1000
1000
0000
,
0001
0100
0001
0000
1000
0100
1000
0000
,
0010
0010
0010
0010
0010
0010
0010
0000
,
1000
0001
1002
0000
0013
0100
2000
0000
,
3001
0010
0001
0100
,
0010
0000
1000
0000
0001
0100
0001
0000
,
0010
0001
0010
0100
,
1100
0101
1100
0000
,
1001
0000
0010
0000
0001
0100
0001
0000
,
1000
0000
0010
0000
1000
0100
1000
0000
,
0101
1000
1100
0001
,
0101
1100
0101
0000
,
0110
0000
0000
0000
;

//---------------dance-single - ----------------
#NOTEDATA:;
#CHARTNAME:;
#STEPSTYPE:dance-single;
#DESCRIPTION:;
#CHARTSTYLE:;
#DIFFICULTY:Beginner;
#METER:4;
#RADARVALUES:0.147409,0.234895,0.050335,0.000000,0.000000,123.000000,117.000000,6.000000,0.000000,0.000000,0.000000,0.000000,0.000000,0.000000,0.147409,0.234895,0.050335,0.000000,0.000000,123.000000,117.000000,6.000000,0.000000,0.000000,0.000000,0.000000,0.000000,0.000000;
#CREDIT:;
#DISPLAYBPM:75.000000:149.000000;
#NOTES:
// measure 0
0000
0000
0000
0000
,  // measure 1
0000
0000
0000
0000
,  // measure 2
0000
0000
0000
0000
,  // measure 3
0000
0000
0000
0000
,  // measure 4
0000
0000
0000
0000
,  // measure 5
0000
0000
0000
0000
,  // measure 6
1000
0000
0000
0000
,  // measure 7
0001
0000
0000
0000
,  // measure 8
0100
0000
0010
0000
,  // measure 9
1001
0000
0000
0000
,  // measure 10
0110
0000
1000
0000
,  // measure 11
0001
0000
0010
0010
,  // measure 12
0010
0000
0001
0001
,  // measure 13
0001
0000
0100
0100
,  // measure 14
0100
0000
0010
0000
,  // measure 15
0000
0000
0000
0000
,  // measure 16
0100
0100
0100
0000
0001
0000
0000
0000
,  // measure 17
1000
0000
0001
1000
,  // measure 18
0010
0010
0010
0010
0010
0000
0000
0000
,  // measure 19
0100
0000
0001
0000
,  // measure 20
1000
0000
0001
0001
,  // measure 21
0001
0000
0010
0000
,  // measure 22
0100
0100
0100
0000
,  // measure 23
1000
0000
0010
0000
,  // measure 24
0100
0000
0001
0001
,  // measure 25
0001
0000
1000
0000
,  // measure 26
0010
0010
0010
0000
,  // measure 27
1000
0000
0001
0000
,  // measure 28
1000
0000
0100
0000
,  // measure 29
0010
0000
0010
0000
,  // measure 30
0010
0000
0000
0000
,  // measure 31
0001
0000
1000
0000
,  // measure 32
0001
0000
0100
0000
,  // measure 33
0010
0000
0010
0000
,  // measure 34
0010
0000
0000
0000
,  // measure 35
0000
1000
0000
1000
,  // measure 36
0000
1000
0000
0000
,  // measure 37
0000
0001
0000
0001
,  // measure 38
0000
0001
0000
0000
,  // measure 39
1000
0000
0000
0000
,  // measure 40
0001
0000
0000
0000
,  // measure 41
0100
0000
0010
0000
,  // measure 42
1001
0000
0000
0000
,  // measure 43
0001
0001
0001
1000
,  // measure 44
0100
1000
0010
0010
,  // measure 45
0100
0000
0010
0000
,  // measure 46
1000
0000
1000
0000
0001
0001
0001
0000
,  // measure 47
0110
0000
1001
0000
,  // measure 48
1000
1000
1000
0000
,  // measure 49
0010
0010
0010
0000
,  // measure 50
0100
0100
0100
0000
,  // measure 51
0001
0001
0001
0000
,  // measure 52
0010
0010
0010
0000
,  // measure 53
0001
0001
0001
0000
,  // measure 54
1000
1000
1000
0000
,  // measure 55
0100
0100
0100
0000
,  // measure 56
0110
0000
0000
0000
;
