#TITLE:Scramble;
#ARTIST:System 7;
#BANNER:Scramble-bn.png;
#BACKGROUND:Scramble-bg.png;
#JACKET:Scramble-jacket.png;
#MUSIC:Scramble.ogg;
#SAMPLESTART:29.969;
#SAMPLELENGTH:20;
#DISPLAYBPM:144;
#BPMS:0=144;
#BGCHANGES:;

//---------------dance-single - ----------------
#NOTES:
     dance-single:
     :
     Beginner:
     2:
     :
0000
0000
0000
0000
,
0000
0000
0000
0000
,
0000
0000
0000
0000
,
0000
0000
0000
0000
,
1000
0000
0000
0000
,
0000
0000
0000
0000
,
0000
0000
0000
0000
,
0001
0000
0000
0000
,
0000
0000
0000
0000
,
0000
0000
0000
0000
,
0001
0000
1000
0000
,
0000
0100
0000
0000
,
0010
0000
0000
0000
,
0100
0000
0001
0000
,
0001
0000
1000
0000
,
0000
0100
0000
0000
,
0010
0000
0000
0000
,
0100
0000
0000
0000
,
1001
0000
0000
0000
,
0100
0000
0001
0000
,
0100
0000
0000
0000
,
0010
0000
0000
0000
,
1001
0000
0000
0000
,
0010
0000
1000
0000
,
0010
0000
0000
0000
,
0100
0000
0000
0000
,
1001
0000
0010
0000
,
0100
0000
0001
0000
,
0100
0100
0000
0000
,
0010
0010
0000
0000
,
1001
0000
0100
0000
,
0010
0000
1000
0000
,
0010
0010
0000
0000
,
0100
0100
0000
0000
,
1001
0000
0010
0000
,
0100
0000
0001
0000
,
0100
0100
0100
0000
,
0010
0010
0010
0000
,
1001
0000
0100
0000
,
0010
0000
1000
0000
,
0010
0010
0010
0000
,
0100
0100
0100
0000
,
0000
0000
0001
0001
,
0000
0000
1000
1000
,
0000
0000
0010
0010
,
0000
0000
1000
0000
,
0000
0000
0100
0100
,
0000
0000
0001
0000
,
0000
1000
0000
0001
,
0000
1000
0000
0001
,
0000
0100
0000
0001
,
0000
0010
0000
0001
,
0000
0010
0000
1000
,
0000
0100
0000
1000
,
0000
0010
0000
0001
,
0000
0100
0000
0001
,
0000
0010
0000
1000
,
1001
0000
0000
0000
;

//---------------dance-single - ----------------
#NOTES:
     dance-single:
     :
     Easy:
     5:
     :
0000
0000
0000
0000
,
0000
0000
0000
0000
,
0000
0000
0000
0000
,
0000
0000
0000
0000
,
2000
0000
0000
0000
,
0000
0000
0000
0000
,
0000
0000
0000
3000
,
0002
0000
0000
0000
,
0000
0000
0000
0000
,
0000
0000
0000
0003
,
1001
0000
1000
0001
,
0000
0100
0000
0001
,
0010
0000
0001
0100
,
0010
0000
1000
0001
,
0100
0000
0001
1000
,
0010
0000
0001
0100
,
0010
0000
1000
0100
,
0010
0000
1001
0000
,
0110
0000
0100
0001
,
0000
0000
1000
0001
,
1000
0000
0010
0001
,
0000
0000
0001
1000
,
0010
0000
0100
0001
,
0000
0000
1000
0001
,
1000
0000
0010
0001
,
0000
0000
0001
1000
,
0110
0000
0100
0001
,
0100
0000
1000
0001
,
1000
0000
0010
0001
,
0010
0000
0001
1000
,
0010
0000
0100
0001
,
0100
0000
1000
0001
,
1000
0000
0010
0001
,
0010
0000
0001
1000
,
1001
0000
0100
0001
,
0100
0000
1000
0001
,
1000
0100
0010
0001
,
0010
0100
0001
1000
,
1001
0000
0100
0001
,
0100
0000
1000
0001
,
1000
0100
0010
0001
,
0010
0100
0001
1000
,
0001
0000
0100
0100
,
0001
0000
0010
0010
,
1000
0000
0100
0100
,
1000
0000
2002
3003
,
0001
0000
0010
0100
,
0001
0000
2002
3003
,
1000
0100
0010
0000
,
0001
0010
0100
0000
,
0010
0010
0000
0001
,
0010
0100
1000
0001
,
0100
0100
0000
1000
,
0100
0010
0001
1000
,
0010
0100
0001
1000
,
0010
0100
0001
1000
,
0010
0100
0001
1000
,
1001
0000
0000
0000
;

//---------------dance-single - ----------------
#NOTES:
     dance-single:
     :
     Medium:
     9:
     :
0000
0000
0000
0000
,
0000
0000
0000
0000
,
0000
0000
0000
0000
,
0000
0000
0000
0000
,
0000
0000
1001
0000
0000
0110
0000
0000
,
0100
0000
0000
0010
0000
0000
0100
0000
,
1000
0010
1000
0000
0100
0001
1000
0000
,
0010
0001
1000
1000
,
0001
0100
0001
0000
0010
1000
0001
0000
,
0100
1000
0001
0001
,
0110
0000
0000
1000
0000
0001
0100
0000
,
1001
0000
0000
0001
0000
0010
0010
0000
,
0110
0000
0000
1000
0000
0001
0010
0000
,
1001
0000
0000
0001
0000
0100
0100
0000
,
1001
0000
0000
0100
0000
0010
1000
0000
,
0110
0000
0000
0010
0000
0001
0001
0000
,
1001
0000
0000
0100
0000
0010
0001
0000
,
0110
0000
1001
0000
,
1010
0001
0010
1000
,
0001
0010
0001
1000
,
0001
0000
0010
1000
0100
0000
0100
0000
,
1000
0000
0010
0001
0100
0000
0100
0000
,
0101
1000
0100
0001
,
1000
0100
1000
0001
,
1000
0000
0100
0001
0010
0000
0010
0000
,
0001
0000
0100
1000
0010
0000
0010
0000
,
1100
0000
0001
0000
0100
0001
1000
0000
,
0001
0000
0100
0000
0001
0010
1000
0000
,
0001
0000
0100
1000
0010
0000
0010
0000
,
1000
0000
0100
0001
0010
0000
0010
0000
,
0011
0000
1000
0000
0010
1000
0001
0000
,
1000
0000
0010
0000
1000
0100
0001
0000
,
1000
0000
0010
0001
0100
0000
0100
0000
,
0001
0000
0010
1000
0100
0000
0100
0000
,
0011
0000
1000
0000
0010
1000
0001
0000
,
1000
0000
0010
0000
1000
0100
0001
0100
,
1000
0100
0010
0001
0100
0000
0100
0000
,
0001
0100
0010
1000
0100
0000
0100
0000
,
1010
0000
0001
0000
0010
0001
1000
0000
,
0001
0000
0010
0000
0001
0100
1000
0100
,
0001
0100
0010
1000
0100
0000
0100
0000
,
1000
0100
0010
0001
0010
0000
0110
0000
,
0001
0010
0100
0000
0010
0000
0100
0000
,
0001
0010
0100
0000
0001
0000
1000
0000
,
0001
0100
0010
0000
1000
0000
0001
0000
,
1000
0010
2200
3300
,
1000
0010
0100
0000
0001
0000
1000
0000
,
0001
0100
0202
0303
,
1000
0100
0010
0000
0100
0000
0010
0000
,
1000
0100
0010
0000
1000
0000
0001
0000
,
0100
1000
0010
0000
0100
0001
0010
0000
,
1000
0100
0010
0001
0100
0001
1000
0000
,
0010
0001
0100
0000
0010
1000
0100
0000
,
0001
0010
0100
1000
0010
1000
0001
0000
,
0010
1000
0100
1000
0010
0100
0010
1000
,
1000
0100
0010
0001
0100
0001
1000
0010
,
0100
0001
0010
0001
0100
0010
0100
0001
,
1001
0000
0000
0000
;

//---------------dance-single - ----------------
#NOTES:
     dance-single:
     :
     Hard:
     13:
     :
0000
0000
0000
0000
,
0000
0000
0000
0000
,
0000
0000
0000
0000
,
0000
0000
0000
0000
,
0000
0000
1000
0010
0000
0001
0100
0000
,
1000
0010
0000
1000
0100
0000
0001
0010
,
1000
0100
1000
0010
1000
0100
0010
0100
,
1000
0010
1000
0001
1000
0010
0100
0010
,
0001
0010
0001
0100
0001
0010
0100
0010
,
0001
0100
0001
1000
0001
0100
0010
0100
,
0110
0000
0000
0101
0000
1001
0001
1000
,
0010
1000
0100
1000
0000
0001
0001
0000
,
0010
0001
0100
0001
0000
1000
0010
1000
,
0100
1000
0010
1000
0000
0001
0010
0000
,
0100
0001
0010
0001
0000
1000
1000
0001
,
0010
0001
0100
0001
0000
1000
1000
0000
,
0010
1000
0100
1000
0000
0001
0010
0001
,
0100
0000
0000
0001
0010
0000
0000
0000
,
0101
0000
0010
0000
1000
0000
0100
0010
0000
0000
1000
0000
0001
0000
0000
0000
,
1000
0000
0100
0000
0100
0000
0001
0010
0000
0000
1000
0000
0010
0000
0000
0000
,
1000
0000
0100
0000
0100
0000
0001
0010
0000
0000
1000
0000
0010
0000
0000
0000
,
1000
0000
0010
0000
0010
0000
0001
0100
0000
0000
1000
0000
0100
0000
0000
0000
,
1000
0000
0010
0000
0001
0000
0100
0010
0000
0000
0001
0000
1000
0000
0000
0000
,
0001
0000
0100
0000
0100
0000
1000
0010
0000
0000
0001
0000
0010
0000
0000
0000
,
0001
0000
0100
0000
0100
0000
1000
0010
0000
0000
0001
0000
0010
0000
0000
0000
,
0001
0000
0010
0000
0010
0000
1000
0100
0000
0000
0001
0000
0100
0000
0000
0000
,
1010
0000
0100
0000
0001
0000
0000
0100
0000
0000
0001
0000
1000
0000
0100
0010
,
1000
0000
0001
0000
1000
0000
0000
0100
0000
0000
0010
0000
0100
0000
1000
0001
,
0100
0000
1000
0000
0010
0000
0000
0001
0000
0000
0100
0000
1000
0000
0100
0010
,
0100
0000
1000
0000
0100
0000
0000
0010
0000
0000
0001
0000
1000
0000
0010
0100
,
0001
0000
0010
0000
1000
0000
0000
0010
0000
0000
1000
0000
0001
0000
0010
0100
,
0001
0000
1000
0000
0001
0000
0000
0010
0000
0000
0100
0000
0010
0000
0001
1000
,
0010
0000
0001
0000
0100
0000
0000
1000
0000
0000
0010
0000
0001
0000
0010
0100
,
0010
0000
0001
0000
0010
0000
0000
0100
0000
0000
1000
0000
0001
0000
0100
0010
,
0100
0000
1000
0000
0010
0000
0100
0001
0000
0000
0100
0000
1000
0000
0100
0010
,
0100
0000
1000
0000
0100
0000
1000
0010
0000
0000
0001
0000
1000
0000
0010
0100
,
1000
0000
0001
0000
1000
0000
0100
0010
0000
0000
0100
0000
0010
0000
1000
0001
,
0010
0000
1000
0000
0100
0000
1000
0001
0000
0000
0010
0000
1000
0000
0010
1000
,
0100
0000
1000
0000
0010
0000
0100
0001
0000
0000
0100
0000
1000
0000
0100
0010
,
0100
0000
1000
0000
0100
0000
1000
0010
0000
0000
0001
0000
1000
0000
0010
0100
,
1000
0000
0001
0000
1000
0000
0100
0010
0000
0000
0100
0000
0010
0000
1000
0001
,
0010
1000
0100
0000
1001
0000
0110
0000
,
1000
0100
0010
0001
1000
0100
0010
0001
,
1000
0000
0101
0000
0010
0010
0010
1000
,
0001
0100
0010
1000
0001
0100
0010
1000
,
1000
0001
0010
0001
2002
0000
3003
0000
,
0001
0010
0100
1000
0001
0010
0100
1000
,
1000
0001
0100
0001
0220
0000
0330
0000
,
1000
0010
0100
0001
1000
0010
0100
0001
,
1000
0000
0011
0000
0100
0100
0100
1000
,
0010
0001
0010
1000
0100
0010
0100
1000
,
0001
0010
0100
1000
0010
0100
0001
1000
,
0100
0001
0100
1000
0010
0100
0010
1000
,
0001
0100
0010
1000
0100
0010
0001
1000
,
0010
1000
0010
0001
0100
0010
0100
0001
,
0100
1000
0100
0001
0010
0100
0010
0001
,
1000
0100
0010
0001
0100
0010
1000
0001
,
1001
0000
0000
0000
;

//---------------dance-single - ----------------
#NOTES:
     dance-single:
     :
     Challenge:
     16:
     :
0000
0000
0000
0000
,
0000
0000
0000
0000
,
0000
0000
0000
0000
,
0000
0000
0000
0000
,
0010
0000
1100
1000
0000
0101
0001
0000
,
0011
1000
0000
1010
0001
0000
0100
0010
,
1000
0001
0010
0001
0100
0010
0100
1000
,
0100
1000
0001
1000
0001
0100
0010
0010
,
0010
0001
0100
0010
0100
0001
1000
1000
,
0100
0001
0010
0001
1000
1000
0010
0100
,
0001
0010
0000
0010
0100
0000
0000
1000
0000
0000
0001
0000
0100
0000
0000
0000
,
0010
1000
0000
1000
0100
0000
0000
0010
0000
0000
0001
0000
1000
0000
0000
0000
,
0100
1000
0000
1000
0001
0000
0000
0010
0000
0000
0001
0000
0100
0000
0000
0000
,
0010
1000
0000
1000
0001
0000
0000
0100
0000
0000
0010
0000
1000
0000
0000
0000
,
0100
1000
0000
1000
0001
0000
0001
0100
0000
0000
0010
0000
1000
0000
0100
0000
,
1000
0001
0000
0001
0010
0000
0010
0100
0000
0000
1000
0000
0001
0000
0100
0000
,
0010
1000
0000
1000
0001
0000
0001
0010
0000
0000
0001
0000
0100
0000
0010
0000
,
1000
0001
0100
1100
0202
0000
0003
0000
,
0310
0000
0100
0001
0010
0000
0001
2000
0000
0000
0100
0000
3100
0000
1000
0001
,
0010
0001
0000
0001
0100
0000
0010
2000
0000
0000
0001
0000
3001
0000
1000
0100
,
1000
0010
0000
0010
0100
0000
0100
0002
0000
0000
1000
0000
1003
0000
0001
0010
,
0001
1000
0000
1000
0010
0000
0010
0200
0000
0000
0010
0000
0310
0000
0100
0001
,
1000
0100
0000
0100
0010
0000
0010
0002
0000
0000
0100
0000
0103
0000
0010
1000
,
0001
0010
0000
0010
0001
0000
0001
2000
0000
0000
0100
0000
3100
0000
1000
0001
,
0100
0010
0000
0010
1000
0000
1000
0002
0000
0000
0100
0000
0103
0000
0001
0010
,
0001
1000
0000
1000
0010
0000
0010
2000
0000
0000
0100
0000
3100
1000
0001
0010
,
0001
1000
0010
1000
0001
0000
0100
0010
0000
0010
1000
0000
0100
0000
1000
0001
,
0010
0001
0010
0100
1000
0000
0001
1000
0000
1000
0010
0000
0100
0001
0010
0001
,
1000
0100
0010
0100
1000
0000
0001
0100
0000
0100
0010
0000
1000
0000
0001
0010
,
0001
0100
0000
0100
0010
0000
0010
1000
0000
1000
0100
0000
1000
0001
0100
0010
,
1000
0100
0010
0001
0100
0000
0001
0010
0000
0001
1000
0000
0010
0100
0001
1000
,
0100
1000
0010
1000
0001
0000
0010
0001
0000
0001
0100
0000
0010
0100
0001
1000
,
0100
1000
0010
0100
0001
0000
0010
0001
0000
1000
0010
0000
0100
0001
1000
0100
,
1000
0010
0000
0010
0100
0000
0100
0001
0000
0001
0010
0000
0001
0000
1000
0100
,
1000
0010
0000
0100
0001
0000
0010
0001
0000
0100
0010
0000
1000
0100
1000
0001
,
0010
0100
0000
1000
0010
0100
0010
1000
0000
0001
0010
0000
0001
1000
0001
0100
,
0010
0100
0000
0001
0010
0000
0001
1000
0000
1000
0100
0000
0010
0001
0010
0100
,
1000
0010
0000
0100
0010
1000
0001
0020
0000
0000
0031
0000
0100
0010
1000
0001
,
0010
0001
0000
1000
0010
0000
1000
0200
0000
0000
0310
0000
0001
1000
0001
1000
,
0010
0100
0000
0010
1000
0001
1000
0200
0000
0000
0310
0000
0001
0100
0010
0100
,
0001
1000
0000
0100
1000
0010
1000
0002
0000
0000
0103
0000
0010
1000
0001
1000
,
0001
0010
0100
0010
0001
0000
1000
0000
1000
0000
0010
1000
0001
0000
0100
0000
,
0110
0000
0010
0000
1000
0000
0001
0100
0010
0000
1000
0100
0010
0000
0001
0000
,
0100
0000
1000
0000
0100
0000
0001
0000
0010
0000
0001
1000
0010
0000
0100
0010
,
1000
0000
0100
1000
0001
0000
0010
0001
0100
0000
0010
0000
0100
0000
0001
1000
,
0100
0000
0010
0001
1000
0000
0010
0100
0002
0000
1000
0000
1003
0000
0100
1000
,
0010
0100
0010
0100
0001
0000
0010
0001
1000
0000
0100
0000
1000
0000
0001
0000
,
0010
0001
0010
0100
1000
0000
0010
1000
0001
0000
0100
0000
0010
0000
0100
0000
,
1000
0100
0001
0100
0010
0000
1000
0100
1000
0000
0001
0010
0001
0000
0100
0000
,
0010
1000
0001
1000
0100
0000
0010
0001
0100
0000
0001
1000
0010
0000
0100
0000
,
0001
0010
0001
1000
0010
1000
0001
0100
0000
0000
0010
1000
0010
0100
0001
1000
,
0000
1000
0100
0000
0100
0010
0000
0010
0001
0000
0001
1000
0000
0001
0100
0010
,
1000
0100
0010
0001
0100
0000
0010
1000
0010
0100
0001
0010
1000
0000
0100
1000
,
0010
0100
0010
1000
0001
0000
0010
0001
0010
0100
1000
0010
0100
0001
1000
0000
,
0110
0000
0010
1000
0010
0100
0001
1000
0000
0000
0100
1000
0010
0100
0001
1000
,
0000
0001
0010
1000
0001
0100
0010
1000
0000
1000
0100
0000
1000
0010
0100
0001
,
0010
1000
0001
0100
1000
0001
0010
0100
0010
0100
0001
0100
1000
0001
1000
0010
,
0200
0000
0000
0000
,
0300
0000
0000
0000
;
