#VERSION:0.83;
#TITLE:Saturday Night Love;
#SUBTITLE:;
#ARTIST:Sota feat. Brenda V.;
#TITLETRANSLIT:;
#SUBTITLETRANSLIT:;
#ARTISTTRANSLIT:;
#GENRE:;
#ORIGIN:;
#CREDIT:;
#BANNER:Saturday Night Love-bn.png;
#BACKGROUND:Saturday Night Love-bg.png;
#PREVIEWVID:;
#JACKET:Saturday Night Love-jacket.png;
#CDIMAGE:;
#DISCIMAGE:;
#LYRICSPATH:;
#CDTITLE:;
#MUSIC:Saturday Night Love.ogg;
#OFFSET:0.000000;
#SAMPLESTART:46.880001;
#SAMPLELENGTH:20.000000;
#SELECTABLE:YES;
#DISPLAYBPM:128.000000;
#BPMS:0.000=127.400,
4.000=128.000;
#STOPS:;
#DELAYS:;
#WARPS:;
#TIMESIGNATURES:0.000=4=4;
#TICKCOUNTS:0.000=4;
#COMBOS:0.000=1;
#SPEEDS:0.000=1.000=0.000=0;
#SCROLLS:0.000=1.000;
#FAKES:;
#LABELS:0.000=Song Start;
#BGCHANGES:-0.500=Saturday Night Love.avi=1.000=0=0=0=StretchNoLoop====,
99999=-nosongbg-=1.000=0=0=0 // don't automatically add -songbackground-
;
#KEYSOUNDS:;
#ATTACKS:
;

//---------------dance-single - ----------------
#NOTEDATA:;
#CHARTNAME:;
#STEPSTYPE:dance-single;
#DESCRIPTION:;
#CHARTSTYLE:;
#DIFFICULTY:Beginner;
#METER:3;
#RADARVALUES:0.121201,0.154531,0.030300,0.000000,0.000000,84.000000,81.000000,3.000000,0.000000,0.000000,0.000000,0.000000,0.000000,0.000000,0.121201,0.154531,0.030300,0.000000,0.000000,84.000000,81.000000,3.000000,0.000000,0.000000,0.000000,0.000000,0.000000,0.000000;
#CREDIT:;
#DISPLAYBPM:128.000000;
#NOTES:
0000
0000
0000
0000
,
0000
0000
0000
0000
,
0000
0000
0000
0000
,
0000
0000
0000
0000
,
0000
0000
0000
0000
,
0010
0000
0000
0000
,
0010
0010
0000
0000
,
1000
0000
0001
0000
,
0001
0000
0100
0000
,
0100
0000
0000
0000
,
0010
0000
0001
0000
,
0001
0000
1000
0000
,
0001
0001
0000
0000
,
0010
0000
0000
0000
,
0100
0000
0000
0000
,
0010
0000
0001
0000
,
1000
1000
0000
0000
,
1000
0000
0000
0000
,
0001
0000
0000
0000
,
0010
0000
0010
0000
,
1000
0000
0001
0000
,
0001
0000
0100
0000
,
1000
0000
0100
0000
,
0001
0000
0100
0000
,
0010
0000
1000
0000
,
0100
0100
0000
0000
,
0100
0100
0000
1000
,
0000
0000
0010
0000
,
1000
0000
1001
0000
,
0100
0000
0100
0000
,
0010
0000
0010
0000
,
1001
0000
0000
0000
,
0001
0000
0010
0000
,
0000
0001
0000
0001
,
0000
1000
0000
0001
,
0000
1000
0000
0001
,
0000
1000
0000
0001
,
0000
1000
0000
0001
,
0000
1000
0000
0000
,
0010
0000
0000
0000
,
0001
0000
0100
0100
,
0000
0000
0000
0000
,
0010
0000
0100
0000
,
1000
0000
0000
0000
,
0100
0000
0001
0000
,
1000
0000
0010
0000
,
0001
0000
0100
0000
,
1000
0000
0001
0000
,
1000
0000
0001
0000
,
0100
0000
0000
0000
,
0010
0000
0100
0000
,
1001
0000
0000
0000
;

//---------------dance-single - ----------------
#NOTEDATA:;
#CHARTNAME:;
#STEPSTYPE:dance-single;
#DESCRIPTION:;
#CHARTSTYLE:;
#DIFFICULTY:Easy;
#METER:4;
#RADARVALUES:0.168816,0.231797,0.060601,0.232302,0.000000,117.000000,111.000000,6.000000,23.000000,0.000000,0.000000,0.000000,0.000000,0.000000,0.168816,0.231797,0.060601,0.232302,0.000000,117.000000,111.000000,6.000000,23.000000,0.000000,0.000000,0.000000,0.000000,0.000000;
#CREDIT:;
#DISPLAYBPM:128.000000;
#NOTES:
0000
0000
0000
0000
,
0000
0000
0000
0000
,
0000
0000
0000
0000
,
0000
0000
0000
0000
,
0000
0000
0000
0000
,
0020
0030
0000
0000
,
0010
0010
1000
0000
,
1000
0000
0001
0000
,
0001
1000
0100
0000
,
0100
0000
0000
0000
,
0010
0000
0001
0000
,
0002
0003
2000
3000
,
0001
0001
0100
0000
,
0020
0000
0030
0000
,
0200
0000
0300
0000
,
0010
0000
0001
0000
,
1000
1000
0100
0000
,
2000
3000
0000
0000
,
0002
0003
0000
0000
,
0010
0100
0010
0000
,
1000
0100
0001
0000
,
0002
0003
0100
0000
,
2000
3000
0100
0000
,
0001
0000
0100
0000
,
0020
0030
1000
1001
,
0100
0100
1000
0000
,
0100
0100
0001
1000
,
0010
0000
0010
0000
,
1000
0001
1001
0000
,
0200
0300
0100
1000
,
0020
0030
0010
0001
,
2002
0000
3003
0000
,
0001
0100
0010
0110
,
0000
0001
1000
0001
,
0100
1000
0100
0001
,
0000
1000
0100
0001
,
1000
1000
0001
0001
,
0000
1000
0100
0001
,
0010
1000
0200
0300
,
0020
0000
0030
0000
,
0001
1000
0100
0100
,
0002
0003
0000
0000
,
0010
0000
0100
0000
,
2000
3000
0000
0000
,
0100
0000
0001
0010
,
2000
3000
0010
0000
,
0002
0003
0100
0000
,
1000
0010
0001
0100
,
2000
3000
0002
0003
,
0200
0000
0300
0000
,
0010
0000
0100
0110
,
1001
0000
0000
0000
;

//---------------dance-single - ----------------
#NOTEDATA:;
#CHARTNAME:;
#STEPSTYPE:dance-single;
#DESCRIPTION:;
#CHARTSTYLE:;
#DIFFICULTY:Medium;
#METER:6;
#RADARVALUES:0.274145,0.308305,0.090901,0.414104,0.000000,190.000000,181.000000,9.000000,41.000000,0.000000,0.000000,0.000000,0.000000,0.000000,0.274145,0.308305,0.090901,0.414104,0.000000,190.000000,181.000000,9.000000,41.000000,0.000000,0.000000,0.000000,0.000000,0.000000;
#CREDIT:;
#DISPLAYBPM:128.000000;
#NOTES:
0000
0000
0000
0000
,
0000
0000
0000
0000
,
0000
0000
0000
0000
,
0000
0000
0000
0000
,
0000
0000
0000
0000
,
0020
0000
0030
0000
,
0001
0000
1000
0100
,
0200
0000
0300
0000
,
0010
0100
0110
0000
,
0001
0002
1003
0100
,
1000
0001
0100
0000
0001
0000
0010
0000
,
2000
3100
0002
0103
,
1000
0000
0100
0000
0100
0010
0001
0000
,
0020
0000
0130
0001
,
0200
0000
0310
1000
,
2000
3100
0020
1030
,
0001
0000
1000
0000
0010
0100
0010
0000
,
0002
0013
1000
0100
,
0020
0000
0031
0000
1000
0001
0100
0000
,
0002
0013
2000
3100
,
0010
0000
0001
0000
1000
0010
0100
0000
,
1000
1000
0001
0001
,
0100
0100
0010
0010
,
0200
0300
1000
0001
,
2002
3003
0100
1001
,
0020
0000
0030
0000
0001
0100
0010
0000
,
1000
0100
0001
0010
,
1000
0001
1000
0000
0002
0000
0103
0000
,
1000
1100
0001
0101
,
0200
0000
0300
0000
1000
0001
0100
0000
,
1000
0010
0001
0100
,
1000
0010
0100
0000
0001
0010
0100
0000
,
0220
0000
0330
0000
0010
1000
0001
0000
,
2000
0000
3001
0000
0010
1000
0100
0000
,
0001
0010
1000
0100
,
0020
0000
0130
0000
0010
1000
0100
0000
,
0020
0230
2300
3000
,
2002
3003
0001
1000
,
0001
0100
0001
0000
1000
0001
1000
0000
,
0200
0300
0020
0030
,
2000
0000
3100
0000
0001
0001
0100
0000
,
0020
0000
0030
0000
0010
0100
0010
0000
,
0001
0000
0001
0100
1000
0000
1000
0000
,
0210
0300
0001
0100
,
1000
0000
1000
0000
0001
0100
0010
0000
,
2000
3100
0002
0013
,
1000
1001
0001
0100
,
0020
0130
2000
3001
,
0200
0310
0002
1003
,
0020
0000
0200
0330
,
0001
0000
1000
0000
0100
1000
0000
0100
;

//---------------dance-single - ----------------
#NOTEDATA:;
#CHARTNAME:;
#STEPSTYPE:dance-single;
#DESCRIPTION:;
#CHARTSTYLE:;
#DIFFICULTY:Hard;
#METER:8;
#RADARVALUES:0.323203,0.359690,0.101001,0.454504,0.020200,224.000000,214.000000,10.000000,45.000000,0.000000,0.000000,0.000000,0.000000,0.000000,0.323203,0.359690,0.101001,0.454504,0.020200,224.000000,214.000000,10.000000,45.000000,0.000000,0.000000,0.000000,0.000000,0.000000;
#CREDIT:;
#DISPLAYBPM:128.000000;
#NOTES:
0000
0000
0000
0000
,
0000
0000
0000
0000
,
0000
0000
0000
0000
,
0000
0000
0000
0000
,
0000
0000
0000
0000
,
0220
0000
0000
0330
,
1000
1000
0100
0000
0001
1000
0100
0000
,
2000
3100
0002
0103
,
0010
0100
0001
1000
2002
0000
3003
0000
,
0020
0000
0130
0000
0010
1000
0100
0000
,
0200
0000
0310
0000
1000
0010
0100
0001
,
1000
0100
0010
0000
0001
0010
0100
0000
,
0010
0000
0000
0010
0000
0000
0100
0000
1000
0000
0000
0010
0000
0000
0100
0000
,
0002
0000
0103
0000
1000
0001
0100
0000
,
2000
0000
3100
0000
0010
1000
0100
0000
,
0001
0002
1000
2003
,
3020
0130
0200
0300
,
0020
0000
0130
0000
1000
0001
0010
0000
,
0002
0000
0103
0000
1000
0100
0010
0000
,
1000
0010
0100
0000
2000
0000
3010
0000
,
0010
0000
0000
1000
0000
0000
0100
0000
0001
0000
0000
0100
0000
0000
0010
0000
,
0020
0030
0002
0103
,
2000
3000
0200
0301
,
0020
0001
0031
0000
0200
1000
1300
0000
,
0001
1000
1001
0110
,
0000
0000
0200
0000
0301
1000
0001
0000
,
0020
0031
0100
0100
,
1000
0010
0100
0001
1000
0010
0100
0000
,
0001
1001
0100
0110
,
0000
0000
0002
0000
1003
0100
0010
0000
,
2000
3100
0020
0031
,
0200
0300
1001
0100
,
2000
0000
3002
0000
0013
1000
0100
0000
,
0000
0000
0020
0000
1030
0010
0100
0000
,
2002
3003
0100
1001
,
0020
0030
2000
3100
,
0010
0010
0001
0000
0010
0001
0100
0000
,
2000
0000
3200
0000
0310
0001
0100
0000
,
0010
1000
0100
1000
0010
0001
0100
0000
,
0002
1000
0200
0003
,
0000
0000
0300
0000
0001
1000
1001
0000
,
0000
0000
1000
0100
0001
0100
1000
0100
,
0001
0001
0100
0100
,
0010
1000
0100
1000
0002
0000
0103
0000
,
1000
0000
0100
0000
0001
1000
0020
0000
,
0030
0000
0001
0100
1000
0100
0001
0100
,
0010
0000
0010
0001
1000
0000
1000
0000
,
0010
0001
0100
0001
0020
0000
0130
0000
,
1000
0100
0001
0010
,
2000
3100
0002
0013
,
1000
0001
1000
0010
0000
1000
0000
0100
;

//---------------dance-double - ----------------
#NOTEDATA:;
#CHARTNAME:;
#STEPSTYPE:dance-double;
#DESCRIPTION:;
#CHARTSTYLE:;
#DIFFICULTY:Easy;
#METER:4;
#RADARVALUES:0.176030,0.231797,0.050500,0.060601,0.000000,122.000000,117.000000,5.000000,6.000000,0.000000,0.000000,0.000000,0.000000,0.000000,0.176030,0.231797,0.050500,0.060601,0.000000,122.000000,117.000000,5.000000,6.000000,0.000000,0.000000,0.000000,0.000000,0.000000;
#CREDIT:;
#DISPLAYBPM:128.000000;
#NOTES:
00000000
00000000
00000000
00000000
,
00000000
00000000
00000000
00000000
,
00000000
00000000
00000000
00000000
,
00000000
00000000
00000000
00000000
,
00000000
00000000
00000000
00000000
,
00010000
00000000
00000000
00000000
,
10000000
00000000
10000000
00000000
,
00100000
00000000
01000000
00000000
,
00010000
10000000
00010000
00000000
,
10010000
00000000
00000000
00000000
,
00010000
00000000
00001000
00000000
,
00000010
00000010
00000100
00000000
,
00000001
00000000
00001000
00000000
,
00000100
00000000
00000100
00000000
,
00000010
00000001
00000100
00000000
,
00001000
00000000
00001000
00000000
,
00010000
00010000
01000000
10000000
,
10000000
00000000
00000000
00000000
,
00010000
00000000
01000000
00000000
,
00100000
00000000
10000000
00000000
,
10000000
01000000
01000000
00010000
,
00010000
00000000
00001000
00000000
,
00001000
00000010
00000001
00000100
,
00000200
00000000
00000000
00000300
,
00000020
00000000
00000000
00000030
,
00001001
00000000
00000100
00000000
,
00000001
00000100
00001000
00001000
,
00000000
00010000
00100000
00100000
,
00000000
01000000
00010000
10000000
,
00000000
10000000
00000000
00010000
,
00100000
00100000
01000000
01000000
,
20000000
00000000
00010000
30000000
,
00020000
00030000
01000000
01000000
,
10010000
00000000
01000000
00000000
,
01000000
00010000
00001000
00010000
,
00000000
00001000
00000000
00001000
,
00000010
00000001
00000100
00000100
,
00000000
00000100
00000001
00001000
,
00000000
00000010
00001000
00000001
,
00002002
00000000
00000000
00003003
,
00000000
00000000
00000100
00000100
,
00000000
00000001
00000000
00000100
,
00000000
00001000
00010000
01000000
,
00000000
10000000
00000000
10000000
,
00000000
00010000
10000000
01000000
,
00000000
10000000
00000000
00010000
,
00000000
00100000
00000000
01000000
,
00000000
10000000
10000000
00010000
,
00010000
00100000
01000000
10000000
,
00000000
01000000
00010000
00010000
,
00001000
00001000
00000010
00000100
,
00001001
00000000
00000000
00000000
;

//---------------dance-double - ----------------
#NOTEDATA:;
#CHARTNAME:;
#STEPSTYPE:dance-double;
#DESCRIPTION:;
#CHARTSTYLE:;
#DIFFICULTY:Medium;
#METER:6;
#RADARVALUES:0.265488,0.308305,0.050500,0.070701,0.000000,184.000000,179.000000,5.000000,7.000000,0.000000,0.000000,0.000000,0.000000,0.000000,0.265488,0.308305,0.050500,0.070701,0.000000,184.000000,179.000000,5.000000,7.000000,0.000000,0.000000,0.000000,0.000000,0.000000;
#CREDIT:;
#DISPLAYBPM:128.000000;
#NOTES:
00000000
00000000
00000000
00000000
,
00000000
00000000
00000000
00000000
,
00000000
00000000
00000000
00000000
,
00000000
00000000
00000000
00000000
,
00000000
00000000
00000000
00000000
,
00000001
00000000
00000001
00000000
,
00001000
00001000
00001000
00000000
,
00001000
00000000
00000001
00000000
,
00000100
00001000
00011000
00000000
,
00100000
10000000
01000000
00000000
,
10000000
00100000
00010000
00001000
,
00001000
00000010
00000001
00000100
,
00000010
00000000
00001000
00000000
,
00000100
00000100
00000010
00000001
,
00001000
00000000
00000100
00000000
,
00000001
00000100
00001000
00100000
,
01000000
00000000
10000000
00000000
00100000
01000000
00100000
00000000
,
10000000
00010000
00100000
00000000
,
01000000
10000000
00100000
00010000
,
00001000
00000010
00000100
00001000
,
00001000
00000100
00000010
00000001
,
00001000
00000001
00000100
00001000
,
00010000
01000000
10000000
10000000
,
00100000
00100000
01000000
01000000
,
00010000
10000000
00010000
00000000
00200000
00000000
01300000
00000000
,
10010000
00000000
01000000
00000000
00100000
10000000
01000000
00000000
,
00010000
00000000
00001000
00000000
00001000
00000100
00000001
00000000
,
00000010
00000010
00000100
00000100
,
00001000
00000010
00000100
00000001
,
00001000
00001000
00000001
00000001
,
00000010
00001000
00010000
00010000
,
01000000
10000000
00010000
01000000
,
00100000
00000000
10000000
00000000
00010000
00010000
00010000
00000000
,
20000000
01000000
30100000
01000000
,
00002000
00100000
00013000
00001000
,
00000010
00000001
00000100
00000010
,
00001000
00000001
00000100
00000000
00001000
00000000
00100000
00000000
,
01000000
10000000
00010000
00010000
,
10000000
00010000
10000000
00000000
00100000
00010000
00001000
00000000
,
00000020
00000000
00000000
00000200
00000000
00000000
00000330
00000000
,
00000001
00000000
00001000
00000000
00000100
00000100
00000100
00000000
,
00001001
00000100
00000010
00000001
,
00000100
00001000
00010000
01000000
,
10000000
10000000
00100000
00100000
,
01000000
00000000
01000000
00000000
00010000
00100000
01000000
00000000
,
10010000
01000000
00100000
10000000
,
01000000
00010000
00001000
00000100
,
00000001
00000001
00001000
00001000
,
00000100
00000010
00000001
00000001
,
00000200
00000000
00002000
00003300
,
00010000
00000000
00100000
00000000
01000000
00010000
00000000
11000000
;

//---------------dance-double - ----------------
#NOTEDATA:;
#CHARTNAME:;
#STEPSTYPE:dance-double;
#DESCRIPTION:;
#CHARTSTYLE:;
#DIFFICULTY:Hard;
#METER:8;
#RADARVALUES:0.333303,0.359690,0.111101,0.080801,0.020200,231.000000,220.000000,11.000000,8.000000,0.000000,0.000000,0.000000,0.000000,0.000000,0.333303,0.359690,0.111101,0.080801,0.020200,231.000000,220.000000,11.000000,8.000000,0.000000,0.000000,0.000000,0.000000,0.000000;
#CREDIT:;
#DISPLAYBPM:128.000000;
#NOTES:
00000000
00000000
00000000
00000000
,
00000000
00000000
00000000
00000000
,
00000000
00000000
00000000
00000000
,
00000000
00000000
00000000
00000000
,
00000000
00000000
00000000
00000000
,
00010000
01000000
10000000
01000000
,
00010000
00000000
00010000
00000000
10000000
00010000
10000000
00000000
,
01100000
10000000
00100000
00010000
,
00001000
00000010
00000100
00000000
00002002
00000000
00003003
00000000
,
00000110
00000000
00000001
00000000
00000010
00000100
00001000
00000000
,
00000001
00000100
00001000
00010000
,
01000000
10000000
10000000
00010000
,
00100000
00000000
00000000
00100000
00000000
00000000
01000000
00000000
10000000
00000000
00000000
00100000
00000000
00000000
00010000
00000000
,
00001000
00000010
00000001
00001000
,
00000010
00000000
00000100
00000000
00000001
00001000
00000100
00000000
,
00000010
00000001
00000100
00001000
,
00010000
00000000
01000000
00000000
10000000
00010000
10000000
00000000
,
00100000
00000000
00100000
00000000
01000000
00010000
10000000
00000000
,
10000000
01000000
00010000
00000100
,
00000010
00000000
00000100
00000000
00001000
00000001
00001000
00000000
,
00000010
00000000
00000000
00000100
00000000
00000000
00000001
00000000
00000010
00000000
00000000
00000100
00000000
00000000
00001000
00000000
,
00000001
00000100
00001000
00100000
,
01000000
00000000
10000000
00000000
00010000
10000000
01000000
00000000
,
00210000
01000000
00010000
01300000
,
10200000
01000000
10000000
01300000
,
10010000
01000000
00010000
00001000
,
00001000
00000000
00000100
00000000
00000001
00000010
00001000
00000000
,
00000010
00000000
00000001
00000000
00001000
00000010
00000100
00000000
,
00000001
00000010
00000100
00000000
00001000
00000000
00100000
00000000
,
01000000
00010000
10000000
00000000
01000000
10000000
00010000
00000000
,
10000000
00000000
10000000
00000000
00100000
00010000
00001000
00000000
,
00000210
00000000
00000000
00000002
00000000
00000000
00000300
00000000
,
00000000
00000000
00000003
00000000
00000010
00000100
00001000
00000000
,
00001001
00000000
00000010
00000000
00001000
00010000
00001000
00000000
,
00010000
00100000
10000000
00010000
00100000
01000000
10000000
00000000
,
00100000
00100000
01000000
01000000
,
00010000
10000000
01000000
00000000
01000000
00010000
00001000
00000000
,
00000010
00000000
00000001
00000000
00001000
00000100
00001000
00000001
,
00000010
00000100
00001000
00000001
,
00000200
00000000
00000000
00002000
00000000
00000000
00003300
00000000
,
00100000
00000000
01000000
00000000
10000000
00010000
01000000
00000000
,
10010000
00000000
01000000
00000000
00100000
10000000
01000000
00100000
,
00010000
10000000
00100000
00010000
,
00001000
00000000
00000010
00000000
00000001
00000100
00000010
00001000
,
00000100
00000000
00000010
00000001
00000100
00000000
00000100
00000000
,
00001000
00010000
01000000
00000000
10000000
00100000
01000000
00000000
,
00010000
00000000
10000000
00000000
10000000
00010000
10000000
00000000
,
01000000
00010000
00000010
00000100
,
00000001
00001000
00000100
00000010
00001000
00010000
00001000
00000000
,
00001000
00010000
01000000
10000000
00000000
00100000
01000000
00010000
,
00000000
00001000
00000010
00000100
00000000
00001001
00000000
00000110
;

//---------------dance-single - ----------------
#NOTEDATA:;
#CHARTNAME:;
#STEPSTYPE:dance-single;
#DESCRIPTION:;
#CHARTSTYLE:;
#DIFFICULTY:Challenge;
#METER:11;
#RADARVALUES:0.500676,0.513842,0.171702,0.161601,0.136351,347.000000,330.000000,17.000000,16.000000,0.000000,0.000000,0.000000,0.000000,0.000000,0.500676,0.513842,0.171702,0.161601,0.136351,347.000000,330.000000,17.000000,16.000000,0.000000,0.000000,0.000000,0.000000,0.000000;
#CREDIT:;
#DISPLAYBPM:128.000000;
#NOTES:
// measure 0
0000
0000
0000
0000
,  // measure 1
0000
0000
0000
0000
,  // measure 2
0000
0000
0000
0000
,  // measure 3
0000
0000
0000
0000
,  // measure 4
0000
0000
0000
0000
,  // measure 5
0002
0100
1000
0000
0100
0000
0100
0000
,  // measure 6
1000
0010
1000
0103
,  // measure 7
2010
0100
0010
3100
,  // measure 8
1100
0000
0000
0000
0001
0000
0000
0000
1000
0000
0001
0100
0001
0100
0001
0000
,  // measure 9
0020
0000
0130
0000
1000
0010
0001
0100
,  // measure 10
0010
0000
0000
0010
1000
0000
0001
0000
0100
0000
0000
0100
0000
0000
0100
0000
,  // measure 11
0001
0000
0000
0001
1000
0000
0100
0000
0010
0000
0000
0010
0001
0000
0000
0000
,  // measure 12
1000
0000
0000
1000
0000
0000
1000
0000
0001
0000
0000
0100
0000
0000
0100
0000
,  // measure 13
0020
1000
0130
0010
1000
0001
0100
0000
,  // measure 14
0101
0000
0000
0100
0001
0000
1000
0000
0001
0000
0010
0000
0100
0000
0000
0000
,  // measure 15
1000
0000
0000
0001
0100
0000
0001
1000
0001
0000
0000
0010
0100
0000
1000
0000
,  // measure 16
0020
0000
0100
0000
0130
0000
0010
0000
2000
0000
0001
0000
3001
0100
0001
0000
,  // measure 17
1000
0000
0000
0001
1000
0000
0010
0000
0100
0000
0001
0000
0010
0100
0010
0000
,  // measure 18
0002
0000
1000
0000
1003
0000
0010
0000
0100
0000
0000
0001
1000
0000
0001
0000
,  // measure 19
0200
0000
0310
1000
0100
0010
0001
1000
,  // measure 20
0010
0000
0000
0100
0000
0000
0001
0000
1000
0000
0000
0001
0000
0000
0010
0000
,  // measure 21
0011
0000
0000
0001
1000
0000
0010
0000
1000
0000
0100
0000
0001
0000
0000
0000
,  // measure 22
0110
0000
0000
0010
0100
0000
0001
0000
1000
0000
0100
0010
0100
0000
0000
0000
,  // measure 23
1000
0010
0100
0001
0010
1000
0010
0001
,  // measure 24
0100
0010
0100
1000
0100
0001
1000
0000
,  // measure 25
1001
0010
0100
0002
1000
0103
1000
0001
,  // measure 26
0010
0001
1000
0020
0100
0130
0001
0000
,  // measure 27
0010
0001
0100
1000
0100
0010
0100
0001
,  // measure 28
0010
1000
0010
0001
0200
0000
0310
0100
,  // measure 29
0000
0001
0001
1000
0100
0010
0100
1000
,  // measure 30
0010
0100
0001
1000
0100
1000
0010
0001
,  // measure 31
0100
0010
0100
1000
0100
0001
0010
0100
,  // measure 32
1000
0001
0100
0010
0110
0110
0110
0000
,  // measure 33
1001
0100
0001
0010
1000
0010
0001
0100
,  // measure 34
0010
1000
0001
1000
0100
0010
0001
1000
,  // measure 35
0000
0010
0010
0100
0010
1000
0001
0010
,  // measure 36
1000
0010
0001
1000
0020
0000
0130
0001
,  // measure 37
0000
1000
0010
1000
0100
0001
0100
1000
,  // measure 38
0010
0100
0001
1000
0000
0100
0010
0001
,  // measure 39
1000
0010
0100
0010
1000
0001
0010
0100
,  // measure 40
0001
0100
1000
0010
1010
1010
1010
0000
,  // measure 41
0101
0010
1000
0200
0000
0301
0100
1000
,  // measure 42
0010
0000
1000
0000
0100
0000
0001
0000
0020
0000
0000
0000
0130
1000
0000
0100
,  // measure 43
1000
0001
0010
0100
1000
0010
1000
0001
,  // measure 44
0100
0000
1000
0000
0100
0000
0001
0000
0010
0000
0000
0000
0001
1000
0000
0001
,  // measure 45
1000
0010
0100
0001
0000
0001
0010
1000
,  // measure 46
0000
0000
0100
0000
0010
0000
0001
0000
1000
0000
0000
0000
0010
0100
0000
0010
,  // measure 47
0100
0001
0010
1000
0010
0001
0100
0010
,  // measure 48
1000
0100
0010
0001
0100
0010
1000
0000
,  // measure 49
1100
1000
0001
0200
0000
0310
1000
0002
,  // measure 50
0000
0013
0001
0100
0000
0110
0000
0101
;
