#TITLE:Sakura Luminance;
#ARTIST:Ryu*;
#BANNER:Sakura Luminance-bn.png;
#BACKGROUND:Sakura Luminance-bg.png;
#JACKET:Sakura Luminance-jacket.png;
#MUSIC:Sakura Luminance.ogg;
#SAMPLESTART:96.002;
#SAMPLELENGTH:20;
#DISPLAYBPM:170;
#BPMS:0=170;
#BGCHANGES:;

//---------------dance-single - ----------------
#NOTES:
     dance-single:
     :
     Beginner:
     3:
     :
0000
0000
0000
0000
,
0000
0000
0000
0000
,
0000
0000
0000
0000
,
0000
0000
0000
0000
,
0000
0000
0000
0000
,
0010
0000
0000
0000
,
1000
0000
0000
0000
,
0100
0000
0000
0000
,
0001
0000
0000
0000
,
0010
0000
0000
0000
,
1000
1000
1000
0000
,
0001
0000
0010
0000
,
0100
0100
0100
0000
,
0000
1000
1000
0000
,
0001
0001
0001
0000
,
0010
0000
0001
0000
,
1000
1000
1000
0000
,
0000
0010
0010
0000
,
1000
0000
0000
0001
,
0000
0000
0010
0000
,
0100
0000
0000
1000
,
0000
0001
0001
0000
,
0100
0000
0000
0001
,
0000
0000
1000
0000
,
0100
0000
0000
0010
,
0000
0001
0001
0000
,
0000
0020
0000
0000
,
0000
0000
0000
0030
,
0000
1000
0000
1000
,
0000
0001
0000
0001
,
0000
0200
0000
0000
,
0000
0000
0000
0300
,
0000
0001
0000
0010
,
0000
0001
0000
0100
,
0000
2000
0000
0000
,
0000
0000
0000
3000
,
0000
0001
0000
0001
,
0000
0010
0000
0010
,
0000
0002
0000
0000
,
0000
0000
0003
0000
,
0100
0000
0000
0000
,
0010
0000
0100
0000
,
2002
0000
0000
0000
,
0000
0000
0000
3003
,
0000
0000
0000
0000
,
0000
0000
0000
0000
,
0220
0000
0000
0000
,
0000
0000
0000
0330
,
0000
0000
0000
0000
,
0000
0000
0000
0000
,
0001
0000
0000
0000
,
1000
0000
0000
0000
,
0001
0000
0000
0000
,
0010
0000
0000
0000
,
0100
0000
0000
0000
,
1000
0000
0000
0000
,
0010
0000
0000
0000
,
0100
0000
0000
0000
,
0001
0000
0001
0000
,
0001
0000
0000
0000
,
0010
0000
0010
0000
,
0010
0000
0000
0000
,
1000
0000
1000
0000
,
1000
0000
0000
0000
,
0100
0000
0100
0000
,
0100
0000
0000
0000
,
0010
0010
0010
0010
,
0000
0000
0000
0000
,
0001
0000
1000
0000
,
0100
0100
0100
0000
,
1000
0000
0001
0000
,
0010
0010
0010
0000
,
0100
0000
0010
0000
,
0001
0001
0001
0000
,
1000
0000
0001
0000
,
1000
1000
1000
0000
,
0001
0000
0000
0010
,
0000
0000
1000
0000
,
0001
0000
0100
0100
,
0000
0010
0010
0000
,
1000
0000
0000
0100
,
0000
0000
0001
0000
,
1000
0000
0001
0001
,
0000
0100
0100
0000
,
0010
0000
0000
0000
;

//---------------dance-single - ----------------
#NOTES:
     dance-single:
     :
     Easy:
     7:
     :
0000
0000
0000
0000
,
0000
0000
0000
0000
,
0000
0000
0000
0000
,
0000
0000
0000
0000
,
0000
0000
0000
0000
,
0010
0000
1000
0000
,
0100
0010
0001
0100
,
0001
0000
0010
0000
,
1000
0100
0001
0000
,
0100
0010
1000
1001
,
0010
1000
0100
0010
,
0001
0100
0001
1000
,
0001
0010
1000
0001
,
1000
0100
0020
0030
,
0001
0010
0001
0100
,
1000
0010
1000
0001
,
1000
0100
0010
0001
,
0000
1000
0001
1000
0001
0000
1001
0000
,
0110
1000
0100
0110
,
0001
0100
1000
0001
,
0011
0100
1000
2020
,
3030
0000
0001
1000
0001
0000
0000
0000
,
0110
0001
0010
0110
,
1000
0010
1000
0001
,
1100
0010
0001
0202
,
0303
1000
0001
1000
0001
0000
0000
0000
,
0010
1000
0100
0001
,
0000
0010
0000
0100
,
0000
0010
0000
0001
,
0000
1000
0000
0001
,
0100
0010
0100
0001
,
0000
0010
0000
1000
,
0000
0001
0000
1000
,
0010
0010
0010
0010
,
0100
0001
0010
1000
,
0000
0001
0000
0010
,
0000
0001
0000
0100
,
0000
1000
0100
0010
,
0001
0100
0000
0100
,
0000
0010
0000
0010
,
2000
0000
0000
0000
,
0001
0001
0001
3001
,
2002
0000
0000
0000
,
0000
0000
0000
3003
,
0000
0000
0000
0000
,
0000
0000
0000
0000
,
0220
0000
0000
0000
,
0000
0000
0000
0330
,
0000
0000
0000
0000
,
0000
0000
0000
0000
,
0001
0000
1000
0000
,
0010
0000
0100
0000
,
0010
0000
0001
0000
,
0100
0001
0010
0000
,
1000
0000
0100
0000
,
1000
0000
0001
0000
,
0010
0000
0001
0000
,
0100
0010
1000
0000
,
0001
0010
1000
0000
,
0100
0000
0010
0000
,
0100
0000
1000
0000
,
0001
0010
1000
0000
,
0001
0100
0001
0000
,
1000
0000
0100
0000
,
0010
0000
0001
0000
,
0100
0010
1000
0000
,
0010
0010
0010
0010
,
0200
0000
0000
0301
,
1000
0010
1000
0001
,
0010
0100
1000
0010
,
1000
0100
0001
0010
,
0100
1000
0002
0003
,
0010
0001
0010
1000
,
0100
0010
0100
1000
,
0001
0010
1000
0001
,
0100
0010
2000
3000
,
1001
0010
1000
1001
,
0010
0001
0100
1000
,
1010
0100
0001
0022
,
0033
0000
1000
0001
1000
0000
0110
0000
,
1001
0100
1000
1001
,
0100
0001
1000
0100
,
1010
1000
0100
0202
,
0303
1000
0001
1000
0001
0000
1001
0000
,
0020
0000
0000
0000
,
0000
0000
0000
0030
;

//---------------dance-single - ----------------
#NOTES:
     dance-single:
     :
     Medium:
     12:
     :
0000
0000
0000
0000
,
0000
0000
0000
0000
,
0000
0000
0000
0000
,
0000
0000
0000
0000
,
0000
0000
0000
0000
,
0010
0000
1000
0001
1000
0100
0010
0000
,
0001
0100
0001
0000
1000
0100
1000
0000
,
0010
0000
1000
0001
0010
0100
1000
0000
,
0001
0100
0010
1000
0002
0000
0003
0000
,
0010
0000
0000
0010
0000
0000
0001
0000
1000
0000
0001
0000
0100
0000
0000
0000
,
0110
0000
1001
0000
0010
1000
0100
0001
,
0000
1000
0100
0010
0001
0100
0001
1000
,
0010
0000
0101
0000
1000
0001
1000
0010
,
0000
1000
0100
0010
0002
0000
0003
0000
,
0011
0000
1100
0000
0001
0010
1000
0100
,
0000
1000
0001
0010
0001
0100
0010
1000
,
0100
0000
1010
0000
0001
0010
1000
0100
,
0000
1000
1000
0001
0002
0000
0103
0000
,
0001
0010
1000
0010
0002
0000
1003
0010
,
0001
0010
2000
0000
3100
0010
0001
1000
,
0010
0001
0010
0100
0010
1000
0020
0000
,
0000
0130
0001
1000
0100
0000
1001
0000
,
0001
0100
1000
0100
0002
0000
1003
0100
,
0001
0100
2000
0000
3001
0010
1000
0100
,
0010
1000
0010
0100
0010
0001
0020
0000
,
0000
0031
0001
1000
1000
0000
1001
0000
,
0010
0000
0000
2000
0000
0000
0001
0000
0000
0000
0100
0000
0000
0000
0010
0000
,
0000
3100
0001
1000
0000
0010
1000
0100
,
0000
0010
0000
0001
0000
0100
0001
1000
,
0000
0010
1000
0100
0000
0010
0001
0100
,
0001
0000
0000
2000
0000
0000
0100
0000
0000
0000
0010
0000
0000
0000
0001
0000
,
0000
3100
0010
0001
0000
0100
0010
1000
,
1001
0000
0010
1000
0000
0001
0010
0001
,
0200
0320
2030
3002
,
0013
0000
0000
0200
0000
0000
1000
0000
0000
0000
0001
0000
0000
0000
1000
0000
,
0000
0310
0001
0100
0000
0010
1000
0001
,
0000
0100
0000
0001
0000
1000
0010
0001
,
0000
0100
0010
1000
0000
0001
0010
0100
,
1100
0000
0000
0001
0000
0000
0010
0000
0000
0000
0001
0000
0100
0000
1000
0000
,
0000
0010
0000
1000
0000
0100
0010
0001
,
0101
0000
0010
1000
0000
0100
0000
0001
,
0010
0100
1000
0010
0100
0001
1000
0000
,
2002
0000
0000
0000
,
0000
0000
0000
0000
,
0000
0000
0000
0000
,
0000
0000
0000
3003
,
0220
0000
0000
0000
,
0000
0000
0000
0000
,
0000
0000
0000
0000
,
0000
0000
0000
0330
,
0001
0010
1000
0100
,
1000
0010
0100
0010
1000
0100
0010
0001
,
0100
0001
0010
1000
,
0100
0010
0100
1000
0002
0000
0003
1000
,
0001
1000
0100
0010
,
0001
0100
0001
0010
0100
1000
0010
0001
,
1000
0001
0010
0100
,
0010
0001
1000
0001
0200
0000
0300
0000
,
0001
0000
0010
0000
0001
0100
1000
0000
,
0001
0010
0001
0010
0100
1000
0010
0100
,
0010
0000
1000
0000
0100
0010
0001
0000
,
1000
0001
0010
0100
2000
0000
3000
0001
,
0011
0000
0100
1000
0010
1000
0100
0000
,
0010
0100
1000
0010
1000
0001
1000
0100
,
0010
0000
0001
0000
0100
0010
1000
0000
,
0001
0010
0001
0100
2000
0000
3000
0000
,
0100
0010
0100
0010
0100
0010
0100
0010
,
0001
0001
0001
0110
,
1001
0000
0010
1000
0100
0010
0001
1000
,
0001
0100
0010
0100
0001
0010
0100
1000
,
0010
0000
1000
0001
1000
0010
1000
0100
,
0001
0010
1000
0001
0200
0010
0310
0000
,
1010
0000
0100
0001
0010
0001
1000
0100
,
0010
0100
0010
0001
0100
0010
1000
0001
,
1000
0000
0001
0010
0001
0100
1000
0001
,
1000
0010
0001
0100
0010
0000
0101
0000
,
1000
0010
0001
0010
2000
0000
3001
0010
,
1000
0010
0002
0000
1003
0100
0001
0010
,
0100
0001
0100
0010
0100
1000
0200
0000
,
0000
0310
0001
0100
1000
0000
1001
0000
,
1000
0100
0001
0100
2000
0000
3001
0010
,
1000
0010
0002
0000
0103
0010
1000
0001
,
0010
1000
0010
0100
0010
0001
0020
0000
,
0000
0031
0001
1000
1000
0000
1001
0000
,
0020
0000
0000
0000
,
0000
0000
0000
0030
;

//---------------dance-single - ----------------
#NOTES:
     dance-single:
     :
     Hard:
     15:
     :
0000
0000
0000
0000
,
0000
0000
0000
0000
,
0000
0000
0000
0000
,
0000
0000
0000
0000
,
0000
0000
0000
0000
,
0010
0000
0000
0000
1000
0000
0100
0000
0010
0001
0000
0100
0000
0001
0000
1000
,
0010
0100
0001
0100
1000
0100
0001
0100
,
0010
0000
0000
0000
1000
0000
0001
0000
0010
0100
0000
1000
0000
0001
0000
1000
,
0100
0010
0001
0100
2000
0000
3000
0000
,
0001
0000
1000
0010
0000
1000
0100
0010
0001
1000
0001
0000
0100
0010
0000
0000
,
1001
0000
0101
0000
1000
0100
0010
0001
,
0100
0010
0100
1000
0100
0001
0010
0100
,
1100
0000
0011
0000
0100
0001
0010
0100
,
0001
0100
1000
0010
0200
0001
0301
0000
,
1010
0000
0110
0000
1000
0001
0010
0100
,
1000
0010
0100
1000
0100
0001
0100
0010
,
0110
0000
1001
0000
0001
0010
0100
1000
,
0000
0000
1100
0000
1010
0000
0101
0000
0011
0000
0000
0000
0100
0010
0000
0000
,
1001
0000
0010
0000
1000
0100
1000
0000
0001
0000
0000
0000
0011
0000
0100
0000
,
1000
0010
1000
0000
0001
0000
0000
0000
0100
0001
0010
0000
0100
1000
0010
0000
,
0110
0000
0001
0000
0010
0100
1000
0000
0001
0000
0100
0000
2010
0000
0000
0000
,
3001
0000
0100
0000
0010
0000
1000
0000
0100
0010
0100
0000
1001
0000
0000
0000
,
1100
0000
0010
0000
0001
0100
0001
0000
1000
0000
0000
0000
0101
0000
0010
0000
,
0100
0001
0100
0000
1000
0000
0000
0000
0001
0010
0100
0000
1000
0010
0100
0000
,
0110
0000
0001
0000
0010
0100
1000
0000
0100
0000
0001
0000
0012
0000
0100
0000
,
0003
1100
0110
0011
1001
0000
0110
0000
,
0001
0000
1000
0010
1000
0000
0100
0000
0000
0000
0001
0000
0010
0000
1000
0000
,
0000
0100
0010
0001
1000
0001
1000
0010
,
0000
0100
0001
1000
0000
0001
0010
0100
,
0000
1000
0001
0010
0001
0100
1000
0010
,
0100
0000
0001
0010
0001
0000
1000
0000
0010
0000
1000
0000
0100
0000
0001
0000
,
0000
1000
0001
0010
0000
0001
0100
1000
,
1100
0000
0001
0000
0010
0000
1000
0000
0000
0000
0100
0000
0010
0000
0001
1000
,
0001
0100
0001
0010
1000
0100
1000
0010
,
0100
0000
0001
0010
0100
0000
1000
0000
0010
0000
0100
0000
0010
0000
1000
0000
,
0100
0001
0100
1000
0100
0010
0100
0001
,
0010
1000
0100
1000
0010
0001
1000
0001
,
0010
0100
1000
0010
1000
0001
1000
0100
,
0011
0000
0100
1000
0001
0000
0010
0000
0001
0000
0100
0000
1000
0000
0001
0000
,
0000
0000
1000
0100
1000
0000
0001
0000
0000
0000
0100
0010
0100
0000
0001
0000
,
1010
0000
0100
0001
0100
0000
0001
0010
0001
0000
1000
0100
1000
0000
0001
0000
,
0010
0000
0100
1000
0100
0000
1000
0001
1000
0000
0010
0100
0001
0000
1000
0000
,
2002
0000
0000
0000
,
0000
0000
0000
0000
,
0000
0000
0000
0000
,
0000
0000
0000
3003
,
0220
0000
0000
0000
,
0000
0000
0000
0000
,
0000
0000
0000
0000
,
0000
0000
0000
0330
,
0100
0000
0000
0000
0001
0000
0010
0000
0001
0100
0000
0010
0000
1000
0000
0100
,
1000
0001
0010
0100
1000
0001
1000
0010
,
0100
0000
0000
0000
0010
0000
1000
0000
0100
0010
0000
0001
0000
1000
0000
0100
,
1000
0001
0010
0100
2000
0000
3000
0001
,
1000
0000
0000
0000
0010
0000
1000
0000
0100
0010
0000
0001
0000
0100
0000
0001
,
1000
0100
0001
0010
0100
0010
0001
1000
,
0010
0000
0000
0000
1000
0000
0100
0000
0001
1000
0000
0001
0000
0010
0000
0100
,
1000
0010
0001
0100
0020
0000
0030
0000
,
0101
0000
0000
0000
1000
0000
0001
0000
1000
0100
0000
0010
0000
0001
0000
0100
,
0001
0010
1000
0100
1000
0001
1000
0010
,
0100
0000
0000
0000
0001
0000
0010
0000
1000
0100
0000
0010
0000
0100
0000
1000
,
0010
0000
0001
0000
0100
0000
1000
0000
0002
0000
0000
0000
1003
0100
0010
0001
,
0100
0000
0000
0000
0010
0000
1000
0000
0100
0010
0000
0100
0000
1000
0000
0001
,
1000
0001
0010
1000
0100
0010
0100
0001
,
0010
0000
0000
0000
0100
0000
1000
0000
0010
1000
0000
0100
0000
0001
0000
1000
,
0010
0000
1000
0000
0100
0000
0001
0000
1000
0010
0100
0001
0010
0100
1000
0000
,
0110
0000
0110
0000
1000
0001
0010
0000
0001
1000
0010
0000
1000
0001
0010
0000
,
0100
1000
0100
1000
0100
1000
0100
1000
0100
1000
0100
0000
0010
0001
0000
0000
,
0100
0000
0000
0000
0001
0000
0010
0000
1000
0100
0000
0010
0000
0001
0000
0100
,
0001
0000
0010
0000
1000
0000
0100
0000
1000
0010
0100
0000
0001
0000
1000
0000
,
0001
0000
0000
0000
0010
0000
0100
0000
1000
0010
0000
1000
0000
0001
0000
0010
,
0100
1000
0001
0000
0100
0001
1000
0000
0010
0000
0100
0001
0100
0000
0000
0000
,
0010
0000
0000
0000
1000
0000
0100
0000
1000
0001
0000
0010
0000
0100
0000
1000
,
0010
0000
0100
0000
0001
0000
0010
0000
1000
0100
0010
0000
0001
0000
1000
0000
,
1001
0000
0000
0000
0001
0000
0010
0000
1000
0100
0000
0010
0000
0001
0000
0100
,
0010
0000
1000
0000
0100
0000
0001
0000
0012
0000
0000
0000
1003
0001
0000
0000
,
1010
0000
0001
0000
1000
0100
0010
0000
0001
0000
0000
0000
0101
0000
0010
0000
,
1000
0001
0010
0000
0100
0000
0000
0000
1000
0010
1000
0000
0001
0010
0001
0000
,
1100
0000
1000
0000
0010
0100
0001
0000
0100
0000
1000
0000
2001
0000
0000
0000
,
3010
0000
1000
0000
0100
1000
0010
0000
0001
0000
1000
0100
1000
0000
0000
0000
,
0011
0000
0001
0000
1000
0100
0010
0000
0001
0000
0000
0000
0110
0000
0001
0000
,
0100
0010
1000
0000
0100
0000
0000
0000
0001
0010
0001
0000
1000
0010
1000
0000
,
0101
0000
0010
0000
1000
0100
0010
0000
0001
0000
1000
0000
1100
0000
0000
0000
,
0000
0000
1010
0000
0101
0000
0011
0000
1100
0000
0000
0000
1000
0001
1000
0001
,
0020
0000
0000
0000
,
0000
0000
0000
0030
;
