#TITLE:SWING IT;
#SUBTITLE:;
#ARTIST:BUSā˜…STOP;
#TITLETRANSLIT:;
#SUBTITLETRANSLIT:;
#ARTISTTRANSLIT:;
#GENRE:;
#CREDIT:;
#BANNER:SWING IT-bn.png;
#BACKGROUND:SWING IT-bg.png;
#LYRICSPATH:;
#CDTITLE:;
#MUSIC:SWING IT.ogg;
#OFFSET:0.036000;
#SAMPLESTART:32.891998;
#SAMPLELENGTH:20.000000;
#SELECTABLE:YES;
#DISPLAYBPM:178.000000;
#BPMS:0.000000=178.024994
,228.000000=188.000000
,230.000000=171.500000
,231.500000=192.000000
,233.000000=183.500000
,234.000000=178.000000
,236.000000=186.000000
;
#STOPS:
;
#BGCHANGES:;
#KEYSOUNDS:;
#ATTACKS:;

//---------------dance-single - ----------------
#NOTES:
     dance-single:
     :
     Beginner:
     2:
     0.119049,0.177085,0.023810,0.047620,0.000000,70.000000,68.000000,2.000000,4.000000,0.000000,0.000000,0.119049,0.177085,0.023810,0.047620,0.000000,70.000000,68.000000,2.000000,4.000000,0.000000,0.000000:
// measure 0
0000
0000
0000
0000
,  // measure 1
0000
0000
0000
0000
,  // measure 2
0000
0000
0000
0000
,  // measure 3
0000
0000
0000
0000
,  // measure 4
0000
0000
0010
0000
,  // measure 5
1000
0000
0001
0000
,  // measure 6
0000
0000
0010
0000
,  // measure 7
0001
0000
1000
0000
,  // measure 8
0000
0000
0001
0000
,  // measure 9
0001
0000
0001
0000
,  // measure 10
0000
0000
0100
0000
,  // measure 11
0100
0000
0100
0000
,  // measure 12
0000
0000
0010
0000
,  // measure 13
1000
0000
1000
0000
,  // measure 14
0000
0000
0100
0000
,  // measure 15
0100
0000
0100
0000
,  // measure 16
0000
0000
1000
0000
,  // measure 17
0001
0000
1000
0000
,  // measure 18
0001
0000
0100
0000
,  // measure 19
0000
0000
0010
0000
,  // measure 20
0000
0000
1000
0000
,  // measure 21
0001
0000
0001
0000
,  // measure 22
1000
0000
0010
0000
,  // measure 23
0000
0000
0100
0000
,  // measure 24
0000
0000
0001
0000
,  // measure 25
0010
0000
0100
0000
,  // measure 26
0000
0000
1000
0000
,  // measure 27
0010
0000
0100
0000
,  // measure 28
0000
0000
0001
0000
,  // measure 29
1000
0000
0010
0000
,  // measure 30
0000
0000
1000
0000
,  // measure 31
0000
0000
0001
0000
,  // measure 32
0000
0000
1000
0000
,  // measure 33
1000
0000
1000
0000
,  // measure 34
0000
0000
0010
0000
,  // measure 35
0010
0000
0010
0000
,  // measure 36
0000
0000
1000
0000
,  // measure 37
0100
0000
1000
0000
,  // measure 38
0000
0000
0001
0000
,  // measure 39
0000
0000
1000
0000
,  // measure 40
0000
0000
0020
0000
,  // measure 41
0000
0000
0030
0000
,  // measure 42
0000
0000
2000
0000
,  // measure 43
0000
0000
3000
0000
,  // measure 44
0000
0000
0002
0000
,  // measure 45
0000
0000
0003
0000
,  // measure 46
0000
0000
0100
0000
,  // measure 47
0010
0000
0110
0000
,  // measure 48
0000
0000
0000
0000
,  // measure 49
0000
0000
1000
0000
,  // measure 50
0000
0000
0001
0000
,  // measure 51
0000
0000
1000
0000
,  // measure 52
0000
0000
0001
0000
,  // measure 53
0000
0000
0100
0000
,  // measure 54
0000
0000
0010
0000
,  // measure 55
0000
0000
0100
0000
,  // measure 56
0000
0000
0010
0000
,  // measure 57
0000
0000
0200
0000
,  // measure 58
0000
0000
0000
0000
,  // measure 59
0300
0000
1001
0000
;

//---------------dance-single - ----------------
#NOTES:
     dance-single:
     :
     Easy:
     5:
     0.227894,0.283337,0.154764,0.000000,0.000000,134.000000,121.000000,13.000000,0.000000,0.000000,0.000000,0.227894,0.283337,0.154764,0.000000,0.000000,134.000000,121.000000,13.000000,0.000000,0.000000,0.000000:
0000
0000
0000
0000
,
0000
0000
0000
0000
,
0000
0000
0000
0000
,
0000
0000
0000
0000
,
0000
0000
0010
0000
,
0010
0000
0100
0000
,
1001
0000
0010
0000
,
1000
0000
0001
0000
,
0100
0000
0010
0010
,
1000
0000
0100
0100
,
0010
0000
0001
0100
,
0010
1000
0010
0000
,
0100
0000
0001
1000
,
0100
0000
0010
0001
,
0100
0000
0010
0000
,
1000
0000
0001
0000
,
0001
0000
1001
0100
,
0010
0000
0001
0001
,
0100
0000
0010
0000
,
0010
0000
1000
0000
,
0100
0000
0010
0001
,
1000
0000
0010
0100
,
0001
0000
0010
0000
,
1000
0000
0001
0000
,
0100
0000
0010
0000
,
1000
0000
0100
0000
,
1001
0000
0010
0000
,
0001
0000
0100
0000
,
0110
0000
0001
0000
,
1000
0000
0100
0000
,
1001
0000
0010
0000
,
0100
0000
0001
0000
,
1000
0000
0010
0000
,
1000
0000
0100
0000
,
0110
0000
0001
0000
,
0100
0000
0010
0000
,
1001
0000
0001
0000
,
0010
0000
0100
0000
,
1001
0000
0010
0000
,
1000
0000
0001
0000
,
0100
0000
0010
0100
,
0001
1000
0100
0000
,
0001
0000
0001
0100
,
1000
0100
0001
0000
,
1000
0000
0010
0001
,
0100
1000
0100
0000
,
0100
0000
0010
0000
,
0001
0000
0100
0000
,
0010
0000
0000
0000
,
0000
0000
0000
0000
,
0000
0000
0010
1001
,
0100
0000
0000
0000
,
0000
0000
1000
0110
,
0001
0000
0000
0000
,
0000
0000
0001
0110
,
1000
0000
0000
0000
,
0000
0000
0110
1001
,
0100
0000
0010
0000
,
0001
0000
0100
0000
,
0100
0000
0100
0000
;

//---------------dance-single - ----------------
#NOTES:
     dance-single:
     :
     Medium:
     7:
     0.340140,0.531256,0.380957,0.000000,0.071429,200.000000,168.000000,32.000000,0.000000,0.000000,0.000000,0.340140,0.531256,0.380957,0.000000,0.071429,200.000000,168.000000,32.000000,0.000000,0.000000,0.000000:
0000
0000
0000
0000
,
0000
0000
0000
0000
,
0000
0000
0000
0000
,
0000
0000
0000
0000
,
0000
0000
0010
0010
,
0010
1000
0100
0000
,
1001
0000
0010
0010
,
0010
0001
0100
0000
,
0100
0000
1001
0100
,
1000
0000
0000
0000
0000
0000
1000
0000
0100
1000
0000
0000
,
1100
0000
1010
0000
,
0101
0000
0001
0000
,
0001
0000
0010
0100
,
1000
0000
0010
0100
,
0001
0000
1000
0100
,
0010
0001
0100
0010
,
1000
0000
0000
0000
0000
0000
0010
0000
0100
0010
0000
0000
,
1001
0000
0000
0000
0000
0000
0001
0000
1000
0001
0000
0000
,
1001
0000
0001
0001
,
0100
0100
1000
0000
,
0001
0000
0001
0100
,
0010
0000
1000
0100
,
0010
0000
0001
0000
,
1000
0000
0010
0000
,
0100
0000
0010
0010
,
0010
1000
0100
0000
,
1001
0000
0010
0010
,
0010
0001
0100
0000
,
0110
0000
1000
1000
,
1000
0001
0100
0000
,
1001
0000
0010
0000
,
0001
0000
0100
0000
,
1000
0000
0010
0010
,
0010
1000
0010
0000
,
0101
0000
1000
1000
,
1000
0001
0100
0000
,
1100
0000
0001
0001
,
0001
0010
0100
0000
,
1001
0000
1000
0000
,
0010
0000
0100
0000
,
0001
0000
0000
0000
0000
0000
0010
0000
0100
1000
0000
0000
,
0010
0000
0100
0001
0000
0000
0011
0000
0000
0011
0000
0000
,
1010
0000
0000
1010
0000
0000
0010
0000
0001
0100
0000
0000
,
0010
0000
1000
0100
0000
0000
0010
0000
0000
0001
0000
0000
,
0100
0000
0010
1000
0000
0000
1100
0000
0000
1100
0000
0000
,
0101
0101
0010
0001
,
0100
0000
0000
1000
0000
0000
0010
0000
1000
0010
0000
1000
,
0010
1000
0001
0000
,
1001
0000
0000
0000
,
0000
0000
0010
0000
,
0010
0000
1100
1001
,
0100
0000
0100
0000
,
0100
0000
0101
1001
,
0100
0000
0100
0000
,
0100
0000
0110
1001
,
1100
0000
1000
0000
,
1000
0000
1010
1001
,
0101
0000
0000
0000
0000
0000
0010
0000
0000
0000
0000
0001
,
0000
0000
0000
0100
0000
0000
0000
0000
0010
0000
0000
0000
,
0010
0100
1000
0000
;

//---------------dance-single - ----------------
#NOTES:
     dance-single:
     :
     Hard:
     10:
     0.408168,0.602090,0.238098,0.000000,0.511911,240.000000,220.000000,20.000000,0.000000,0.000000,0.000000,0.408168,0.602090,0.238098,0.000000,0.511911,240.000000,220.000000,20.000000,0.000000,0.000000,0.000000:
0000
0000
0000
0000
,
0000
0000
0000
0000
,
0000
0000
0000
0000
,
0000
0000
0000
0000
,
0000
0000
0000
0000
0000
0010
1000
0000
0000
0010
0000
0100
,
0001
0000
1000
0000
0000
1001
0000
0000
0100
0000
0000
0000
,
0000
0000
0000
0000
0000
0010
0001
0000
0000
0100
0000
0010
,
1000
0000
0001
0000
0000
0100
0000
0000
0000
0000
0000
0000
,
0000
0000
0000
0000
0000
0000
0100
0000
1000
0010
0000
1000
,
0100
0000
0000
0000
0000
0000
0010
0000
0001
0010
0000
0000
,
0011
0000
0000
0000
0000
0000
0001
0000
0100
0010
0000
0000
,
1000
0000
0000
0100
0000
0000
0010
0000
0001
0100
0000
0001
,
0010
0000
0011
0101
,
1001
0000
0000
0000
0000
0000
0100
0000
1000
0010
0000
1000
,
0100
0000
1001
1001
,
1000
0000
0100
1000
0000
0001
0100
0000
0001
1000
0000
0100
,
1000
0000
0000
0000
0000
0000
0010
0000
0001
0100
0000
0001
,
0010
0000
0000
0000
0000
0000
0001
0000
0010
0100
0000
0000
,
0101
0000
0001
0001
,
0100
0100
0001
0000
,
1000
0000
0000
0000
0000
0000
0010
0000
0100
1000
0000
0100
,
0010
0000
0000
0000
0000
0000
0001
0000
0010
0100
0000
0010
,
0001
0000
0001
0000
,
1000
0000
0010
0000
,
0100
0000
0000
0000
0000
0010
1000
0000
0000
0010
0000
0100
,
0001
0000
1000
0000
0000
1001
0000
0000
0100
0000
0000
0000
,
0000
0000
0000
0000
0000
0010
1000
0000
0000
0010
0000
0100
,
0010
0000
1000
0000
0000
0100
0000
0000
0000
0000
0000
0000
,
0000
0000
0000
0000
0000
0001
1000
0000
0000
0010
0000
1000
,
0001
0000
0100
0000
0000
1001
0000
0000
0100
0000
0000
0000
,
0000
0000
0001
0000
,
1000
0000
0100
0000
,
0010
0000
0000
0000
0000
0010
0001
0000
0000
1000
0000
0100
,
0010
0000
0001
0000
0000
1100
0000
0000
0001
0000
0000
0000
,
0000
0000
0000
0000
0000
0100
1000
0000
0000
0001
0000
0010
,
0100
0000
1000
0000
0000
0001
0000
0000
0000
0000
0000
0000
,
0000
0000
0000
0000
0000
0001
0100
0000
0000
0010
0000
0100
,
0001
0000
1000
0000
0000
0011
0000
0000
0100
0000
0000
0000
,
0000
0000
1000
0000
,
0001
0000
0100
0000
,
0010
0000
0000
0000
0000
0000
1000
0000
0100
0010
0000
0100
,
1000
0000
0100
0010
0000
0000
0011
0000
0000
0011
0000
0000
,
0101
0000
0000
0101
0000
0000
0001
0000
0010
0100
0000
0010
,
0001
0000
0010
0100
0000
1000
0010
0000
0100
1000
0000
0100
,
0010
0000
0100
1000
0000
0000
1001
0000
0000
1001
0000
0000
,
0011
0000
0000
0011
0000
0000
0100
0000
0010
0100
0000
0001
,
0100
0000
1000
0100
0000
0000
0010
0000
0001
1000
0000
0010
,
0100
0001
1000
0000
,
0000
0000
0000
0000
0000
0000
0000
0000
0010
0000
0100
0000
,
0001
0000
1000
0000
0100
0000
0010
0000
0000
0000
0000
0000
,
0010
0000
0000
0000
0000
0000
0001
0000
0100
0010
0000
1000
,
0001
0000
0100
0000
,
0100
0000
0000
0000
0000
0000
0010
0000
1000
0001
0000
0100
,
0010
0000
0010
0000
,
0010
0000
0000
0000
0000
0000
0001
0000
1000
0100
0000
0001
,
0100
0000
0100
0000
,
0100
0000
0000
0000
0000
0000
1000
0000
0001
1000
0000
0100
,
0010
0000
0000
0000
0000
0000
0010
0000
0000
0000
0000
0001
,
0000
0000
0000
0100
0000
0000
0000
0000
0010
0000
0000
0000
,
0010
0000
0100
0000
0000
0000
1000
0000
0000
0000
0000
0000
;

//---------------dance-single - ----------------
#NOTES:
     dance-single:
     :
     Challenge:
     12:
     0.673477,0.708342,0.333337,0.119049,1.047632,396.000000,368.000000,28.000000,10.000000,0.000000,0.000000,0.673477,0.708342,0.333337,0.119049,1.047632,396.000000,368.000000,28.000000,10.000000,0.000000,0.000000:
0000
0000
0000
0000
,
0000
0000
0000
0000
,
0000
0000
0000
0000
,
0000
0000
0000
0000
,
0000
0000
0000
0000
0000
0010
1000
0000
0000
0100
0000
1000
,
0010
0000
0100
0000
0000
0101
0000
0000
1010
0000
0000
1000
,
0100
0000
1000
0010
0000
0100
0001
0000
0000
0010
0000
0001
,
0100
0000
0010
1000
0000
0001
1000
0000
0100
1000
0000
0010
,
0100
0000
0000
0100
0000
0001
2000
0000
0000
3100
0000
0010
,
0002
0000
0000
1003
0000
1000
0010
0000
0100
0001
0000
1000
,
0200
0000
0000
0300
0000
0010
0001
0000
0100
0001
0000
0100
,
0010
0000
1000
0000
0000
1100
0000
0011
0000
1000
0000
0010
,
0100
0000
0001
1000
0000
1000
0100
0000
0100
0010
0000
0001
,
0200
0000
0000
0310
0000
1000
0000
0001
0000
1000
0000
0100
,
0010
0000
0001
0100
0000
0000
0001
0000
0001
0100
0000
0100
,
1000
0000
1000
0100
0000
0100
0010
0000
0100
0010
0000
0100
,
0010
0000
1000
0000
0000
0001
1000
0000
0100
0010
0000
0010
,
0001
0000
0001
0100
0000
0010
0100
0000
0001
1000
0000
0100
,
1000
0000
0010
0100
0000
0000
0001
0000
1000
0010
0000
1000
,
0010
0000
0100
0000
0000
0001
0010
0000
0001
0010
0000
0100
,
1000
0000
0001
0100
0000
0000
1001
0000
0000
0001
0000
0100
,
0010
0000
1000
0001
0000
1000
0000
0100
0000
0001
0000
0000
,
0011
0000
0010
0100
0000
0000
1000
0000
0010
1000
0000
0100
,
1000
0000
0001
0000
0000
0100
0000
0000
0010
1000
0000
0010
,
0100
0000
0010
1000
0000
0001
0100
0000
0000
0001
0000
0010
,
0001
0000
0100
0010
0000
1000
0100
0000
0010
0001
0000
0000
,
2100
0000
0002
3000
0000
0103
0010
0000
0000
1000
0000
0001
,
1000
0000
0100
0010
0000
0001
0000
0000
0100
0010
0000
0000
,
1001
0000
0010
0100
0000
0001
1000
0000
0000
0100
0000
1000
,
0001
0000
0100
0001
0000
0010
0100
0000
1000
0001
0000
0000
,
0012
0000
2000
0003
0000
3010
0100
0000
0001
0100
0000
0010
,
1000
0000
0100
1000
0000
0001
0000
0000
0100
0010
0000
0000
,
1010
0000
0000
0101
0000
1000
0001
0000
0000
0110
0000
0100
,
0010
0000
0010
1000
0000
0100
1000
0000
0001
0100
0000
0000
,
1020
0000
0200
0030
0000
0301
1000
0000
0000
1100
0000
1000
,
0001
0000
0100
0001
0000
0010
0100
0000
1000
0001
0000
0000
,
0110
0000
0001
1000
0000
0100
0010
0000
0000
0011
0000
0100
,
0001
0000
0010
0001
0000
1000
0100
0000
0010
0001
0000
0100
,
0001
0000
0100
0010
0000
1000
0100
0000
0000
1000
0000
0010
,
1000
0000
0001
0100
0000
0010
0000
0000
1000
0100
0000
1000
,
0001
0000
0100
0010
0000
0100
0001
0000
0001
0010
0000
0010
,
0100
0000
0100
1000
0000
1000
0010
0000
0010
1000
0000
1000
,
0100
0000
0100
0010
0000
0010
0001
0000
0001
1000
0000
1000
,
0010
0000
0010
0100
0000
0100
0010
0000
1000
0001
0000
1000
,
0100
0000
0010
0001
0000
0100
0001
0000
0001
0100
0000
0100
,
0010
0000
0010
1000
0000
1000
0100
0000
0100
1000
0000
1000
,
0001
0000
0001
0100
0000
0000
0001
0000
0001
1000
0000
1000
,
0100
0000
0000
1100
0000
0000
0011
0000
0001
0100
0000
0000
,
1001
0000
0000
0110
0000
0000
0000
0000
1100
0000
0101
0000
,
1100
0000
0101
0000
1100
0000
1001
0000
0100
0010
0000
0100
,
0010
0000
0000
0000
0000
1000
0100
0000
0100
0001
0000
0001
,
0010
0000
0000
0000
0000
0001
0100
0000
0010
0100
0000
0001
,
1000
0000
0000
0000
0000
0001
0010
0000
0010
0100
0000
0000
,
1100
0000
0000
0000
0000
0000
0010
0000
1000
0001
0000
1000
,
0010
0000
0000
0000
0000
0100
0001
0000
0001
0010
0000
0010
,
1000
0000
0000
0000
0000
0100
1000
0000
0010
1000
0000
0001
,
0100
0000
0000
0000
0000
0001
0010
0000
0100
1000
0000
0000
,
1010
0000
0000
0000
0000
0000
0001
0000
0100
0010
0000
1000
,
0010
0000
0100
0010
0000
1000
0100
0000
0010
0001
0000
0100
,
0001
0000
0000
1000
0100
0010
0001
0000
0000
0000
0000
0000
;

//---------------dance-double - ----------------
#NOTES:
     dance-double:
     :
     Easy:
     5:
     0.251704,0.318754,0.238098,0.000000,0.000000,148.000000,128.000000,20.000000,0.000000,0.000000,0.000000,0.251704,0.318754,0.238098,0.000000,0.000000,148.000000,128.000000,20.000000,0.000000,0.000000,0.000000:
00000000
00000000
00000000
00000000
,
00000000
00000000
00000000
00000000
,
00000000
00000000
00000000
00000000
,
00000000
00000000
00000000
00000000
,
00000000
00000000
00100000
10000000
,
01000000
00000000
00010000
00000000
,
00011000
00000000
00001000
00000010
,
00000001
00000000
00000100
00000000
,
00000100
00000000
00000010
00000000
,
00001000
00000000
00000100
00000100
,
00001000
00000000
00000001
00000100
,
00010000
00100000
01000000
00000000
,
01000000
00000000
10000000
01100000
,
00010000
00000000
01000000
00011000
,
00000100
00000000
00000010
00000000
,
00000001
00000000
00000100
00000000
,
00000010
00000000
00010000
00000100
,
00010000
00000000
00001000
01000000
,
00001000
00000000
00011000
00000000
,
00011000
00000000
01000000
00000000
,
00100000
00000000
01100000
10000000
,
01000000
00000000
01100000
00010000
,
01000000
00000000
00100000
00000000
,
10000000
00000000
01000000
00000000
,
00010000
00000000
00000010
00000100
,
00000001
00000000
00000010
00000000
,
00001001
00000000
00000010
00001000
,
00000100
00000000
00010000
00000000
,
00011000
00000000
00001000
01000000
,
00100000
00000000
10000000
00000000
,
10010000
00000000
01000000
00000000
,
00010000
00000000
00001000
00000000
,
00000100
00000000
00000001
00000010
,
00000100
00000000
00001000
00000000
,
00001001
00000000
00000100
00010000
,
00001000
00000000
00010000
00000000
,
00011000
00000000
00001000
00100000
,
01000000
00000000
10000000
00000000
,
01100000
00000000
00010000
00000000
,
00100000
00000000
01000000
00000000
,
10000000
00000000
10000000
01000000
,
00010000
00001000
00000100
00000000
,
00000010
00000000
00010000
00100000
,
10000000
01000000
00010000
00000000
,
00001000
00000000
00100000
00001000
,
00010000
00001000
00000100
00000000
,
00000010
00000000
00000001
00000000
,
00001000
00000000
00000100
00000000
,
00000110
00000000
00000000
00000000
,
00000000
00000000
00000000
00000000
,
00000000
00000000
00000001
00000110
,
00001000
00000000
00000000
00000000
,
00000000
00000000
00000100
00011000
,
01000000
00000000
00000000
00000000
,
00000000
00000000
00011000
01100000
,
10000000
00000000
00000000
00000000
,
00000000
00000000
01100000
00011000
,
00000100
00000000
00000100
00000000
,
00000010
00000000
00000001
00000000
,
00000001
00000000
00001000
00000000
;

//---------------dance-double - ----------------
#NOTES:
     dance-double:
     :
     Medium:
     7:
     0.309527,0.460422,0.321432,0.000000,0.148811,182.000000,155.000000,27.000000,0.000000,0.000000,0.000000,0.309527,0.460422,0.321432,0.000000,0.148811,182.000000,155.000000,27.000000,0.000000,0.000000,0.000000:
00000000
00000000
00000000
00000000
,
00000000
00000000
00000000
00000000
,
00000000
00000000
00000000
00000000
,
00000000
00000000
00000000
00000000
,
00000000
00000000
10000000
10000000
,
10000000
00000000
01000000
00000000
00000000
00010000
00000000
00000000
00001000
00000000
00000000
00000000
,
00000000
00000000
00000010
00000010
,
00000010
00000000
00000001
00000000
00000000
00000100
00000000
00000000
00000000
00000000
00000000
00000000
,
00000000
00000000
00000010
00001001
,
00000100
00000000
00000010
00011000
,
00000100
00000000
00001000
00000000
,
01000000
00000000
01000000
00000000
,
00100000
00000000
10010000
10010000
,
01100000
00000000
00100000
00010000
,
00000100
00000000
00000001
00000010
,
00000100
00001000
00000100
00000010
,
00000001
00000000
00000001
00000100
,
00001010
00000000
00001000
00000100
,
00000010
00000000
00000001
00000000
,
00001000
00000000
00100000
00000000
,
10000000
00000000
01000000
00100000
,
00010000
00000000
01100000
00010000
,
00001000
00000000
00000100
00000000
,
00000001
00000000
00000010
00000000
,
00000100
00000000
00001000
00001000
,
00001000
00000000
00000100
00000000
00000000
00010000
00000000
00000000
00001000
00000000
00000000
00000000
,
00000000
00000000
01000000
01000000
,
01000000
00000000
00100000
00000000
00000000
10000000
00000000
00000000
00000000
00000000
00000000
00000000
,
00000000
00000000
00010000
00010000
,
00010000
00000000
01000000
00000000
00000000
00001000
00000000
00000000
00010000
00000000
00000000
00000000
,
00000000
00000000
00001000
00000000
,
00000100
00000000
00000001
00000000
,
00001000
00000000
00000100
00000100
,
00000100
00000000
00000010
00000000
00000000
00001000
00000000
00000000
00000100
00000000
00000000
00000000
,
00000000
00000000
00010000
00010000
,
00010000
00000000
00001000
00000000
00000000
01000000
00000000
00000000
00000000
00000000
00000000
00000000
,
00000000
00000000
00100000
00100000
,
00100000
00000000
10000000
00000000
00000000
01000000
00000000
00000000
00100000
00000000
00000000
00000000
,
00000000
00000000
00010000
00000000
,
00001000
00000000
00000100
00000000
,
00000010
00000000
00000001
00000010
,
00000100
00001000
00011000
00011000
,
01010000
01010000
00100000
10000000
,
01000000
00010000
00001000
01000000
,
00010000
00000100
00001100
00001100
,
00000101
00000101
00000010
00000010
,
00001000
00000000
00000000
00001000
00000000
00000000
00000100
00000000
00001000
00000100
00000000
00001000
,
00000100
00010000
00001000
00000000
,
00011000
00000000
00000000
00000000
,
00000000
00000000
00100000
00000000
,
00100000
00000000
00110000
10010000
,
01000000
00000000
01000000
00000000
,
01000000
00000000
01010000
00110000
,
00011000
00000000
00001000
00000000
,
00001000
00000000
00001100
00001001
,
00000101
00000000
00000100
00000000
,
00000100
00000000
00000110
00001100
,
00011000
00000000
00000000
00000000
00000000
00000000
00001000
00000000
00000000
00000000
00000000
00010000
,
00000000
00000000
00000000
00001000
00000000
00000000
00000000
00000000
01000000
00000000
00000000
00000000
,
01000000
00100000
10000000
00000000
;

//---------------dance-double - ----------------
#NOTES:
     dance-double:
     :
     Hard:
     10:
     0.379256,0.602090,0.142859,0.000000,0.488101,223.000000,211.000000,12.000000,0.000000,0.000000,0.000000,0.379256,0.602090,0.142859,0.000000,0.488101,223.000000,211.000000,12.000000,0.000000,0.000000,0.000000:
00000000
00000000
00000000
00000000
,
00000000
00000000
00000000
00000000
,
00000000
00000000
00000000
00000000
,
00000000
00000000
00000000
00000000
,
00000000
00000000
00000000
00000000
00000000
01000000
10000000
00000000
00000000
00100000
00000000
10000000
,
01000000
00000000
00010000
00000000
00000000
00001000
00000000
00000000
00000100
00000000
00000000
00000000
,
00000000
00000000
00000000
00000000
00000000
00000001
00000100
00000000
00000000
00000010
00000000
00001000
,
00000100
00000000
00010000
00000000
00000000
00001000
00000000
00000000
00000000
00000000
00000000
00000000
,
00000000
00000000
00000000
00000000
00000000
00000000
00100000
00000000
00001000
00010000
00000000
00001000
,
01000000
00000000
00000000
00000000
00000000
00000000
00010000
00000000
00001000
00010000
00000000
00000000
,
00011000
00000000
00000000
00000000
00000000
00000000
00000100
00000000
00000001
00000010
00000000
00000000
,
00001000
00000000
00000000
00001000
00000000
00000000
00000010
00000000
00001000
00010000
00000000
00100000
,
01000000
00000000
00010000
00000000
,
10000000
00000000
00000000
00000000
00000000
00000000
00100000
00000000
10000000
01000000
00000000
10000000
,
00100000
00000000
10010000
10100000
,
10000000
00000000
01000000
00010000
00000000
00001000
00000100
00000000
00000001
00000010
00000000
00000100
,
00001000
00000000
00000000
00000000
00000000
00000000
00001000
00000000
00000010
00001000
00000000
00000100
,
00010000
00000000
00000000
00000000
00000000
00000000
00011000
00000000
00000000
01000000
00000000
00100000
,
10000000
00000000
00100000
00000000
,
01000000
00000000
00100000
10000000
,
01000000
00000000
00000000
00000000
00000000
00000000
00010000
00000000
00001000
00010000
00000000
01000000
,
00010000
00000000
00000000
00000000
00000000
00000000
00010000
00000000
00001000
00000100
00000000
00001000
,
00010000
00000000
00010000
00000000
,
00000100
00000000
00000010
00000000
,
00000001
00000000
00000000
00000000
00000000
00000010
00000001
00000000
00000000
00000100
00000000
00000010
,
00010000
00000000
00001000
00000000
00000000
00010000
00000000
00000000
00001000
00000000
00000000
00000000
,
00000000
00000000
00000000
00000000
00000000
00010000
00001000
00000000
00000000
00001000
00000000
00010000
,
01000000
00000000
00001000
00000000
00000000
00010000
00000000
00000000
00000000
00000000
00000000
00000000
,
00000000
00000000
00000000
00000000
00000000
00010000
10000000
00000000
00000000
00100000
00000000
10000000
,
01000000
00000000
00010000
00000000
00000000
00001000
00000000
00000000
00010000
00000000
00000000
00000000
,
00000000
00000000
00010000
00000000
,
00010000
00000000
00001000
00000000
,
00001000
00000000
00000000
00000000
00000000
00000010
00001000
00000000
00000000
00000001
00000000
00000010
,
00000100
00000000
00001000
00000000
00000000
00000100
00000000
00000000
00010000
00000000
00000000
00000000
,
00000000
00000000
00000000
00000000
00000000
00010000
00001000
00000000
00000000
00001000
00000000
00010000
,
00001000
00000000
00010000
00000000
00000000
00001000
00000000
00000000
00000000
00000000
00000000
00000000
,
00000000
00000000
00000000
00000000
00000000
00100000
00010000
00000000
00000000
10000000
00000000
01000000
,
00100000
00000000
00010000
00000000
00000000
01000000
00000000
00000000
00100000
00000000
00000000
00000000
,
00000000
00000000
10000000
00000000
,
01000000
00000000
00010000
00000000
,
00000010
00000000
00001010
00001010
,
00000101
00000000
00000000
00000011
00000000
00000000
00000001
00000000
00000100
00000010
00000000
00001000
,
00000100
00000000
00010000
00001000
00000000
00000000
01010000
00000000
00000000
01010000
00000000
00000000
,
10010000
00000000
00000000
10100000
00000000
00000000
01000000
00000000
00100000
00010000
00000000
00000000
,
00001000
00000000
00000100
00000010
00000000
00000000
00000001
00000000
00000100
00000010
00000000
00001000
,
00000100
00000000
00010000
00001000
00000000
00000000
00010000
00000000
00000000
00010000
00000000
00000000
,
00100000
00000000
00000000
00100000
00000000
00000000
10000000
00000000
00010000
10000000
00000000
00100000
,
01000000
00010000
01000000
00000000
,
00000000
00000000
00000000
00000000
00000000
00000000
00000000
00000000
00001000
00000000
00010000
00000000
,
00000010
00000000
00010000
00000000
00001000
00000000
00100000
00000000
00000000
00000000
00000000
00000000
,
00100000
00000000
00000000
00000000
00000000
00010000
00100000
00000000
00010000
01000000
00000000
00010000
,
00100000
00000000
01000000
00000000
,
01000000
00000000
00000000
00000000
00000000
01000000
00010000
00000000
01000000
00001000
00000000
00100000
,
00010000
00000000
00010000
00000000
,
00001000
00000000
00000010
00000000
,
00000000
00000000
00000000
00000000
,
00001000
00000000
00000000
00000000
00000000
00001000
00100000
00000000
00010000
01000000
00000000
00001000
,
00010000
00000000
00000000
00000000
00000000
00000000
00010000
00000000
00000000
00000000
00000000
00001000
,
00000000
00000000
00000000
00010000
00000000
00000000
00000000
00000000
00001000
00000000
00000000
00000000
,
00001000
00000000
00000010
00000000
00000000
00000000
00000001
00000000
00000000
00000000
00000000
00000000
;
