#TITLE:SUPER STAR (FROM NONSTOP MEGAMIX);
#SUBTITLE:;
#ARTIST:D.J. RICH feat. TAIL BROS.;
#TITLETRANSLIT:;
#SUBTITLETRANSLIT:;
#ARTISTTRANSLIT:;
#GENRE:;
#CREDIT:;
#BANNER:SUPER STAR (FROM NONSTOP MEGAMIX)-bn.png;
#BACKGROUND:SUPER STAR (FROM NONSTOP MEGAMIX)-bg.png;
#LYRICSPATH:;
#CDTITLE:;
#MUSIC:SUPER STAR (FROM NONSTOP MEGAMIX).ogg;
#OFFSET:0.000000;
#SAMPLESTART:39.374001;
#SAMPLELENGTH:20.000000;
#SELECTABLE:YES;
#DISPLAYBPM:128.000000;
#BPMS:0.000000=128.113998
,4.000000=128.001999
;
#STOPS:
;
#BGCHANGES:17.500=SUPER STAR (FROM NONSTOP MEGAMIX).mp4=1.000=1=0=0=StretchNoLoop==CrossFade==,
99999=-nosongbg-=1.000=0=0=0 // don't automatically add -songbackground-
;
#KEYSOUNDS:;
#ATTACKS:;

//---------------dance-single - ----------------
#NOTES:
     dance-single:
     :
     Hard:
     10:
     0.428727,0.465848,0.052284,0.115024,0.078426,287.000000,282.000000,5.000000,11.000000,0.000000,0.000000,0.428727,0.465848,0.052284,0.115024,0.078426,287.000000,282.000000,5.000000,11.000000,0.000000,0.000000:
0000
0000
0000
0000
,
0000
0000
0000
0000
,
0000
0000
0000
0000
,
0001
0000
1000
0000
,
0001
1000
0001
0000
,
1000
1000
0001
0001
,
1000
0001
1000
1000
,
0001
1000
0001
0001
,
1000
0000
0001
0000
1000
0100
1000
0000
,
0202
0000
0303
0000
0010
1000
0100
0000
,
0001
1000
0001
1000
0010
0010
0101
0000
,
0001
0010
1000
0000
1000
0100
0001
0000
,
0001
0010
1000
0100
0001
0100
1000
0000
,
0010
1000
0100
0000
0001
1000
0100
0000
,
0001
0100
1000
0010
1000
0100
0001
0000
,
0100
0000
0010
0000
1000
0000
1000
0000
0000
0010
0000
0100
0001
0000
0001
0000
,
0002
0000
0000
0003
,
1000
0000
0100
0000
0010
0000
0001
0000
0000
0100
0000
1000
0001
0000
0000
0000
,
0010
0000
0001
0000
0100
0000
0001
0000
0000
1000
0000
0100
0010
0000
0000
0000
,
0010
0000
1000
0000
0001
0000
0100
0000
0000
0010
0000
0001
1000
0000
0000
0000
,
0220
0000
0330
0000
0001
0010
0100
0000
,
0010
0000
1000
0000
0001
0000
0001
1000
0000
0000
0000
0000
0100
0000
0000
0000
,
0010
0000
1000
0000
0100
0000
1000
0000
0000
0010
0000
0100
0001
0000
0001
0000
,
0010
0000
0100
0000
1000
0000
0001
0010
0000
0000
0100
0000
0100
0000
0000
0000
,
1000
0000
0010
0000
0001
0000
0001
0200
0000
0000
0000
0000
0300
0000
0000
0000
,
0010
1000
0100
0001
0100
1000
0010
0010
,
0100
0001
0010
1000
0001
0100
0010
0010
,
1000
0001
0100
0010
0100
0001
0010
0000
,
1000
0100
0001
0010
0001
0001
0100
0010
,
1000
0000
1000
0000
1000
0000
0000
0000
0100
0000
0010
0000
0001
0100
0001
0000
,
1000
0100
0010
0000
0001
0010
0100
0000
,
1000
0000
0010
0000
0100
0000
1000
0000
0001
0100
0001
0000
1000
0000
0000
0000
,
0100
0010
0001
0100
0010
1000
0100
0100
,
0010
0000
1000
0100
0000
0001
0010
0000
,
1000
0001
0010
0100
0010
1000
1000
0000
,
0010
0100
0001
0010
0100
1000
0010
0100
,
1000
0001
0010
0001
1000
0010
0010
0000
,
0020
0000
0000
0030
,
2000
0000
0000
3000
,
0010
1000
0100
0000
0220
0000
0330
0000
,
0010
0001
0100
0000
0110
0001
0010
0100
,
1000
0010
0100
0001
1000
0010
0100
0001
,
1000
0010
1000
0100
1000
0001
0100
0010
,
1000
0100
0001
0001
0010
1000
0001
0100
,
0010
0100
0000
0000
0000
0100
0010
1000
,
0010
0001
0100
0010
0001
1000
0100
0100
,
0010
1000
0001
0010
0001
1000
0010
0010
,
0001
0010
0100
0010
1000
0001
0100
1000
,
0010
0100
1000
0001
0010
0100
0001
1000
,
2000
0000
3000
0000
;

//---------------dance-double - ----------------
#NOTES:
     dance-double:
     :
     Hard:
     11:
     0.427233,0.465848,0.052284,0.115024,0.078426,286.000000,281.000000,5.000000,11.000000,0.000000,0.000000,0.427233,0.465848,0.052284,0.115024,0.078426,286.000000,281.000000,5.000000,11.000000,0.000000,0.000000:
00000000
00000000
00000000
00000000
,
00000000
00000000
00000000
00000000
,
00000000
00000000
00000000
00000000
,
10000000
00000000
00010000
00000000
,
00001000
00010000
00001000
00000000
,
00000100
00000100
00000001
00000001
,
00001000
00000100
00010000
00010000
,
00001000
00100000
00010000
00010000
,
10000000
00000000
01000000
00000000
00010000
00001000
00010000
00000000
,
00020200
00000000
00030300
00000000
00001000
00000100
00000010
00000000
,
00000001
00000100
00000001
00000100
00000010
00001000
00011000
00000000
,
00010000
00100000
01000000
00000000
10000000
01000000
00010000
00000000
,
00001000
00000100
00000001
00000010
00000001
00000100
00001000
00000000
,
00010000
00001000
01000000
00000000
00010000
10000000
01000000
00000000
,
00100000
00010000
01000000
00001000
00010000
00000010
00000100
00000000
,
00000001
00000000
00000010
00000000
00000100
00000000
00001000
00000000
00000000
00001000
00000000
00010000
00001000
00000000
00010000
00000000
,
00020000
00000000
00000000
00030000
,
00100000
00000000
10000000
00000000
00100000
00000000
01000000
00000000
00000000
00010000
00000000
10000000
00010000
00000000
00000000
00000000
,
00100000
00000000
01000000
00000000
00010000
00000000
00001000
00000000
00000000
00001000
00000000
00000100
00000001
00000000
00000000
00000000
,
00000010
00000000
00000001
00000000
00000100
00000000
00000010
00000000
00000000
00010000
00000000
00000010
00001000
00000000
00000000
00000000
,
00000202
00000000
00000303
00000000
00001000
00010000
01000000
00000000
,
00100000
00000000
10000000
00000000
01000000
00000000
10000000
01000000
00000000
00000000
00000000
00000000
00010000
00000000
00000000
00000000
,
00001000
00000000
00000100
00000000
00000001
00000000
00000010
00000000
00000000
00000001
00000000
00000100
00000001
00000000
00000001
00000000
,
00000100
00000000
00001000
00000000
00010000
00000000
00010000
00001000
00000000
00000000
01000000
00000000
01000000
00000000
00000000
00000000
,
10000000
00000000
00100000
00000000
00010000
00000000
00001000
00020000
00000000
00000000
00000000
00000000
00030000
00000000
00000000
00000000
,
00000010
00001000
00000100
00000010
00000001
00000100
00001000
00001000
,
00010000
01000000
00100000
10000000
00010000
01000000
00100000
00100000
,
00010000
00001000
00000100
00000010
00000100
00000001
00001000
00000000
,
00000100
00000010
00000001
00000100
00001000
00001000
00010000
01000000
,
10000000
00000000
10000000
00000000
10000000
00000000
00000000
00000000
01000000
00000000
00100000
00000000
00010000
00001000
00010000
00000000
,
00000010
00001000
00000100
00000000
00000001
00000100
00001000
00000000
,
00010000
00000000
00001000
00000000
01000000
00000000
00100000
00000000
00010000
01000000
00010000
00000000
10000000
00000000
00000000
00000000
,
01000000
00100000
00010000
00001000
00010000
00000100
00000010
00000010
,
00000001
00000000
00000100
00000010
00000000
00010000
00001000
00000000
,
00100000
00010000
00100000
01000000
00100000
10000000
10000000
00000000
,
01000000
00010000
00001000
00010000
00001000
00000100
00000001
00000010
,
00000001
00000100
00001000
00000100
00000010
00001000
00001000
00000000
,
00020000
00000000
00000000
00030000
,
00200000
00000000
00000000
00300000
,
00100000
00010000
00001000
00000000
00020200
00000000
00030300
00000000
,
00001000
00000010
00000100
00000000
00000101
00000100
00001000
00010000
,
01000000
00100000
01000000
00010000
00001000
00000100
00000001
00000010
,
00000100
00001000
00000010
00000100
00001000
00010000
01000000
00100000
,
10000000
01000000
00010000
00010000
00001000
00000010
00000100
00000001
,
00000010
00000100
00000000
00000000
00000000
00010000
00100000
10000000
,
00100000
00010000
00001000
00100000
01000000
00010000
00001000
00001000
,
00000100
00000001
00000010
00000100
00000001
00000100
00001000
00001000
,
00010000
00100000
01000000
00100000
10000000
01000000
00010000
00001000
,
00010000
00000010
00000100
00001000
00010000
00000000
00010000
00001000
,
00002000
00000000
00003000
00000000
;

//---------------dance-single - ----------------
#NOTES:
     dance-single:
     :
     Beginner:
     2:
     0.115024,0.153714,0.041827,0.000000,0.000000,77.000000,73.000000,4.000000,0.000000,0.000000,0.000000,0.115024,0.153714,0.041827,0.000000,0.000000,77.000000,73.000000,4.000000,0.000000,0.000000,0.000000:
0000
0000
0000
0000
,
0000
0000
0000
0000
,
0000
0000
0000
0000
,
0010
0000
0010
0000
,
1000
0000
0001
0000
,
0100
0000
0000
0000
,
0010
0000
1000
0000
,
0100
0000
0000
0000
,
1000
0000
0001
0000
,
1001
0000
0000
0000
,
0010
0000
1000
0000
,
0100
0000
0000
0000
,
0010
0000
0001
0000
,
1000
0000
0000
0000
,
0001
0000
0100
0000
,
0010
0000
0000
0000
,
0110
0000
0000
0000
,
1000
0000
1000
0000
,
0001
0000
0001
0000
,
0010
0000
0001
0000
,
0100
0000
0000
0000
,
0001
0000
0000
0000
,
1000
0000
0100
0000
,
1000
0000
0000
0000
,
0010
0000
0100
0000
,
0001
0000
0001
0000
,
1000
0000
1000
0000
,
0010
0000
0010
0000
,
0100
0000
0100
0000
,
0010
0000
0000
0000
,
1000
0000
0001
0000
,
1000
0000
0000
0000
,
0100
0000
0010
0000
,
0001
0000
0000
0000
,
1000
0000
0000
0000
,
0001
0000
0000
0000
,
0100
0000
0000
0000
,
0110
0000
0000
0000
,
0000
0000
0000
0000
,
1000
0000
1000
0000
,
0001
0000
0100
0000
,
0010
0000
1000
0000
,
1000
0000
0100
0000
,
0010
0000
0001
0000
,
0100
0000
0000
0000
,
0010
0000
0010
0000
,
1000
0000
0100
0000
,
1000
0000
0001
0000
,
0100
0000
0100
0000
,
1001
0000
0000
0000
;

//---------------dance-single - ----------------
#NOTES:
     dance-single:
     :
     Easy:
     6:
     0.228555,0.256190,0.125481,0.041827,0.000000,153.000000,141.000000,12.000000,4.000000,0.000000,0.000000,0.228555,0.256190,0.125481,0.041827,0.000000,153.000000,141.000000,12.000000,4.000000,0.000000,0.000000:
0000
0000
0000
0000
,
0000
0000
0000
0000
,
0000
0000
0000
0000
,
0110
0000
1001
0000
,
0100
0100
1001
0000
,
0020
0000
0000
0030
,
1000
0001
1000
0100
,
0020
0000
0000
0030
,
0001
1000
0001
0000
,
0110
0000
0001
0100
,
0010
1000
0001
1000
,
0100
0000
1000
0001
,
0010
0010
0010
0000
,
0001
0000
0100
0000
,
0010
0000
1000
0100
,
1000
0000
0001
0000
,
0100
0000
0010
0010
,
0100
0001
1000
0001
,
0010
0100
1000
0001
,
1000
0010
0100
0001
,
0011
0000
0100
1000
,
0001
0000
0010
0000
,
0001
0000
0100
0000
,
0010
0000
1000
1000
,
0100
0000
0010
0000
,
0001
0001
1000
1000
,
0001
1000
0100
0100
,
0010
0001
0100
0000
,
0010
1000
0100
0000
,
1000
0000
0001
0000
,
1000
0100
0010
0000
,
0001
0100
0001
0000
,
0010
0100
1000
0001
,
1001
0100
0010
1000
,
0100
0100
0010
0001
,
1000
0001
1000
0010
,
0100
0100
0001
1000
,
2200
0000
0000
0300
,
0001
0000
3001
0000
,
0110
0000
1001
0000
,
0100
0100
1001
0000
,
0010
1000
0100
1000
,
0001
0010
0001
0100
,
0010
1000
0100
0010
,
0011
0000
0000
0000
,
1000
0001
1000
0010
,
0100
0010
1000
0100
,
0010
0001
1000
0001
,
0010
0001
0100
1000
,
1001
0000
0000
0000
;

//---------------dance-single - ----------------
#NOTES:
     dance-single:
     :
     Medium:
     8:
     0.349554,0.384286,0.250962,0.188222,0.000000,234.000000,210.000000,24.000000,18.000000,0.000000,0.000000,0.349554,0.384286,0.250962,0.188222,0.000000,234.000000,210.000000,24.000000,18.000000,0.000000,0.000000:
0000
0000
0000
0000
,
0000
0000
0000
0000
,
0000
0000
0000
0000
,
1100
0101
1100
0000
,
1001
0110
1001
0000
,
0020
1000
0200
0330
,
2000
0000
0000
3002
0000
0000
0023
0000
,
0230
0001
1000
1300
,
0002
0000
0000
2003
0000
0000
3010
0000
,
0101
0000
1000
0001
,
0010
0000
0001
0000
1000
0000
0010
0100
,
0000
0001
1000
0000
0010
0000
1000
0000
,
0100
0010
0001
0000
1000
0001
0100
0000
,
0000
0010
1000
0000
0100
1000
0001
0000
,
0011
0000
0000
0000
0100
1000
0001
0000
,
0100
0000
0010
0000
1000
0001
1000
0000
,
0110
0000
0000
0000
1000
0100
1000
0000
,
0001
0000
0010
0000
0001
0100
1000
0000
,
0000
0010
0100
0000
0010
1000
0001
0000
,
0000
1000
0100
0000
1000
0001
1000
0000
,
1010
0000
0000
0000
0100
0010
0100
0000
,
0002
0010
1000
0103
,
2000
0000
0000
3020
0000
0000
0230
0000
,
0302
1000
0010
0103
,
0020
0000
0000
2030
0000
0000
3002
0000
,
1003
0000
1100
0000
0100
1000
0001
0000
,
0010
0001
0100
0000
0001
1000
0010
0000
,
0100
0001
0010
0000
0100
1000
0010
0000
,
1000
0010
0001
0000
0100
0001
0010
0000
,
0100
1000
0100
0000
1000
0001
1000
0000
,
0010
0100
0010
0000
1000
0100
0001
0000
,
0011
0000
1100
0000
0010
1000
0001
0000
,
1000
0001
1000
0000
0010
0100
0001
0000
,
1001
0000
0100
0010
0000
0010
1000
0000
,
0001
1000
0001
0000
0010
0100
1000
0000
,
0001
0000
0010
0000
0100
1000
0010
0000
,
0100
0001
0100
0000
0010
1000
0001
0000
,
2020
0000
0000
0030
,
0001
0000
0000
0100
0000
0000
3001
0000
,
0101
1100
0101
0000
,
1001
0110
1001
0000
,
0010
0000
1000
0000
0100
0010
0001
0000
,
1000
0001
0100
0000
0001
0010
0100
0000
,
1000
0000
0010
0000
1000
0001
1000
0000
,
0100
0010
0000
0000
0000
0010
0001
0000
,
0101
0000
1010
0000
0100
0001
1000
0000
,
0001
0010
0100
0000
1000
0001
1000
0000
,
0110
0000
1000
0000
0010
0100
0001
0000
,
1000
0100
1000
0010
0100
0000
0001
1000
,
0100
0000
0000
0000
;

//---------------dance-single - ----------------
#NOTES:
     dance-single:
     :
     Challenge:
     14:
     0.597529,0.614857,0.188222,0.041827,0.517609,400.000000,382.000000,18.000000,4.000000,0.000000,0.000000,0.597529,0.614857,0.188222,0.041827,0.517609,400.000000,382.000000,18.000000,4.000000,0.000000,0.000000:
0000
0000
0000
0000
,
0000
0000
0000
0000
,
0000
0000
0000
0000
,
1010
0100
0001
0000
0011
0000
0000
0000
,
1100
1000
0010
0000
0101
0000
0000
0000
,
0010
0000
1000
0000
0100
0000
0000
1000
0000
0001
1000
0000
0100
0000
0000
0000
,
0010
0000
0001
0000
0100
0000
0000
0010
0000
1000
0001
0000
1000
0000
0100
0000
,
1000
0000
0001
0000
0010
0000
0000
0000
0001
0100
0000
0001
0100
0000
0000
0000
,
0010
0000
1000
0000
0100
0000
0000
0010
0000
0000
0001
0000
1000
0000
0010
0000
,
0110
0000
0000
0000
0000
0000
1000
0010
1000
0000
0001
0000
0001
0000
0000
0000
,
0010
0001
0000
0001
0100
0000
0010
0000
1000
0000
0100
0000
1000
0010
1000
0010
,
0000
0000
0100
0000
1001
0000
0000
0000
0010
1000
0000
0001
0010
0000
0000
0000
,
0100
0000
1000
0000
0010
0000
0100
0001
0000
0001
1000
0000
0010
0000
0000
0000
,
0000
0100
0001
0100
0001
0000
1000
0000
0001
0000
0010
0000
0100
0000
1000
0000
,
0010
0100
0000
0000
0000
0000
0001
1000
0001
0000
0010
0000
0100
0000
0000
0000
,
1000
0000
0010
0000
0100
0000
0000
0001
0000
0001
0000
0001
0010
0000
0100
0000
,
1100
0000
1100
0000
0000
0000
0001
1000
0001
0000
0100
0000
0100
0000
0000
0000
,
0010
0000
1000
0000
0010
0000
0100
0000
0001
0000
0010
0000
0001
1000
0001
0000
,
0000
0000
0010
0100
0010
0000
0000
0000
0001
0000
0100
0000
1000
0010
1000
0000
,
0000
0000
0001
1000
0001
0000
0010
0000
0001
0000
0100
0000
0010
0000
1000
0000
,
0101
0000
0000
0000
0000
0000
1000
0100
1000
0000
0001
0000
0100
0000
0000
0000
,
0010
0000
1000
0000
0100
0000
0010
0001
0000
0010
0001
0000
1000
0000
0001
0000
,
0100
0000
0010
0000
1000
0000
0001
0010
0000
0001
0010
0000
0100
0000
1000
0000
,
0001
0000
1000
0000
0010
0000
1000
0000
0100
0010
0000
0010
0001
0000
0000
0000
,
1000
0000
0001
0000
0100
0000
0010
1000
0000
0000
0100
0000
0100
0000
0100
0000
,
0010
0000
0001
0100
0001
0000
1000
0000
0001
0000
0100
0000
0010
1000
0010
0000
,
0100
0000
0001
0000
0010
0100
0010
0000
0001
0000
1000
0100
0000
1000
0001
0000
,
0100
0000
0010
0000
0100
0000
0001
0000
1000
0010
0100
0010
1000
0000
0000
0000
,
0001
0100
0001
0000
0010
0000
0100
0000
1000
0000
0010
1000
0001
0000
0100
0000
,
0110
0000
0110
0000
0110
0000
0000
0000
1000
0001
0000
0010
0000
0001
0100
0000
,
0010
0000
1000
0001
1000
0000
0100
0000
0010
0001
0000
0001
0000
0000
0000
0000
,
0100
0000
0010
0000
1000
0000
0001
0000
0010
0001
0100
0001
0010
0000
0000
0000
,
0100
1000
0100
0010
0100
0000
1000
0000
0001
0010
0001
0100
0001
0000
1000
0000
,
0010
1000
0000
0000
0001
0000
0100
0000
0000
0000
0001
1000
0100
0000
0000
0000
,
0010
0001
0100
0000
0010
0000
1000
0000
0001
0000
0001
0000
0001
0100
0000
0000
,
0010
1000
0010
0000
0100
0001
0100
0000
0001
0010
0001
0000
1000
0100
1000
0000
,
0001
0000
0001
0000
1000
0000
1000
0000
0001
0100
0010
0100
0001
0000
1000
0000
,
2020
0000
0000
0030
,
0002
0000
3000
0023
0000
0000
0130
0000
,
1100
0010
0001
0000
0101
0000
0000
0000
,
1010
0000
1000
0000
0100
0000
0000
0000
0011
0000
0001
0000
1000
0010
1000
0001
,
0100
0000
0010
0000
1000
0100
0010
0000
0001
1000
0001
0000
0100
0010
0100
0000
,
0001
0000
0010
0000
0100
0000
1000
0010
0000
0010
0100
0000
0001
0000
0010
0001
,
0000
0001
1000
0000
0010
0100
0001
0000
1000
0000
0100
0000
1000
0010
0100
0001
,
1000
0000
1000
0000
0001
0000
0000
0010
0000
0001
0100
0010
1000
0000
0001
0000
,
0100
0010
0100
0000
0001
0000
1000
0010
0000
1000
0100
0000
0010
0000
0001
0000
,
1000
0001
0100
0010
1000
0000
0100
0000
0010
0001
0010
0100
1000
0000
0001
0100
,
0000
0010
1000
0000
0100
1000
0001
0000
0010
0000
0001
0100
0000
0010
1000
0000
,
0001
0100
0010
0100
0001
0000
1000
0100
0000
1000
0010
0100
0001
0000
1000
0000
,
1001
0000
0000
0000
;

//---------------dance-double - ----------------
#NOTES:
     dance-double:
     :
     Easy:
     6:
     0.231542,0.256190,0.146395,0.041827,0.000000,155.000000,141.000000,14.000000,4.000000,0.000000,0.000000,0.231542,0.256190,0.146395,0.041827,0.000000,155.000000,141.000000,14.000000,4.000000,0.000000,0.000000:
00000000
00000000
00000000
00000000
,
00000000
00000000
00000000
00000000
,
00000000
00000000
00000000
00000000
,
00000011
00000000
00001100
00000000
,
00100000
00100000
10010000
00000000
,
02000000
00000000
00000000
03000000
,
00010000
00100000
00010000
01000000
,
00002000
00000000
00000000
00003000
,
00010000
00000000
00000010
00000000
,
00000110
00000000
00001000
00000001
,
00000010
00000001
00000100
00000010
,
00000000
00001000
00000100
00010000
,
00001000
00001000
00001000
01000000
,
00000000
00100000
10000000
01000000
,
11000000
00000000
00010000
01000000
,
00100000
00100000
10000000
00010000
,
01010000
00000000
00001000
00010000
,
00001000
00010000
00000010
00000100
,
00000001
00000010
00000001
00001000
,
00000010
00001000
00000100
00010000
,
00001000
00000000
01000000
00100000
,
20000000
00000000
00000000
30000000
,
01000000
00000000
00100000
00001000
,
00020000
00000000
00000000
00030000
,
00000010
00000000
00000100
00000000
,
00000001
00000001
00001000
00001000
,
00000001
00000100
00000010
00000000
,
00010000
00001000
00010000
00000000
,
00000100
00010000
00001000
00000000
,
01000000
01000000
01000000
00000000
,
10000000
00100000
10000000
00000000
,
00010000
10000000
00100000
10000000
,
01000000
00100000
00001000
00000000
,
00011000
00000010
00000000
00000100
,
00000000
00000010
00001000
00000001
,
00000010
00000010
00000100
00000100
,
00010000
00001000
00100000
01000000
,
01100000
00000000
00000000
00000000
,
10000000
00000000
00010000
00000000
,
11000000
00000000
00110000
00000000
,
00000100
00000100
00001001
00000000
,
00000010
00001000
00000010
00000100
,
00000001
00000010
00000001
00000100
,
00000010
00010000
00001000
01000000
,
01100000
00000000
00000000
10000000
,
10100000
01000000
00010000
00100000
,
00001000
00010000
00000010
00000100
,
00000010
00001000
00000100
00000010
,
00000001
00000001
00001000
00001000
,
00001001
00000000
00000000
00000000
;

//---------------dance-double - ----------------
#NOTES:
     dance-double:
     :
     Medium:
     9:
     0.364492,0.358667,0.230049,0.188222,0.000000,244.000000,222.000000,22.000000,18.000000,0.000000,0.000000,0.364492,0.358667,0.230049,0.188222,0.000000,244.000000,222.000000,22.000000,18.000000,0.000000,0.000000:
00000000
00000000
00000000
00000000
,
00000000
00000000
00000000
00000000
,
00000000
00000000
00000000
00000000
,
00000011
00000110
00001100
00000000
,
00110000
01100000
11000000
00000000
,
00020000
01000000
00100000
10030000
,
02000000
00000000
00000000
03002000
00000000
00000000
00023000
00000000
,
00030020
00000001
00001000
00010030
,
00000200
00000000
00000000
00020300
00000000
00000000
00031000
00000000
,
01001000
00000000
00000000
00000000
00100000
10000000
01000000
00000000
,
10000000
00000000
00100000
00000000
10000000
01000000
00100000
00010000
,
00000000
00100000
00001000
00000000
00010000
00000010
00000100
00000000
,
00000001
00000010
00000001
00000000
00001000
00000010
00000100
00000000
,
00000000
00000010
00001000
00000000
00000100
00010000
00001000
00000000
,
00010010
00000000
00000000
00001000
00010000
00001000
01000000
00000000
,
00100000
00000000
01000000
00000000
00100000
10000000
01000000
10000000
,
00010000
00000000
00000000
00000000
01000000
00100000
01000000
00000000
,
10100000
00000000
01010000
00000000
10000000
00010000
00100000
00001000
,
00000000
00010000
00000100
00000000
00001000
00000001
00000100
00000000
,
00000000
00000010
00001000
00000000
00000100
00010000
00000010
00000000
,
00000110
00000000
00000000
00000000
00000001
00001000
00000100
00000000
,
00020000
00000100
00001000
00030010
,
00002000
00000000
00000000
00203000
00000000
00000000
00320000
00000000
,
20030000
00100000
01000000
30010000
,
02000000
00000000
00000000
03002000
00000000
00000000
00023000
00000000
,
00030100
00000000
00010100
00000000
00001000
00010000
00000010
00000000
,
00000100
00000001
00000010
00000000
00000001
00001000
00000010
00000000
,
00010000
00000100
00001000
00000000
00000010
00001000
00000100
00000000
,
00010000
00001000
00100000
00000000
00010000
01000000
00001000
00000000
,
00100000
00010000
10000000
00000000
01100000
00000000
10010000
00000000
,
01000000
00010000
01000000
00000000
00100000
10000000
00100000
00000000
,
01000000
00100000
10000000
00000000
01000000
00100000
00001000
00000000
,
00010000
00000010
00000100
00000000
00000010
00001000
00000001
00000000
,
00010010
00000000
00010000
00001000
00000000
00001000
01000000
00000000
,
00100000
10000000
00010000
00000000
10000000
01000000
00100000
00000000
,
01000000
00100000
01000000
00000000
10000000
00010000
00100000
00000000
,
00001000
00010000
00000010
00000000
00001000
00000001
00000100
00000010
,
00002000
00000000
00000000
00003000
,
00000020
00000000
00000000
00000230
00000000
00000000
00000301
00000000
,
00000011
00000110
00001100
00000000
,
00110000
01100000
11000000
00000000
,
00100000
01000000
00001000
00000000
00010000
00000010
00000100
00000000
,
00000001
00001000
00000100
00000000
00010000
00000010
00001000
00000000
,
00000100
00010000
00001000
00000000
00100000
00001000
01000000
00000000
,
00100000
10000000
00000000
00000000
00000000
01000000
10000000
00010000
,
01000000
00000000
00100000
00000000
01000000
00010000
10000000
00000000
,
00100000
10000000
00010000
00000000
01000000
00001000
00010000
00000000
,
00000010
00000000
00001000
00000000
00000001
00000010
00000100
00000000
,
00010000
00001000
01000000
00100000
10000000
01000000
00100000
00000000
,
00011000
00000000
00000000
00000000
;

//---------------dance-double - ----------------
#NOTES:
     dance-double:
     :
     Challenge:
     14:
     0.637862,0.666095,0.167308,0.020914,0.674460,427.000000,411.000000,16.000000,2.000000,0.000000,0.000000,0.637862,0.666095,0.167308,0.020914,0.674460,427.000000,411.000000,16.000000,2.000000,0.000000,0.000000:
// measure 0
00000000
00000000
00000000
00000000
,  // measure 1
00000000
00000000
00000000
00000000
,  // measure 2
00000000
00000000
00000000
00000000
,  // measure 3
00000011
00001000
00000100
00000000
00001100
00000000
00000000
00000000
,  // measure 4
01010000
00100000
10000000
00000000
10100000
00000000
00000000
00000000
,  // measure 5
00010000
00000000
10000000
00000000
01000000
00000000
00000000
00100000
00000000
00100000
00001000
00000000
00010000
00000000
00000010
00000000
,  // measure 6
00000100
00000000
00000001
00000000
00000010
00000000
00000100
00001000
00000000
00001000
00000001
00000000
00000010
00000000
00000100
00000000
,  // measure 7
00010000
00000000
00001000
00000000
01000000
00000000
00000000
00100000
10000000
01000000
00000000
10000000
00010000
00000000
00000000
00000000
,  // measure 8
01000000
00000000
00100000
00000000
10000000
00000000
00010000
00100000
00000000
00100000
00001000
00000000
00010000
00000010
00000100
00000000
,  // measure 9
00001001
00000000
00000000
00000000
00000000
00000000
00000010
00001000
00000010
00000000
00000100
00000000
00000001
00001000
00000000
00000000
,  // measure 10
00000100
00001000
00000000
00001000
00000010
00000000
00000100
00000000
00000010
00000000
00010000
00000000
00001000
01000000
00010000
01000000
,  // measure 11
00000000
00000000
00100000
00000000
10010000
00000000
00000000
00000000
01000000
00010000
00000000
10000000
01000000
00000000
00000000
00000000
,  // measure 12
00100000
00001000
00000000
00001000
00010000
00000000
00000010
00001000
00000000
00001000
00000001
00000000
00000100
00000010
00000000
00000000
,  // measure 13
00000000
00001000
00000100
00001000
00000001
00000000
00000100
00000000
00000010
00000000
00001000
00000100
00000000
00000100
00010000
00001000
,  // measure 14
00010000
00000100
00000000
00000000
00000000
00000000
00010000
00001000
01000000
00000000
00100000
00000000
10000000
00000000
01000000
10000000
,  // measure 15
00010000
00000000
01000000
00000000
00100000
00000000
00000000
10000000
00000000
10000000
00000000
10000000
01000000
00000000
00100000
00000000
,  // measure 16
00001000
00000000
00010000
00000000
00000000
00000000
00000010
00000100
00000010
00000000
00001000
00000000
00000001
00000010
00000100
00001000
,  // measure 17
00000001
00000000
00000100
00000000
00000010
00000000
00001000
00000000
00000100
00000000
00010000
00000000
00001000
00010000
00000010
00000000
,  // measure 18
00000000
00000000
00001000
00000001
00000100
00000000
00000000
00000000
00000010
00010000
00001000
00000000
00010000
00001000
00100000
00000000
,  // measure 19
00000000
00000000
01000000
10000000
00100000
00000000
10000000
00000000
00100000
01000000
00000000
00010000
00000000
10000000
01000000
00000000
,  // measure 20
01100000
00000000
00000000
00000000
00000000
00000000
10000000
00100000
10000000
00000000
01000000
00100000
00010000
00000000
00000000
00000000
,  // measure 21
01000000
00000000
00001000
00000000
00010000
00000000
00000000
00000010
00000000
00000010
00000100
00000000
00000001
00000000
00001000
00000000
,  // measure 22
00000100
00000000
00010000
00000000
00001000
00000000
00100000
00010000
00000000
00010000
01000000
00000000
00100000
00000000
10000000
00000000
,  // measure 23
01000000
00000000
10000000
00000000
00100000
00000000
00000000
01000000
00001000
00010000
00000000
00010000
00000010
00000000
00000000
00000000
,  // measure 24
00000100
00000000
00000001
00000000
00000010
00000000
00000100
00001000
00000000
00000000
00000010
00000000
00001000
00000100
00010000
00000000
,  // measure 25
00001000
00000000
00010000
00000000
00000010
00000000
00000100
00000000
00000010
00000000
00001000
00000000
00000100
00010000
00000010
00000000
,  // measure 26
00000100
00000010
00010000
00001000
00100000
00000000
01000000
00000000
10000000
00000000
00010000
01000000
00000000
00010000
10000000
00000000
,  // measure 27
00100000
10000000
00100000
00000000
01000000
00000000
00001000
00000000
00010000
00001000
00010000
00000010
00001000
00000000
00000000
00000000
,  // measure 28
00000100
00000001
00001000
00000001
00000100
00000000
00000010
00000000
00010000
00000000
00001000
01000000
00100000
00000000
10000000
00000000
,  // measure 29
11000000
00000000
11000000
00000000
11000000
00000000
00000000
00000000
00100000
10000000
00000000
01000000
00000000
10000000
00100000
01000000
,  // measure 30
00010000
00000000
00100000
00000000
00001000
00000000
00010000
00000010
00000100
00000000
00000001
00000000
00001000
00000000
00000000
00000000
,  // measure 31
00000010
00000000
00001000
00000000
00000100
00001000
00000010
00000000
00000100
00000000
00000001
00000010
00000100
00000000
00000000
00000000
,  // measure 32
00010000
00000010
00001000
00000100
00010000
00000000
00001000
00000000
00100000
00010000
10000000
00010000
01000000
00000000
00100000
00000000
,  // measure 33
10000000
01000000
00000000
10000000
00100000
00000000
01000000
00000000
00000000
00010000
10000000
00010000
00100000
00001000
00000000
00000000
,  // measure 34
00010000
00000100
00010000
00000000
00000010
00000000
00000100
00000001
00000100
00000000
00000010
00000000
00001000
00000100
00000000
00000000
,  // measure 35
00001000
00000010
00001000
00000000
00000001
00000010
00000001
00000000
00001000
00000100
00001000
00000000
00000001
00000100
00000001
00000000
,  // measure 36
00000010
00000000
00000100
00000000
00001000
00000000
00000010
00000000
00001000
00000100
00010000
00001000
01000000
00000000
00100000
00000000
,  // measure 37
02002000
00000000
00000000
03000000
,  // measure 38
00010000
00000000
00000000
00000010
00000000
00000000
01003000
00000000
,  // measure 39
10100000
01000000
00010000
00000000
01010000
00000000
00000000
00000000
,  // measure 40
00001100
00000000
00000001
00000000
00000010
00000000
00000000
00000000
00000011
00000000
00001000
00000100
00001000
00000100
00001000
00000100
,  // measure 41
00000010
00000000
00000001
00000000
00000100
00000010
00001000
00000000
00000100
00010000
00001000
00100000
01000000
00000000
10000000
00000000
,  // measure 42
00100000
01000000
00100000
10000000
00010000
00000000
00100000
01000000
00000000
01000000
10000000
00010000
01000000
00000000
00100000
01000000
,  // measure 43
00000000
01000000
00001000
00000000
00010000
00000000
00000010
00000000
00000100
00000001
00000100
00000010
00001000
00000001
00001000
00000100
,  // measure 44
00010000
00000000
00001000
00000000
00000000
00000000
00000000
00000000
00000000
00010000
00001000
00010000
00000100
00000000
00001000
00000001
,  // measure 45
00000000
00001000
00000100
00000000
00010000
00000000
00001000
01000000
00000000
01000000
00010000
10000000
01000000
00000000
00100000
00001000
,  // measure 46
00010000
00000000
00001000
00000000
01000000
00000000
00100000
00000000
10000000
01000000
00100000
00010000
01000000
00000000
00001000
00100000
,  // measure 47
00000000
00100000
00010000
00000000
01000000
00100000
10000000
00000000
01000000
00000000
00100000
00001000
00000000
00000000
00010000
00000010
,  // measure 48
00000100
00000010
00001000
00000100
00000010
00000000
00000001
00000100
00000000
00000010
00010000
00001000
00100000
00000000
01000000
00000000
,  // measure 49
10010000
00000000
00000000
00000000
;
