#TITLE:SUPER SAMURAI;
#SUBTITLE:(25th Anniversary Special);
#ARTIST:jun;
#TITLETRANSLIT:;
#SUBTITLETRANSLIT:;
#ARTISTTRANSLIT:;
#GENRE:;
#CREDIT:;
#BANNER:SUPER SAMURAI (25th Anniversary Special)-bn.png;
#BACKGROUND:SUPER SAMURAI (25th Anniversary Special)-bg.png;
#LYRICSPATH:;
#CDTITLE:;
#MUSIC:SUPER SAMURAI (25th Anniversary Special).ogg;
#OFFSET:1.000000;
#SAMPLESTART:11.353000;
#SAMPLELENGTH:20.000000;
#SELECTABLE:YES;
#DISPLAYBPM:170.000000;
#BPMS:0.000000=170.000000
;
#STOPS:199.750000=0.353000
;
#BGCHANGES:;
#KEYSOUNDS:;
#ATTACKS:;

//---------------dance-single - ----------------
#NOTES:
     dance-single:
     :
     Challenge:
     15:
     0.852939,0.998492,0.448303,0.030566,0.636793,586.000000,542.000000,44.000000,3.000000,0.000000,0.000000,0.852939,0.998492,0.448303,0.030566,0.636793,586.000000,542.000000,44.000000,3.000000,0.000000,0.000000:
// measure 0
0000
0000
0000
0000
,  // measure 1
0000
0000
0000
0000
,  // measure 2
0000
0000
0000
0000
,  // measure 3
0000
0000
0000
0000
,  // measure 4
0000
0000
0000
0000
0000
0000
0010
1000
,  // measure 5
0100
0010
0001
0000
1000
0001
1000
0100
,  // measure 6
0000
1001
0000
0110
0000
0000
1000
0010
,  // measure 7
0000
0101
0000
1100
0000
0000
0010
0001
,  // measure 8
0000
0011
0000
1010
0000
0000
0100
0001
,  // measure 9
1000
0100
0001
0000
0010
0001
0100
0010
,  // measure 10
1000
0100
0000
0100
1000
0000
0010
0100
,  // measure 11
0001
0010
0000
1000
0010
0000
0100
0000
0010
0000
0001
0000
1000
0000
0000
0000
,  // measure 12
0001
0100
0001
0000
1000
0100
1000
0000
0001
0010
0001
0000
1000
0010
1000
0000
,  // measure 13
0101
0000
0100
0010
1001
0000
0100
0010
,  // measure 14
1000
0100
0000
0010
0001
0000
0100
0000
0010
0000
1000
0000
0001
0000
0010
0000
,  // measure 15
0100
1000
0000
1000
0001
0000
0100
0000
0010
0000
1000
0000
0001
0000
0100
0000
,  // measure 16
0001
0010
0001
0000
1000
0010
1000
0000
0001
0100
0001
0000
1000
0100
1000
0000
,  // measure 17
0011
0000
0000
1100
0000
0000
0101
0000
0000
0000
0010
0000
1000
0000
0001
0000
,  // measure 18
1100
0000
0000
0110
0000
0000
0011
0000
0000
0000
0100
0000
0010
0000
1000
0000
,  // measure 19
1001
0000
0000
1010
0000
0000
0101
0000
0000
0000
0010
0000
1000
0000
0100
0000
,  // measure 20
0010
0000
0001
0100
0001
0000
1000
0100
1000
0000
0001
0010
0001
0000
1000
0010
,  // measure 21
1000
0000
0000
0110
0000
0000
1001
0000
0000
0000
0100
0000
0001
0000
0010
0000
,  // measure 22
0110
0000
0000
1001
0000
0000
0101
0000
0000
0000
1000
0000
0010
0000
0001
0000
,  // measure 23
0011
0000
0000
1010
0000
0000
1100
0000
0000
0000
1000
0000
0010
0000
0100
0000
,  // measure 24
0001
0000
0010
0100
1000
0000
0010
0100
0001
0000
0010
0100
0010
0000
0001
1000
,  // measure 25
0000
0110
1001
0100
0001
0010
0100
1000
,  // measure 26
0010
0100
0000
0100
0001
0000
1000
0000
0100
0000
0010
0000
0010
0000
0001
0000
,  // measure 27
1000
0100
0000
0100
0001
0000
1000
0010
0000
0010
0001
0000
0100
0000
0010
0000
,  // measure 28
1000
0000
0100
0010
0001
0000
0100
0010
1000
0000
0001
0010
0100
0000
1000
0001
,  // measure 29
0100
0000
0000
0101
0000
0000
1010
0000
0000
0000
0001
0000
0010
0000
1000
0000
,  // measure 30
1100
0000
0000
1001
0000
0000
0110
0000
0000
0000
1000
0000
0010
0000
0001
0000
,  // measure 31
0100
0000
0001
0010
0000
0100
1000
0000
0010
0000
0100
0000
0100
0000
0001
0000
,  // measure 32
1000
0000
0001
0100
0001
0000
0010
0001
0010
0000
0001
1000
0100
0000
1000
0010
,  // measure 33
0200
0000
0001
0000
0000
0000
1000
0000
0000
0000
0001
0000
0000
0000
0310
0100
,  // measure 34
0010
0010
1000
1000
0100
0100
0001
0001
,  // measure 35
0010
0000
0001
0100
0010
0000
1000
0000
0100
0000
0100
0000
0010
0000
0010
0000
,  // measure 36
0001
0001
1000
1000
0010
0010
0100
0100
,  // measure 37
0001
0000
0010
0100
1000
0000
0001
0000
1000
0000
1000
0000
0010
0100
0001
0000
,  // measure 38
1000
1000
0010
0010
0001
0001
0100
0100
,  // measure 39
0010
0000
0100
0001
1000
0000
0100
0000
0010
0000
0010
0000
0001
0000
0001
0000
,  // measure 40
0100
0100
0010
0010
1000
1000
0001
0001
,  // measure 41
0010
0000
0100
1000
0001
0000
0100
0000
0010
0000
1000
0100
0001
0000
1000
0010
,  // measure 42
0001
0100
0010
0100
0001
0010
1000
0001
,  // measure 43
0100
0000
0001
0010
0001
0000
0100
0000
1000
0000
0010
0000
1000
0000
0001
0100
,  // measure 44
0010
1000
0100
1000
0001
0010
1000
0001
,  // measure 45
0100
0000
0010
1000
0010
0000
0100
0000
0001
0000
0010
0000
0001
0100
0010
1000
,  // measure 46
0100
0010
0100
0001
0100
1000
0001
0010
,  // measure 47
0100
0000
1000
0001
1000
0000
0010
0000
0100
0000
0001
0000
1000
0000
0001
0000
,  // measure 48
0010
0000
1000
0010
0001
0000
0100
0000
0010
0000
1000
0100
0001
0100
1000
0000
,  // measure 49
0010
0000
0100
0001
0010
0000
0100
0000
1000
0000
0001
0100
0001
0000
1000
0100
,  // measure 50
1001
0000
0000
0110
0000
0000
1001
0000
0000
0000
0010
0000
1000
0000
0001
0000
,  // measure 51
0010
0100
0000
1100
0000
0000
0101
0000
0000
0000
1000
0000
0010
0000
0100
0000
,  // measure 52
0001
0000
0010
0100
0000
0000
1000
0001
1000
0010
0100
0000
0001
0000
0001
0000
,  // measure 53
1000
0100
0010
0100
1000
0100
0010
0100
1000
0010
0100
0010
1000
0010
0100
0010
,  // measure 54
1000
0000
0000
1010
0000
0000
0011
0000
0000
0000
0001
0000
0100
0000
0010
1000
,  // measure 55
0010
0100
0000
0110
0000
0000
1001
0000
0000
0000
0001
0000
1000
0000
0100
0000
,  // measure 56
0010
0001
0000
0001
0100
0000
0010
1000
0001
0000
0000
0000
0001
0000
0100
0000
,  // measure 57
0010
1000
0001
1000
0010
1000
0001
1000
0100
1000
0001
1000
0100
1000
0001
1000
,  // measure 58
0010
0100
0000
0010
0100
0000
0001
0000
0000
0000
1000
0000
1000
0000
0001
0000
,  // measure 59
0010
0100
0000
0100
1000
0000
0001
0000
0000
0000
0100
0000
0100
0000
0010
0000
,  // measure 60
1000
0001
0000
0001
0010
0000
0001
0100
0010
0000
0000
0000
1000
0000
1000
0000
,  // measure 61
0001
0010
0100
0010
0100
0010
0100
0010
0100
1000
0100
1000
0100
1000
0001
1000
,  // measure 62
0010
0100
0000
0010
1000
0000
0001
0000
0000
0000
0100
0000
0100
0000
0001
0000
,  // measure 63
1000
0001
0000
0001
0010
0000
0100
0000
0000
0000
1000
0000
1000
0000
0001
0000
,  // measure 64
0010
0000
0100
0010
0000
0100
1000
0000
0001
0000
0000
0000
0100
0000
0010
0000
,  // measure 65
1000
0001
1000
0001
0100
0010
0100
0010
1000
0001
1000
0001
0100
0010
0100
0010
,  // measure 66
1000
0000
0000
0000
0000
0000
0100
0000
0100
0010
0001
0000
1000
0000
1010
0000
,  // measure 67
0000
0101
2200
0000
0000
0000
0000
0000
,  // measure 68
0000
0000
0000
0000
,  // measure 69
0000
0000
0000
0000
,  // measure 70
3300
0000
0000
0000
;
