#TITLE:성숙;
#ARTIST:SPACE A;
#TITLETRANSLIT:SUNG SUK;
#BANNER:SUNG SUK-bn.png;
#BACKGROUND:SUNG SUK-bg.png;
#JACKET:SUNG SUK-jacket.png;
#MUSIC:SUNG SUK.ogg;
#OFFSET:1.093;
#SAMPLESTART:48.589;
#SAMPLELENGTH:20;
#LASTBEATHINT:0.19;
#DISPLAYBPM:134:135;
#BPMS:0=134,122=135,124=134,144=135,146=134;
#BGCHANGES:0=SUNG SUK.mp4=1=0=0=0
;

//---------------dance-single - ----------------
#NOTES:
     dance-single:
     :
     Beginner:
     1:
     :
0000
0000
0000
0000
,
0000
0000
0000
0000
,
0000
0000
0000
0000
,
0000
0000
0000
0000
,
0000
0000
0000
0000
,
0001
0000
0010
0000
,
1000
0000
0100
0000
,
0010
0000
0010
0000
,
0001
0000
1000
0000
,
0100
0000
0000
0000
,
1000
0000
0000
0000
,
0001
0001
0000
0000
,
0010
0000
0100
0000
,
1000
0000
0001
0000
,
1000
0000
0000
0000
,
0010
0000
0100
0000
,
0010
0000
0100
0000
,
0001
0000
0000
0000
,
1000
0000
0000
0000
,
0010
0000
0000
0000
,
1000
0000
0000
0000
,
0100
0000
0000
0000
,
0010
0000
0000
0000
,
0001
0000
0000
0000
,
0100
0000
0000
0000
,
0010
0000
0000
0000
,
1000
0000
0000
0000
,
0001
0000
0000
0000
,
0010
0000
0010
0000
,
0100
0000
1000
0000
,
0001
0000
1000
0000
,
0001
0000
0100
0000
,
0010
0000
0100
0000
,
0010
0000
1000
0000
,
1000
0000
0001
0000
,
0100
0000
0010
0000
,
0100
0000
0100
0000
,
0010
0000
0000
0000
,
1000
0000
0000
0000
,
0001
0000
0000
0000
,
0010
0000
0100
0000
,
0010
0000
0001
0000
,
1000
0000
1000
0000
,
0001
0000
0010
0000
,
0100
0000
0000
0000
;

//---------------dance-single - ----------------
#NOTES:
     dance-single:
     :
     Easy:
     3:
     :
0000
0000
0000
0000
,
0000
0000
0000
0000
,
0000
0000
0000
0000
,
0000
0000
0000
0000
,
0000
0000
0000
0000
,
0010
0000
0100
0000
,
0001
1000
0001
0000
,
0010
0000
0001
0000
,
1000
0001
0100
0000
,
0010
0010
0100
0100
,
0001
0001
1000
1000
,
0001
0000
1000
0000
,
0001
0000
1000
0000
,
0010
0000
0100
0000
,
0100
0000
0001
0000
,
1000
0000
0001
0000
,
1000
0000
0001
0000
,
0010
0000
0100
0000
,
0100
0000
0001
0000
,
0010
0010
0100
0100
,
1000
0001
0001
0000
,
0001
1000
1000
0000
,
1000
0001
0001
0000
,
0001
1000
0001
0000
,
0010
0001
0001
0000
,
0001
1000
1000
0000
,
0100
0100
0001
0001
,
0010
0010
0010
0000
,
0010
0100
1000
0001
,
0100
0001
1000
0000
,
0010
0010
1000
0001
,
1000
0100
0001
0000
,
0010
0000
0010
0000
,
0010
0100
1000
0000
,
0010
0000
0100
0000
,
0001
1000
0001
0000
,
0010
0000
0000
0000
,
0010
0000
0000
0000
,
0010
0000
0000
0000
,
0010
0000
0000
0000
,
0100
0100
0010
0010
,
0001
1000
0100
0000
,
0001
0000
1000
0000
,
0001
1000
0001
0000
,
0100
0000
0000
0000
;

//---------------dance-single - ----------------
#NOTES:
     dance-single:
     :
     Medium:
     5:
     :
0000
0000
0000
0000
,
0000
0000
0000
0000
,
0000
0000
0000
0000
,
0000
0000
0000
0000
,
0000
0000
0000
0000
,
1000
0000
0100
0000
0001
0100
0100
0000
,
0001
1000
0100
0000
,
0001
0000
1000
0000
,
0001
0000
1000
0100
0001
0000
0000
0000
,
0010
0010
0100
0100
,
0001
0001
1000
1001
,
0001
1000
0001
0001
,
1000
0001
1000
1000
,
0001
1000
0001
0001
,
1000
0001
1000
1000
,
0001
0010
0100
0100
,
1000
0001
0100
0100
,
1000
0001
1000
1000
,
0001
1000
0100
0110
,
0010
1010
0100
0101
,
1000
0000
0001
0000
0001
0100
1000
0000
,
0001
0000
1000
0000
1000
0100
0001
0000
,
1000
0000
0010
0000
0010
1000
0100
0000
,
1000
0000
0100
0000
0100
0010
0001
0000
,
1000
0000
0001
0000
0001
0100
1000
0000
,
0001
0000
1000
0000
1000
0001
1000
0000
,
0001
0100
1000
0010
,
0001
1000
0001
0000
,
0010
0100
1000
0001
,
0100
0000
0001
1000
0001
0000
0000
0000
,
0010
0000
0010
0000
1000
0001
0100
0000
,
1000
0100
0001
0000
,
1000
0000
0001
0000
0100
0100
0001
0000
,
0001
1000
0100
0000
,
0001
0000
0100
0000
,
0001
0000
1000
0001
1000
0000
0000
0000
,
0000
0100
0000
0100
,
0000
0000
1000
1000
0000
0000
0100
0000
,
0000
0100
0000
0100
,
0000
0000
1000
1000
0000
0000
0100
0000
,
1000
0000
0100
0000
0001
0100
0100
0000
,
0001
1000
0100
0000
,
0001
0000
1000
0000
,
0001
0000
1000
0001
1000
0000
0000
0000
,
0100
0000
0000
0000
;

//---------------dance-single - ----------------
#NOTES:
     dance-single:
     :
     Hard:
     10:
     :
0000
0000
0000
0000
,
0000
0000
0000
0000
,
0000
0000
0000
0000
,
0000
0000
0000
0000
,
0000
0000
0000
0000
,
0100
0000
0100
0000
0001
1000
0100
0000
,
0001
0000
1000
0001
0100
0000
0000
0000
,
0011
0000
1100
0000
,
0001
0000
1000
0100
0001
0000
0000
0000
,
0010
0100
0010
1000
0001
0100
1001
0000
,
0001
0010
0001
1000
0001
0100
0110
0000
,
0001
0100
1000
0001
0000
1000
0001
0000
,
1000
0100
0001
1000
0000
0001
1000
0000
,
0001
0010
1000
0001
0000
1000
0001
0000
,
1000
0001
0001
1000
0000
0010
0100
0000
,
0001
1000
0010
0100
0000
0100
0100
0000
,
1000
0010
0010
0100
0000
1000
0001
0000
,
1000
0001
0001
1000
0000
0001
1000
0000
,
0001
0100
1000
0010
0000
0100
0101
0000
,
0010
1000
0001
0100
0010
1000
1001
0000
,
1000
0000
0001
0000
0001
0100
1000
0100
,
0001
0000
1000
0000
1000
0100
0001
0100
,
1000
0000
0010
0000
0010
1000
0100
0001
,
1000
0000
0100
0000
0100
0010
0001
1000
,
1000
0000
0001
0000
0001
0010
1000
0010
,
0001
0000
1000
0000
1000
0001
1000
0001
,
0001
0100
1000
0010
,
0001
0000
0000
1000
0000
0000
0001
0000
0000
0000
0000
0000
0000
0000
0000
0000
,
0010
0010
0100
0100
1000
0010
0001
0000
,
0100
0100
0001
1000
0001
1000
1000
0000
,
0010
0010
0010
0100
1000
0001
0100
0000
,
1000
0010
0010
0100
0001
1000
0001
0000
,
1000
1000
0001
0001
0100
0100
1000
0001
,
0100
0100
0001
0001
1000
0001
1000
0000
,
0101
0001
0001
0000
1100
1000
1000
0000
,
0001
0001
0100
0100
1000
0001
1000
0000
,
0010
1100
0010
0101
,
0010
0000
1100
1100
0010
0000
0101
0000
,
0010
1100
0010
0101
,
0010
0000
1100
1100
0010
0000
0101
0000
,
1000
1000
0001
0001
0100
0100
1000
0001
,
0100
0100
0001
0001
1000
0001
1000
0000
,
0110
0001
0001
0000
1001
0100
0100
0000
,
0001
0001
1000
1000
0100
0010
0100
0000
,
0100
0000
0000
0000
;

//---------------dance-single - ----------------
#NOTES:
     dance-single:
     :
     Challenge:
     12:
     :
0000
0000
0000
0000
,
0000
0000
0000
0000
,
0000
0000
0000
0000
,
0000
0000
0000
0000
,
0000
0000
0000
0000
,
0001
0100
0001
1000
1000
1000
0010
0100
,
0001
0010
1000
0000
1100
0000
0100
0100
,
0010
0001
0100
0001
1000
0010
0100
0001
,
0001
0000
1000
0000
0001
0000
0100
0000
0010
1000
0010
0000
1000
0000
0001
0000
,
0010
0000
0001
0100
0000
0010
1000
0000
0100
0010
0000
0000
1001
0000
0010
0000
,
0010
0000
0100
0001
0100
0000
0010
1000
0010
0000
0100
0000
0001
0000
1000
0000
,
0001
0000
0000
0000
2010
0000
0100
0000
3001
0000
1000
0000
1000
0000
0010
0100
,
0010
1000
0001
0010
0100
1000
0001
0100
,
0210
0000
0000
0000
0310
0000
1000
0001
0000
0010
0100
0000
1000
0000
0000
0000
,
0002
0000
0100
0000
0103
0000
1000
0001
1000
0000
0000
0000
0010
0000
0010
0000
,
0010
0100
0001
1000
0100
0010
0001
0000
,
0102
0000
0010
0000
1003
0000
0001
0000
0100
0010
0100
0000
0001
0000
1000
0000
,
0010
1000
0001
0010
0001
0100
1000
0000
,
0002
0000
0010
0000
0013
0000
0001
1000
0001
0000
0000
0000
0011
0000
0000
0000
,
1000
0000
0001
0100
0001
0000
1000
0100
1000
0000
0010
0000
0010
0000
0100
0000
,
0001
0010
0100
1000
0020
0000
0130
0001
,
1000
0001
0010
0100
2000
0000
3001
0100
,
0001
0010
1000
0010
0001
0100
1000
0100
,
0001
1000
0100
1000
0020
0000
0130
0001
,
1000
0000
0100
0000
0010
0000
0001
1000
0001
0000
0000
0000
0100
0000
0010
0000
,
1000
0000
0100
0000
1000
0000
0001
0010
0001
0000
0000
0000
0200
0000
0000
0000
,
0320
1000
0100
1030
0001
0100
0010
1000
,
0001
0000
0000
0001
0000
0000
0001
0000
0000
0000
0110
0000
0001
0000
1000
0010
,
1000
0000
0001
0100
1000
0010
0100
0001
,
0010
0000
0100
1000
0001
0100
1001
0000
,
0010
0000
0010
1000
0001
0001
0001
0100
,
1000
0000
0100
0000
0001
0000
0010
0000
0001
1000
0001
0000
0100
0000
0010
0000
,
1010
0000
0101
0010
1000
1000
1000
0001
,
0010
0100
2000
0000
3002
0000
0103
0010
,
1000
0000
1100
0001
0010
0100
1000
0001
,
2000
0000
0000
0000
3010
0000
0100
0000
0001
1000
0001
0000
0010
0100
0010
0000
,
0001
0000
0011
1000
0001
0000
1000
0100
,
0010
0000
0001
0100
1000
0000
0010
1000
,
0100
0000
0010
0001
1000
0010
1000
0100
,
0001
0000
0010
0010
0010
0000
0001
1000
,
1001
0000
1010
0001
1000
1000
1000
0100
,
0010
0001
0100
0000
0101
0000
1000
0001
,
0011
0000
0100
1000
0001
0010
0001
1000
,
0010
0000
1000
0000
0100
0000
0010
0000
0001
1000
0001
0000
0100
0000
0010
0000
,
2000
0000
0000
0000
,
0000
0000
0000
0000
0000
0000
0000
0000
0000
0000
3001
0000
;

//---------------dance-double - ----------------
#NOTES:
     dance-double:
     :
     Easy:
     4:
     :
00000000
00000000
00000000
00000000
,
00000000
00000000
00000000
00000000
,
00000000
00000000
00000000
00000000
,
00000000
00000000
00000000
00000000
,
00000000
00000000
00000000
00000000
,
00100000
00100000
01000000
01000000
,
00010000
00001000
00001001
00000000
,
00000010
00000000
00000010
00000000
,
00000001
00001000
00010000
00000000
,
00001000
00010000
00001000
00011000
,
01000000
00100000
01000000
01100000
,
10000000
00000000
00010000
00000000
,
00100000
00000000
00001000
00000000
,
00010000
00000000
00000100
00000000
,
00000010
00000000
00000100
00000000
,
00000001
00000000
00001000
00000000
,
00000010
00000000
00010000
00000000
,
00001000
00000000
01000000
00000000
,
00100000
00000000
01000000
00000000
,
00010000
00001000
00010000
00011000
,
00000010
00000001
00000100
00001000
,
00010000
01000000
10000000
00100000
,
00100000
10000000
01000000
00010000
,
00001000
00000100
00000001
00000010
,
00000010
00000001
00000100
00001000
,
00010000
01000000
10000000
00100000
,
00010000
00001000
00010000
00010000
,
00001000
00001000
00011000
00000000
,
00000010
00000001
00001000
00000100
,
00000001
00001000
00001001
00000000
,
00100000
10000000
00010000
01000000
,
10000000
00010000
10010000
00000000
,
00100000
00100000
01000000
01000000
,
00010000
00001000
00001001
00000000
,
00000010
00000000
00000010
00000000
,
00000001
00001000
00010000
00000000
,
00010000
00000000
00000000
00000000
,
00001000
00000000
00000000
00000000
,
00010000
00000000
00000000
00000000
,
00001000
00000000
00000000
00000000
,
00100000
00100000
01000000
01000000
,
00010000
00001000
00001001
00000000
,
00000010
00000000
00000010
00000000
,
00000001
00001000
00010000
00000000
,
00010000
00000000
00000000
00000000
;

//---------------dance-double - ----------------
#NOTES:
     dance-double:
     :
     Medium:
     6:
     :
00000000
00000000
00000000
00000000
,
00000000
00000000
00000000
00000000
,
00000000
00000000
00000000
00000000
,
00000000
00000000
00000000
00000000
,
00000000
00000000
00000000
00000000
,
00010000
00010000
00001000
00001000
,
00000100
00000001
00001000
00000100
00000010
00000000
00000000
00000000
,
00001001
00000000
00001000
00000100
00000001
00000000
00000000
00000000
,
00000110
00000000
00001000
00000001
00001000
00000000
00000000
00000000
,
00001000
00000000
00000010
00000000
00000100
00000001
00000100
00000000
,
00000100
00000000
00000010
00000000
00001000
00000010
00001000
00000000
,
00000010
00000000
00000100
00000010
00000000
00010000
00001000
00000000
,
00100000
00000000
01000000
00100000
00000000
00001000
00010000
00000000
,
00000010
00000000
00000100
00000010
00000000
00010000
00001000
00000000
,
00100000
00000000
01000000
00100000
00000000
00010000
10000000
00000000
,
01000000
00000000
00100000
00001000
00000000
00010000
00000010
00000000
,
00000100
00000000
00000010
00000100
00000000
00000001
00001000
00000000
,
00000100
00000000
00000010
00000001
00000000
00000001
00000001
00000000
,
00001000
00000000
00000100
00000010
00000000
00000100
00000100
00000000
,
00000010
00000000
00000010
00000000
00000100
00000100
00000010
00000000
,
00010000
00001000
00010000
00001000
,
00010000
00000000
00001000
00000000
00010000
00001000
00010000
00000000
,
00000010
00001000
00000001
00001000
,
00000100
00000000
00010000
00000000
00001000
00100000
01000000
00000000
,
10000000
00010000
10000000
00010000
,
10000000
00000000
00010000
00000000
10000000
00010000
01000000
00000000
,
00001000
00010000
00001000
00010000
,
00001000
01000000
00100000
00000000
,
00010000
10000000
01000000
00100000
,
00001000
00000100
00001001
00000000
,
00000010
00000000
00000010
00000000
00001000
00000001
00000100
00000000
,
00001000
00000000
00000010
00000010
00000010
00000000
00000000
00000000
,
00010000
00010000
00001000
00001000
,
01000000
00010000
10000000
01000000
00100000
00000000
00000000
00000000
,
10010000
00000000
00010000
01000000
10000000
00000000
00000000
00000000
,
01100000
00000000
00010000
10000000
00010000
00000000
00000000
00000000
,
00000000
10010000
00000000
00011000
,
00000000
00000000
00010000
00010000
00000000
00000000
00001001
00000000
,
00000000
00011000
00000000
10010000
,
00000000
00000000
00010000
00010000
00000000
00000000
00011000
00000000
,
00010000
00010000
00001000
00001000
,
00000100
00000001
00001000
00000100
00000010
00000000
00000000
00000000
,
00000110
00000000
00000100
00001000
00000001
00000000
00000000
00000000
,
00001001
00000000
00000100
00000010
00000100
00000000
00000000
00000000
,
00000100
00000000
00000000
00000000
;

//---------------dance-double - ----------------
#NOTES:
     dance-double:
     :
     Hard:
     8:
     :
00000000
00000000
00000000
00000000
,
00000000
00000000
00000000
00000000
,
00000000
00000000
00000000
00000000
,
00000000
00000000
00000000
00000000
,
00000000
00000000
00000000
00000000
,
00000010
00000000
00000010
00000000
00001000
00000100
00000001
00000100
,
00001000
00000100
00000001
00000100
00000001
00000000
00000000
00000000
,
00001100
00000000
00011000
00000000
,
01010000
00000000
10000000
00010000
10000000
00000000
00000000
00000000
,
00010000
00010000
10000000
00010000
10000000
00001000
00010000
00000000
,
00000010
00000100
00000001
00001000
00000010
00000100
00000100
00000000
,
00000000
00000001
00000000
00001000
00000000
00000010
00000000
00000100
,
00000000
00001000
00000000
00010000
00000000
00001000
00001000
00000000
,
00000000
00010000
00000000
01000000
00000000
10000000
00000000
00010000
,
00000000
01000000
00000000
00001000
00000000
00010000
00010000
00000000
,
00000000
00001010
00000000
00000101
00000000
00001100
00000000
00011000
,
00000000
01010000
00000000
11000000
00000000
00100000
00010000
00000000
,
00000000
00110000
00000000
11000000
00000000
01010000
00000000
00011000
,
00000000
00001100
00000000
00000101
00000000
00000010
00001000
00000000
,
00000010
00000000
00000100
00000000
00000001
00001000
00000100
00000000
,
00000001
00000000
00001000
00000000
00000100
00010000
00001000
00000000
,
01000000
00000000
00100000
00000000
10000000
00010000
01000000
00000000
,
00001000
00000000
00010000
00000000
00000100
00001000
00000001
00000000
,
00000010
00000000
00000100
00000000
00001000
00000001
00001000
00000100
,
00000010
00000000
00000001
00000000
00000100
00001000
00010000
00000000
,
01000000
00000000
00100000
00000000
10000000
00010000
01000000
00000000
,
00001000
00000000
00010000
00000000
00000100
00001000
00000001
00000000
,
00000010
00000000
00000000
00000100
00000000
00000000
00010000
00000000
00000000
00000000
00000000
00000000
00000000
00000000
00000000
00000000
,
00001000
00000000
00010000
00010000
00001000
00000000
00010000
01000000
,
00100000
00000000
00001000
00000100
00000010
00000000
00000000
00000000
,
00000010
00000000
00000100
00000100
00000001
00001000
00000001
00001000
,
00000100
00000000
00000010
00000010
00000010
00000000
00000000
00000000
,
00000010
00000000
00000010
00000000
00001000
00000010
00000100
00000001
,
00001000
00000010
00000100
00000001
00000001
00000000
00000000
00000000
,
00001100
00000000
00011000
00000000
,
01010000
00000000
00100000
00010000
00100000
00000000
00000000
00000000
,
00100000
11000000
00100000
00011000
,
00000010
00000000
00001001
00000001
00000000
00000000
00001001
00000000
,
00000010
00000101
00000010
00011000
,
00100000
00000000
10010000
10000000
00000000
00000000
10010000
00000000
,
00100000
00000000
00100000
00000000
10000000
01000000
00010000
01000000
,
10000000
01000000
00010000
01000000
00010000
00000000
00000000
00000000
,
01010000
00000000
00011000
00000000
,
00001100
00000000
00000010
00000100
00000010
00000000
00000000
00000000
,
00001000
00000000
00000000
00000000
;

//---------------dance-couple - ----------------
#NOTES:
     dance-couple:
     :
     Challenge:
     3:
     :
00000000
00000000
00000000
00000000
,
00000000
00000000
00000000
00000000
,
00000000
00000000
00000000
00000000
,
00000000
00000000
00000000
00000000
,
00000000
00000000
00000000
00000000
,
00100000
00000010
01000000
00000100
,
00010000
10000001
00011000
00000001
,
00100000
00000010
00010000
00000001
,
10001000
00010001
01000100
00000000
,
00100000
01000000
00100000
10000000
00010000
01000000
10010000
00000000
,
00000010
00000100
00000010
00001000
00000001
00000100
00001001
00000000
,
00010000
10000000
00010000
00010000
,
00001000
00000001
00001000
00001000
,
10000000
00010000
10000000
10000000
,
00000001
00001000
00000001
00000001
,
00010000
00100000
01000000
01000000
,
00001000
00000010
00000100
00000100
,
10000001
00011000
10000001
10000001
,
00011000
10000001
01000100
01100110
,
00100010
10001000
00010001
01000100
00100010
10001000
10011001
00000000
,
10000000
00010000
00010000
00000000
,
00000001
00001000
00001000
00000000
,
00010000
10000000
10000000
00000000
,
00001000
00000001
00000001
00000000
,
00100000
01000000
01000000
00000000
,
00000010
00000100
00000100
00000000
,
10000000
10000000
00000001
00000001
,
00011000
00000000
00000000
10000001
00000000
00000000
00011000
00000000
00000000
00000000
00000000
00000000
00000000
00000000
00000000
00000000
,
00100010
01000100
10001000
00010001
,
01000100
00000000
00010001
10001000
00010001
00000000
00000000
00000000
,
00100010
00000000
00100010
00000000
10001000
00010001
01000100
00000000
,
10001000
01000100
00010001
00000000
,
10001000
00000000
00010001
00000000
01000100
01000100
00010001
00000000
,
00010001
10001000
01000100
00000000
,
00010001
00000000
01000100
00000000
,
00010001
00000000
10001000
00010001
10001000
00000000
00000000
00000000
,
00000000
01000000
00000000
01000000
,
00000000
00000000
10000001
10000001
00000000
00000000
01000000
00000000
,
00000000
00000100
00000000
00000100
,
00000000
00000000
10000001
10000001
00000000
00000000
00000100
00000000
,
10001000
10001000
00010001
00010001
01000100
01000100
10001000
00010001
,
01000100
01000100
00010001
00010001
10001000
00010001
10001000
00000000
,
01100110
00010001
00010001
00000000
10011001
01000100
01000100
00000000
,
00010001
00010001
10001000
10001000
01000100
00100010
01000100
00000000
,
01000100
00000000
00000000
00000000
;

//---------------dance-solo - ----------------
#NOTES:
     dance-solo:
     :
     Easy:
     3:
     :
000000
000000
000000
000000
,
000000
000000
000000
000000
,
000000
000000
000000
000000
,
000000
000000
000000
000000
,
000000
000000
000000
000000
,
000100
000000
001000
000000
,
000010
100000
000001
000000
,
000100
000000
000010
000000
,
010000
000001
001000
000000
,
000010
000010
100000
100000
,
000001
000001
010000
010000
,
000010
000000
100000
000000
,
000001
000000
010000
000000
,
000100
000000
001000
000000
,
001000
000000
000010
000000
,
100000
000000
000001
000000
,
010000
000000
000010
000000
,
000100
000000
001000
000000
,
001000
000000
000001
000000
,
010000
010000
001000
001000
,
100000
000001
000001
000000
,
000010
010000
010000
000000
,
100000
000001
000001
000000
,
000010
010000
000001
000000
,
000100
000010
000010
000000
,
000001
010000
010000
000000
,
001000
001000
000001
000001
,
000100
000100
000100
000000
,
000100
001000
010000
000001
,
001000
000010
100000
000000
,
000100
000100
010000
000010
,
100000
001000
000001
000000
,
000100
000000
000100
000000
,
000100
001000
010000
000000
,
000100
000000
001000
000000
,
000010
100000
000001
000000
,
010000
000000
000000
000000
,
010000
000000
000000
000000
,
010000
000000
000000
000000
,
010000
000000
000000
000000
,
001000
001000
000100
000100
,
000001
010000
001000
000000
,
000001
000000
100000
000000
,
000010
010000
000001
000000
,
001000
000000
000000
000000
;

//---------------dance-solo - ----------------
#NOTES:
     dance-solo:
     :
     Medium:
     5:
     :
000000
000000
000000
000000
,
000000
000000
000000
000000
,
000000
000000
000000
000000
,
000000
000000
000000
000000
,
000000
000000
000000
000000
,
100000
000000
001000
000000
000001
001000
001000
000000
,
000010
010000
001000
000000
,
000001
000000
100000
000000
,
000010
000000
010000
001000
000001
000000
000000
000000
,
000010
000010
001000
001000
,
000001
000001
010000
100010
,
000001
010000
000010
000010
,
100000
000001
010000
010000
,
000010
100000
000001
000001
,
010000
000010
100000
100000
,
000001
000100
001000
001000
,
010000
000001
001000
001000
,
100000
000010
010000
010000
,
000001
100000
001000
001100
,
010000
100100
001000
001001
,
100000
000000
000010
000000
000010
001000
010000
000000
,
000001
000000
100000
000000
010000
001000
000010
000000
,
100000
000000
000100
000000
000010
010000
001000
000000
,
100000
000000
001000
000000
001000
000100
000001
000000
,
010000
000000
000010
000000
000001
001000
100000
000000
,
000010
000000
010000
000000
010000
000001
100000
000000
,
000010
001000
100000
000100
,
000010
010000
000001
000000
,
000100
001000
010000
000001
,
001000
000000
000010
100000
000010
000000
000000
000000
,
000100
000000
000100
000000
010000
000010
001000
000000
,
100000
001000
000001
000000
,
010000
000000
000010
000000
001000
001000
000001
000000
,
000010
100000
001000
000000
,
000001
000000
001000
000000
,
000010
000000
100000
000001
100000
000000
000000
000000
,
000000
001000
000000
001000
,
000000
000000
010000
010000
000000
000000
001000
000000
,
000000
001000
000000
001000
,
000000
000000
100000
100000
000000
000000
001000
000000
,
010000
000000
001000
000000
000001
001000
001000
000000
,
000010
100000
001000
000000
,
000001
000000
010000
000000
,
000010
000000
100000
000001
100000
000000
000000
000000
,
001000
000000
000000
000000
;

//---------------dance-solo - ----------------
#NOTES:
     dance-solo:
     :
     Hard:
     7:
     :
000000
000000
000000
000000
,
000000
000000
000000
000000
,
000000
000000
000000
000000
,
000000
000000
000000
000000
,
000000
000000
000000
000000
,
001000
000000
001000
000000
000010
100000
001000
000000
,
000001
000000
010000
000010
001000
000000
000000
000000
,
000101
000000
011000
000000
,
000001
000000
100000
001000
000001
000000
000000
000000
,
000100
001000
000100
010000
000001
001000
100010
000000
,
000001
000100
000001
010000
000001
001000
001100
000000
,
000010
001000
010000
000001
000000
100000
000001
000000
,
010000
001000
000010
100000
000000
000001
100000
000000
,
000001
000100
100000
000001
000000
100000
000010
000000
,
100000
000001
000001
100000
000000
000100
001000
000000
,
000001
100000
000100
001000
000000
001000
001000
000000
,
100000
000100
000100
001000
000000
100000
000001
000000
,
100000
000010
000010
010000
000000
000001
100000
000000
,
000010
001000
100000
000100
000000
001000
001010
000000
,
000100
010000
000001
001000
000100
100000
010010
000000
,
100000
000000
000001
000000
000001
001000
010000
001000
,
000010
000000
100000
000000
100000
001000
000001
001000
,
010000
000000
000100
000000
000100
100000
001000
000001
,
100000
000000
001000
000000
001000
000100
000001
100000
,
100000
000000
000010
000000
000010
000100
100000
000100
,
000001
000000
010000
000000
100000
000001
100000
000010
,
000010
001000
100000
000100
,
000001
000000
000000
100000
000000
000000
000001
000000
000000
000000
000000
000000
000000
000000
000000
000000
,
000100
000100
001000
001000
010000
000100
000001
000000
,
001000
001000
000001
100000
000010
010000
010000
000000
,
000100
000100
000100
001000
100000
000001
001000
000000
,
100000
000010
000010
001000
000001
100000
000001
000000
,
010000
010000
000010
000010
001000
001000
100000
000001
,
001000
001000
000010
000010
100000
000001
100000
000000
,
001010
000010
000010
000000
101000
100000
100000
000000
,
000001
000001
001000
001000
100000
000010
100000
000000
,
000100
011000
000100
001010
,
000100
000000
011000
011000
000100
000000
001010
000000
,
000100
011000
000100
001010
,
000100
000000
011000
011000
000100
000000
001010
000000
,
100000
100000
000001
000001
001000
001000
100000
000001
,
001000
001000
000010
000010
100000
000001
100000
000000
,
001100
000010
000010
000000
100001
010000
010000
000000
,
000010
000010
100000
100000
001000
010000
001000
000000
,
000010
000000
000000
000000
;
