#TITLE:STARLIGHT DANCEHALL;
#ARTIST:P*Light;
#BANNER:STARLIGHT DANCEHALL-bn.png;
#BACKGROUND:STARLIGHT DANCEHALL-bg.png;
#JACKET:STARLIGHT DANCEHALL-jacket.png;
#MUSIC:STARLIGHT DANCEHALL.ogg;
#SAMPLESTART:43.39;
#SAMPLELENGTH:20;
#DISPLAYBPM:177;
#BPMS:0=177;
#BGCHANGES:;

//---------------dance-single - ----------------
#NOTES:
     dance-single:
     :
     Beginner:
     4:
     :
0000
0000
0000
0000
,
0000
0000
0000
0000
,
0000
0000
0000
0000
,
0000
0000
0000
0000
,
0000
0000
0000
0000
,
0010
0010
0000
0000
,
0010
0010
0000
0000
,
0010
0010
0000
0000
,
0010
0000
1000
0000
,
0002
0000
0000
0000
,
0000
0000
0003
0000
,
2000
0000
0000
0000
,
0000
0000
3000
0000
,
0010
0000
0010
0000
,
0100
0000
0100
0000
,
0001
0000
1000
0000
,
0010
0000
0100
0000
,
0001
0001
0000
0010
,
0000
0001
0000
0100
,
0000
1000
0000
0010
,
0000
1000
1000
1000
,
0000
0100
0000
1000
,
0000
0001
0000
0010
,
0010
0000
0001
0000
,
0100
0100
0100
0000
,
1000
0000
1000
0000
,
0001
0000
0001
0000
,
0010
0000
0001
0000
,
0100
0000
1000
0000
,
0010
0000
0010
0000
,
0100
0000
0100
0000
,
0001
0000
0010
0000
,
1000
1000
0000
0000
,
0001
0000
0100
0000
,
1000
0000
1000
0000
,
0010
0000
0000
0000
,
0100
0000
0000
0000
,
0010
0000
0010
0000
,
1000
0000
0001
0000
,
0100
0000
0000
0000
,
0010
0000
1000
0000
,
0002
0000
0003
0000
,
0010
0000
0001
0000
,
0200
0000
0300
0000
,
0010
0000
1000
0000
,
0020
0000
0030
0000
,
1000
0000
0100
0000
,
1000
0000
0001
0000
,
2000
0000
3000
0000
,
0020
0000
0030
0000
,
2000
0000
3000
0000
,
0002
0000
0003
0000
,
0200
0000
0300
0000
,
0010
0010
0000
0000
,
0010
0010
0000
0000
,
0010
0010
0000
0000
,
1001
0000
0000
0000
,
0010
0000
0010
0000
,
0010
0000
0010
0000
,
0100
0000
0100
0000
,
0100
0000
0100
0000
,
0001
0000
1000
0000
,
0001
0000
1000
0000
,
0010
0010
0010
0010
,
0010
0000
0000
0000
,
1000
0000
1000
0000
,
0001
0000
0001
0000
,
1000
0000
0010
0000
,
1000
0000
0100
0000
,
0010
0000
0010
0000
,
0001
0000
0100
0000
,
0010
0000
0100
0000
,
0110
0000
0000
0000
,
1000
1000
1000
0000
,
0001
0001
0001
0000
,
0010
0010
0010
0000
,
0001
0000
1000
0000
,
0100
0100
0100
0000
,
0010
0010
0010
0000
,
0001
0001
0001
0000
,
1000
0000
0001
0000
,
0100
0000
0000
0000
;

//---------------dance-single - ----------------
#NOTES:
     dance-single:
     :
     Easy:
     7:
     :
0000
0000
0000
0000
,
0000
0000
0000
0000
,
0000
0000
0000
0000
,
0000
0000
0000
0000
,
0000
0000
0000
0000
,
0010
0010
0010
1000
,
0010
0010
0010
0001
,
0010
0010
0010
1000
,
0010
0010
0001
1000
,
0100
0100
0100
0100
,
0100
0100
0100
0100
,
0010
0010
0010
0010
,
0010
0010
0010
0010
,
0001
0001
1000
1000
,
0001
0001
1000
1000
,
0001
0010
1000
0100
,
1000
1000
0001
0100
,
0110
0001
0010
0001
,
0100
0010
1000
0100
,
1000
0010
0010
0010
,
1000
1000
1000
0100
,
1001
0010
0001
0100
,
0001
0010
1000
0100
,
0010
0010
0010
0001
,
0010
0010
0010
1000
,
1001
0100
1000
0001
,
0010
0001
0100
1000
,
0001
1000
1000
1000
,
0010
0010
0010
0100
,
0110
0001
0100
1000
,
0110
1000
0010
0001
,
1001
0100
1001
0100
,
0001
0000
1000
0000
0000
0010
0100
0000
,
0001
0010
0001
1000
,
0010
0010
1000
0100
,
1000
1000
0001
0001
,
1000
1000
0001
0001
,
0110
0001
0100
1000
,
0010
0010
1000
0001
,
0100
0100
0010
0010
,
1000
0010
1000
0001
,
0200
0000
0000
0300
,
0010
1000
0100
0001
,
0020
0000
0000
0030
,
0001
1000
0010
0100
,
0002
0000
0000
0003
,
0010
0001
1000
0100
,
0010
0010
0010
0010
,
0001
0100
2000
3000
,
0110
1001
0000
0000
,
0002
0000
0000
2000
0000
0000
3003
0000
,
0110
1001
0000
0000
,
0020
0000
0000
0230
0000
0000
0301
0000
,
0010
0010
0010
1000
,
0010
0010
0010
0001
,
0010
0010
0010
1000
,
0010
0010
0001
1000
,
0100
0100
0100
0100
,
0100
0100
0100
0100
,
0010
0010
0010
0010
,
0010
0010
0010
0010
,
0001
0001
1000
1000
,
0001
0001
1000
1000
,
1100
0101
1100
0101
,
0010
0000
0010
1000
0000
0001
0100
0000
,
1001
0010
1000
0100
,
1000
0010
0001
0100
,
0001
0010
0001
0100
,
1000
1000
1000
0001
,
0110
0010
0001
0100
,
0010
1000
0100
1000
,
1001
0100
1001
0100
,
0110
1001
0110
1001
,
0010
0000
0010
0000
0010
1000
0001
0000
,
0010
0000
0010
0000
0010
1000
0001
0000
,
0010
0000
0010
0000
0010
1000
0001
0000
,
1100
0101
1100
0101
,
0010
0000
0010
0000
0010
1000
0001
0000
,
0010
0000
0010
0000
0010
1000
0001
0000
,
0010
0000
0010
0000
0010
1000
0001
0000
,
1100
0000
0101
0000
1000
0001
1000
0001
,
0100
0000
0000
0000
;

//---------------dance-single - ----------------
#NOTES:
     dance-single:
     :
     Medium:
     12:
     :
0000
0000
0000
0000
,
0000
0000
0000
0000
,
0000
0000
0000
0000
,
0000
0000
0000
0000
,
0000
0000
0000
0000
,
0010
0000
0010
0000
0010
1000
0001
0000
,
0010
0000
0010
0000
0010
1000
0001
0000
,
0010
0000
0010
0000
0010
1000
0001
0000
,
0010
0010
0010
0000
0001
0010
1000
0010
,
0100
0100
1000
1000
,
0001
1000
0100
1000
,
0110
1001
0010
1000
,
0010
0100
0001
0010
,
1002
0100
1000
0103
,
2001
0100
0001
3100
,
1000
0010
1000
0010
0100
0001
0100
0001
,
1000
0010
1000
0001
0100
0000
0100
0000
,
0110
0000
0001
1000
0000
0010
1000
0001
,
0100
0000
0001
0010
0000
0001
1000
0100
,
0010
0000
0001
1000
0001
1000
0001
0000
,
0100
0010
0100
0010
1000
0001
1000
0100
,
0010
0000
0001
1000
0000
0001
0010
0100
,
1000
0000
0010
1000
0000
0100
1000
0001
,
0010
0000
0010
0000
0010
1000
0001
0000
,
0010
0010
0010
0000
0001
0010
1000
1000
,
1000
0000
0000
0010
0000
0000
0100
0000
0000
0001
0000
0000
0010
0000
0100
0000
,
0010
0000
0000
0001
0000
0000
0100
0000
0000
0010
0000
0000
1000
0000
0000
0001
,
0000
0010
0001
0010
0001
0010
0001
0000
,
1000
0010
1000
0010
1000
0001
1000
0100
,
0010
0000
0000
0001
0000
0000
1000
0000
0000
0001
0000
0000
0100
0000
0010
0000
,
1000
0000
0000
0100
0000
0000
0010
0000
0000
0001
0000
0000
1000
0000
0010
0000
,
1000
0100
1000
0100
0010
0001
0010
0001
,
1000
0010
0100
0001
0000
0100
0100
0000
,
0001
0010
0001
2000
0000
0100
3100
0000
,
2000
0000
3010
0200
0000
0001
0301
0000
,
0011
1100
0011
1100
,
0001
1000
0100
1000
0010
1000
0100
0000
,
1000
0001
1000
0020
0000
0100
0130
0000
,
0002
0000
1003
0020
0000
0100
0130
0000
,
0101
1100
0101
1100
,
0001
0000
0020
0000
0000
0032
0000
0000
0203
0000
0000
0320
0000
0000
2030
0000
,
0001
0001
0001
3001
,
1000
0000
0020
0000
0000
2030
0000
0000
3002
0000
0000
0023
0000
0000
0230
0000
,
1000
1000
1000
1300
,
0001
0000
2000
0000
0000
3002
0000
0000
0203
0000
0000
0320
0000
0000
2030
0000
,
0100
0100
0100
3100
,
0010
0000
0200
0000
0000
0320
0000
0000
0032
0000
0000
2003
0000
0000
3010
0000
,
0100
0110
1001
0110
,
0001
1000
0010
1000
0200
0000
0300
0000
,
0110
0000
1001
0000
0000
1000
0000
1000
,
0020
0000
0000
0200
0000
0000
0330
0000
,
0110
0000
1001
0000
0000
0001
0000
0001
,
2000
0000
0000
3020
0000
0000
0130
0000
,
0010
0000
0010
0000
0010
1000
0001
0000
,
0010
0000
0010
0000
0010
1000
0001
0000
,
0010
0000
0010
0000
0010
1000
0001
0000
,
0010
0010
0010
0000
0001
0010
1000
0010
,
0100
0100
1000
1000
,
0001
0010
0001
0100
,
0110
1001
0010
1000
,
0001
0010
0001
0100
,
0001
0000
0000
0001
0000
0000
0001
0000
0010
0000
0000
0010
0000
0000
0010
0000
,
0100
0000
0000
0100
0000
0000
0100
0000
1000
0000
0000
1000
0000
0000
1000
0000
,
0010
1000
0001
0100
0010
1000
0001
0100
,
0001
0010
0100
1000
0000
0010
1000
1000
,
0001
0000
0000
0001
0000
0000
1000
0000
0000
0100
0000
0000
1000
0000
0001
0000
,
0010
0000
0000
0001
0000
0000
0010
0000
0000
0100
0000
0000
1000
0000
0010
0000
,
0100
0000
0000
0010
0000
0000
0100
0000
0000
0001
0000
0000
0010
0000
0100
0000
,
1000
0000
0000
1000
0000
0000
0001
0000
0000
0001
0000
0000
0200
0000
0000
0000
,
0310
0000
0000
0001
0000
0000
0100
0000
0000
1000
0000
0000
0010
0000
1000
0000
,
0100
0000
0000
0100
0000
0000
1000
0000
0000
0001
0000
0000
0010
0000
0100
0000
,
1000
0000
0000
0010
0000
0000
1000
0000
1001
0000
0000
0000
0001
0000
0100
0000
,
0110
0000
0000
0110
0000
0000
0110
0000
0000
0110
0000
0000
0110
0000
0000
0000
,
1010
0000
0101
0000
1010
0001
0100
0000
,
0011
0000
1100
0000
0011
1000
0001
0000
,
0101
0000
1100
0000
0101
0010
1000
0000
,
0100
0100
0100
0000
1000
0010
1000
0001
,
0011
0000
0110
0000
1100
1000
0100
0000
,
1001
0000
0101
0000
0011
0010
0001
0000
,
0110
0000
1001
0000
0110
0010
0100
0000
,
0010
0010
0010
0000
0001
0010
1000
0010
,
0200
0000
0000
0000
,
0000
0000
0000
0300
;

//---------------dance-single - ----------------
#NOTES:
     dance-single:
     :
     Hard:
     15:
     :
0000
0000
0000
0000
,
0000
0000
0000
0000
,
0000
0000
0000
0000
,
0000
0000
0000
0000
,
0000
0000
0000
0000
,
0010
0000
0000
0000
0010
0000
0000
0000
0010
0000
1000
0001
1000
0000
0000
0000
,
0010
0000
0000
0000
0010
0000
0000
0000
0010
0000
1000
0001
1000
0000
0000
0000
,
0010
0000
0000
0000
0010
0000
0000
0000
0010
0000
1000
0001
1000
0000
0000
0000
,
0010
0010
0010
0000
0001
0010
1000
0010
,
0100
0000
0000
0100
1000
0000
0000
1000
0010
0000
0000
0010
1000
0000
0000
1000
,
0001
0000
0000
0001
0010
0000
0000
0010
1000
0000
0000
1000
0100
0000
0000
0000
,
0110
0000
0000
0100
0001
0000
0000
0001
0010
0000
0000
0010
0001
0000
0000
0001
,
1000
0000
0000
1000
0100
0000
0000
0100
0010
0000
0000
0010
0001
0000
0000
0000
,
1002
0100
1000
0103
,
2001
0100
0001
3100
,
0010
0000
0001
0100
0001
0000
1000
0100
1000
0000
0001
0010
0001
0000
1000
0010
,
1000
0100
0001
0001
0100
0000
0100
0000
,
0110
0000
0000
0010
1000
0000
0100
0000
0010
0000
0001
0100
0001
0000
1000
0000
,
0100
0000
0010
0001
0010
0000
0100
0000
1000
0000
0001
0100
0001
0000
1000
0000
,
1010
0000
0000
0000
0001
0000
0001
1000
0001
0000
0001
0000
0001
0000
0000
0000
,
0010
0000
1000
0000
1000
0000
0100
0000
0001
0000
1000
0100
1000
0000
0001
0000
,
0010
0000
0001
0000
0100
0000
1000
0000
0000
0000
0010
1000
0010
0000
0100
0000
,
0001
0000
1000
0100
1000
0000
0010
0000
0100
0000
0001
0010
0001
0000
1000
0000
,
0110
0000
0000
0000
0010
0000
0000
0000
0010
0000
1000
0001
1000
0000
0000
0000
,
0010
0010
0010
0100
0001
0100
1000
1000
,
0101
0000
0000
1100
0000
0000
0101
0000
0000
1100
0000
0000
0101
0000
0010
1000
,
0100
0000
0000
0010
0001
0000
0101
0000
0000
1100
0000
0000
0101
0000
0010
1000
,
0001
0000
0000
0100
0010
0000
0010
0000
0010
0000
0010
0000
0010
0000
0000
0000
,
1000
0000
0100
0000
0100
0000
1000
0000
0001
0000
0010
0001
0100
0000
0100
0000
,
1010
0000
0000
0011
0000
0000
1010
0000
0000
0011
0000
0000
1010
0000
0001
1000
,
0100
0000
0000
0010
0001
0000
0011
0000
0000
1010
0000
0000
0011
0000
1000
0100
,
1000
0001
1000
0001
1000
0001
1000
0001
0100
0010
0100
0010
0100
0010
0100
0010
,
1000
0000
0100
0000
0001
0000
0001
0000
0000
0000
1000
0100
0010
0000
0000
0000
,
0001
0100
1000
0001
0010
0100
1000
0000
,
0010
0000
1000
0000
0001
0000
0001
0000
0010
0000
0001
0100
1000
0000
0000
0000
,
0010
0000
1000
0000
0100
0000
0001
0000
0100
0000
1000
0000
0100
0000
0010
0001
,
1000
0010
0001
0010
1000
0010
0100
0001
,
0010
0001
0100
1000
0010
1000
0001
0000
,
0010
0000
0001
0000
0100
0000
1000
0000
0010
0000
1000
0001
0100
0000
0000
0000
,
0010
1000
0100
0001
0010
0001
0100
1000
,
0010
0000
2000
0000
0000
3200
0000
0000
2300
0000
0000
3002
0000
0000
0103
0010
,
1000
0000
0000
1000
0100
0000
0000
0100
0010
0000
0000
0010
0001
0000
0000
0001
,
0100
0000
0020
0000
0000
2030
0000
0000
3002
0000
0000
0023
0000
0000
0031
1000
,
0100
0000
0000
0010
0001
0000
0000
0100
0001
0000
0000
1000
0010
0000
0000
1000
,
0001
0000
0020
0000
0000
0032
0000
0000
2003
0000
0000
3200
0000
0000
1300
0010
,
0100
0000
0001
0000
0100
0000
1000
0000
0100
0000
0001
0000
0100
0000
1000
0100
,
0001
0000
2000
0000
0000
3002
0000
0000
0023
0000
0000
0230
0000
0000
0310
0001
,
1000
0000
0010
1000
0100
0000
0010
0001
0100
0000
0010
1000
0100
0000
0010
0001
,
0100
0000
0010
1000
0001
0000
0100
0000
0200
0000
0000
0000
0300
0000
0000
0000
,
0110
0000
1001
0000
0000
1000
0000
1000
,
0001
0010
0000
0001
2000
0000
3000
0000
,
0110
0000
1001
0000
0000
1000
0000
1000
,
0001
0010
0000
0001
2000
0000
3010
0100
,
0010
0000
0000
0000
0010
0000
0000
0000
0010
0000
1000
0001
1000
0000
0000
0000
,
0010
0000
0000
0000
0010
0000
0000
0000
0010
0000
1000
0001
1000
0000
0000
0000
,
0010
0000
0000
0000
0010
0000
0000
0000
0010
0000
1000
0001
1000
0000
0000
0000
,
0010
0010
0010
0000
0001
0010
1000
0010
,
0100
0000
0000
0100
0001
0000
0000
0001
1000
0000
0000
1000
0001
0000
0000
0001
,
0010
0000
0000
0010
1000
0000
0000
1000
0100
0000
0000
0100
0001
0000
0000
0000
,
0011
0000
0000
0001
0100
0000
0000
0100
0010
0000
0000
0010
1000
0000
0000
1000
,
0100
0000
0000
0100
0001
0000
0000
0001
1000
0000
0000
1000
0001
0000
0000
0000
,
0101
0000
0000
0100
0010
0000
1000
0000
1100
0000
0000
0001
1000
0000
0100
0000
,
0011
0000
0000
0001
1000
0000
0010
0000
1010
0000
0000
0100
0001
0000
0010
0000
,
0001
0000
0001
0100
0010
0000
0010
1000
0100
0000
0100
1000
0010
0000
0010
1000
,
0001
0000
0100
0000
1000
0000
1000
0000
0000
0000
0010
1000
0001
0000
0001
0000
,
0010
0001
0000
0001
0100
0000
0110
0000
0000
1010
0000
0000
1000
0000
0001
0000
,
0010
0001
0000
0001
1000
0000
1100
0000
0000
0101
0000
0000
1000
0010
0100
0001
,
0010
0000
0100
1000
0000
1000
0001
0000
0100
0010
0000
0000
1000
0001
0010
0100
,
1000
0000
0010
0100
0000
0100
0002
0000
0000
2003
0000
0000
3200
0000
0000
0000
,
0310
0100
0000
0100
1000
0000
1001
0000
0000
0011
0000
0000
0100
0001
1000
0000
,
0010
1000
0000
1000
0100
0000
1100
0000
0000
0011
0000
0000
0100
0001
0010
0001
,
1000
0000
0010
0100
0001
0000
0010
0000
0100
0000
1000
0000
0010
0000
0100
0001
,
1000
0000
0000
0101
0000
0000
1100
0000
0000
0101
0000
0000
1100
0000
0000
0000
,
1001
0000
0000
0000
1010
0000
0000
0000
0101
0000
1000
0001
0100
0000
0000
0000
,
0011
0000
0000
0000
1100
0000
0000
0000
0101
0000
0010
1000
0001
0000
0000
0000
,
0110
0000
0000
0000
0011
0000
0000
0000
0101
0000
0100
0010
1000
0000
0000
0000
,
1100
1100
1100
0000
0001
0100
1000
0100
,
1001
0000
0000
0000
0011
0000
0000
0000
0110
0000
0010
0001
1000
0000
0100
0000
,
1100
0000
0000
0000
0110
0000
0000
0000
0011
0000
0100
0010
1000
0000
0001
0000
,
1001
0000
0000
0000
0101
0000
0000
0000
0011
0000
1000
0100
0001
0000
0000
0000
,
0010
0010
0010
0100
0001
0010
1000
0010
,
0200
0000
0000
0000
,
0000
0000
0000
0300
;
