#TITLE:STAR SHIP HERO;
#ARTIST:Lucky Vacuum;
#BANNER:STAR SHIP HERO-bn.png;
#BACKGROUND:STAR SHIP HERO-bg.png;
#JACKET:STAR SHIP HERO-jacket.png;
#MUSIC:STAR SHIP HERO.ogg;
#SAMPLESTART:40.421;
#SAMPLELENGTH:20;
#DISPLAYBPM:190;
#BPMS:0=190;
#BGCHANGES:;

//---------------dance-single - ----------------
#NOTES:
     dance-single:
     :
     Beginner:
     4:
     :
0000
0000
0000
0000
,
0000
0000
0000
0000
,
0000
0000
0000
0000
,
0000
0000
0000
0000
,
0000
0000
0000
0000
,
0000
0000
0000
0000
,
0000
0000
0000
0000
,
0000
0000
0000
0000
,
0010
0000
1000
0000
,
0001
0000
0000
0000
,
0100
0000
0001
0000
,
0010
0000
0000
0000
,
0001
0000
0100
0000
,
1000
0000
0000
0000
,
0010
0000
1000
0000
,
0100
0000
0000
0000
,
1000
0000
1000
0000
,
1000
0000
1000
0000
,
0001
0000
0001
0000
,
0001
0000
0000
0000
,
0010
0000
0010
0000
,
0001
0000
0001
0000
,
1000
0000
1000
0000
,
0010
0000
0100
0000
,
1000
1000
0000
0000
,
0001
0001
0000
0000
,
0010
0010
0000
0000
,
1001
0000
0110
0000
,
0100
0100
0000
0000
,
0010
0010
0000
0000
,
1000
1000
0000
0000
,
0001
0000
0000
0000
,
0010
0010
0010
0000
,
0001
0000
0100
0000
,
1000
1000
1000
0000
,
1001
0000
0110
0000
,
1000
1000
1000
0000
,
0001
0000
0010
0000
,
0001
0001
0001
0000
,
1001
0000
0110
0000
,
0100
0100
0100
0000
,
0010
0000
1000
0000
,
0001
0001
0001
0000
,
1001
0000
0110
0000
,
1000
1000
1000
0000
,
0001
0000
0010
0000
,
0001
0001
0001
0000
,
1000
1000
1000
0000
,
1001
0000
0000
0000
,
0000
0000
0000
0000
,
0000
0000
0000
0000
,
0000
0000
0000
0000
,
0010
0000
0000
0000
,
1000
0000
0000
0000
,
0001
0000
0000
0000
,
0100
0000
0000
0000
,
0001
0000
1000
0000
,
0100
0000
0000
0000
,
1000
0000
0010
0000
,
0100
0000
0000
0000
,
0001
0000
0001
0000
,
1000
0000
1000
0000
,
0010
0000
0010
0000
,
0110
0000
1001
0000
,
1000
1000
1000
0000
,
0001
0000
0100
0000
,
0010
0010
0010
0000
,
0110
0000
1001
0000
,
0100
0100
0100
0000
,
0001
0000
0010
0000
,
0001
0001
0001
0000
,
1000
1000
1000
0000
,
0010
0010
0010
0010
,
0010
0000
1000
0000
,
0100
0100
0100
0000
,
1000
0000
0001
0000
,
0010
0010
0010
0010
,
0010
0000
0001
0000
,
0100
0100
0100
0100
,
0100
0000
0010
0000
,
1000
1000
1000
0000
,
0001
0001
0001
0000
,
0100
0000
0010
0000
,
0110
0000
0000
0000
;

//---------------dance-single - ----------------
#NOTES:
     dance-single:
     :
     Easy:
     7:
     :
0000
0000
0000
0000
,
0000
0000
0000
0000
,
0000
0000
0000
0000
,
0000
0000
0000
0000
,
0000
0000
0000
0000
,
0000
0000
0000
0000
,
0000
0000
0000
0000
,
0000
0000
0000
0000
,
0010
0010
1000
0001
,
0100
0000
0010
0010
,
1000
0001
0001
1000
,
0100
0000
0010
0010
,
0001
0100
0001
0001
,
1000
0000
0100
0100
,
1000
0001
1000
0000
,
0010
0100
0001
0100
,
1000
0010
1000
0100
,
0001
0000
1000
1000
,
0010
0010
1000
0100
,
1000
0000
0001
0001
,
0010
0000
0001
0100
,
1000
0000
0010
0100
,
0010
0000
1000
0000
0001
0000
0000
0110
,
0000
1001
0000
0110
0000
0000
1000
0000
,
1001
0110
0001
0100
,
0010
1000
0100
0010
,
0100
0000
1000
0000
0001
0000
0000
0011
,
0000
1100
0000
0011
0000
0000
0100
0000
,
1001
0010
1000
0001
,
1000
0100
0010
0001
,
0100
0000
0010
0000
1000
0000
0000
1010
,
0000
0000
0000
0000
,
1001
0110
0001
0010
,
0001
0100
1000
1000
,
0010
0100
0001
1000
,
0010
0010
1000
0001
,
0100
0100
0010
1000
,
0001
0010
0001
0100
,
1000
1000
0010
0100
,
0101
0010
1000
0001
,
1010
0101
0010
1000
,
0100
0100
1000
0001
,
0010
0001
0100
0010
,
1000
0100
1000
0001
,
0101
1100
0010
1000
,
0100
0001
0010
0100
,
1000
0000
0001
0000
0100
0000
0000
0110
,
0000
1001
0000
0110
0000
0000
1000
0000
,
1001
0000
0000
0000
,
0000
0010
0000
0100
,
0000
0001
0000
1000
,
0000
0100
0000
0010
,
0000
0001
0000
0100
,
0000
0010
0000
1000
,
0000
0100
0000
0010
,
0000
0000
0002
0003
,
0100
0100
0010
1000
,
0001
0000
0010
0010
,
0001
0100
1000
1000
,
0010
0000
1000
1000
,
0001
0010
0001
0100
,
0010
1000
0100
1000
,
0001
0000
0100
0000
0010
0000
0000
1010
,
0000
0101
0000
1100
0000
0000
0010
0000
,
1001
0110
1000
0010
,
1000
0100
0001
0001
,
0010
0000
0001
0000
0100
0000
0000
0101
,
0000
0011
0000
1100
0000
0000
0001
0000
,
1001
0110
1000
0010
,
1000
0100
0001
0001
,
0010
0001
0100
0010
,
1000
0100
1000
0001
,
0010
0010
0001
0100
,
1000
0010
0100
0001
,
1000
1000
0010
1000
,
0100
0001
0010
0100
,
1000
1000
1000
1000
,
0010
0100
0010
1000
,
0001
0001
0001
0001
,
0010
0001
0100
1000
,
0010
0010
0100
0100
,
1000
0001
1000
0001
,
1100
0000
0000
0101
0000
0000
0000
0220
,
0000
0000
0000
0000
,
0000
0000
0000
0000
,
0000
0000
0000
0000
,
0000
0000
0000
0330
;

//---------------dance-single - ----------------
#NOTES:
     dance-single:
     :
     Medium:
     10:
     :
0000
0000
0000
0000
,
0000
0000
0000
0000
,
0000
0000
0000
0000
,
0000
0000
0000
0000
,
0000
0000
0000
0000
,
0000
0000
0000
0000
,
0000
0000
0000
0000
,
0000
0000
0000
0000
,
0010
0000
0010
0000
0001
1000
0001
1000
,
0000
0000
0100
0100
,
1000
0000
1000
0000
0010
0100
0010
0100
,
0000
0000
0000
0001
0000
1000
0001
0000
,
0100
0000
0100
0000
0010
1000
0010
1000
,
0000
0001
0000
1000
0100
0000
0100
0000
,
0010
0000
0010
0000
0001
0100
0001
0100
,
0000
0010
1000
0001
0000
0000
0100
0000
,
1001
0000
0110
0000
1000
0010
0100
0001
,
0000
0000
0010
0010
,
0011
0000
1100
0000
0010
0100
0001
1000
,
0000
0000
0000
0010
0000
0100
0010
0000
,
1010
0000
0101
0000
1000
0001
0010
0100
,
0000
0000
0000
1000
0001
0000
0001
0000
,
0011
0000
1100
0000
0010
0100
0000
1001
,
0000
0110
0000
1001
0000
0010
0100
0000
,
1001
0000
0110
0000
1000
0010
0000
0100
,
0000
0001
0010
0000
0001
1000
0000
0100
,
0000
1000
0010
0000
0100
0001
0000
0011
,
0000
1010
0000
0011
0000
1000
0001
0000
,
1001
0000
0010
0000
1000
0100
0000
0001
,
0000
0000
0010
0000
0001
1000
0000
0100
,
0000
1000
0001
0000
0100
0010
0000
1010
,
0000
0001
0000
1000
0200
0000
0300
0000
,
1100
0000
0101
0000
1000
0010
0100
0001
,
0000
0001
0000
0001
1000
0000
0100
0000
,
0110
0000
1001
0000
0010
0100
0000
0101
,
0000
1100
0000
0101
0000
0010
1000
0000
,
1001
0000
1010
0000
1000
0100
0010
0001
,
0000
0001
0000
0001
0010
0000
0100
0000
,
1100
0000
0011
0000
0001
0100
0000
1010
,
0000
0101
0000
1010
0000
1000
0100
0000
,
1001
0000
0110
0000
0010
1000
0001
0100
,
0000
0010
0000
0100
0001
0000
1000
0000
,
1001
0000
0011
0000
1000
0100
0000
1100
,
0000
0110
0000
0011
0000
0100
0010
0000
,
0110
0000
0101
0000
0001
0010
0100
1000
,
0000
0100
0000
0010
0001
0000
1000
0000
,
0110
0000
1001
0000
0010
1000
0000
0101
,
0000
1000
0001
0200
0000
0000
0310
0000
,
1001
0000
0010
0000
0000
1000
0100
0000
,
0000
0000
0010
0000
0000
0001
1000
0000
,
0000
0000
0001
0000
0000
1000
0100
0000
,
1100
0101
1100
0101
,
0010
0000
0110
0000
0001
0100
1000
0000
,
0010
0000
1010
0000
1000
0001
0100
0000
,
0001
0000
0011
0000
0010
0100
1000
0000
,
0010
1000
0001
0000
0200
0000
0300
0000
,
0001
0000
0001
0000
0001
0010
0100
1000
,
0000
1000
0000
0000
0010
0000
0100
0000
,
0010
0000
0010
0000
0010
0100
0001
1000
,
0000
1000
0000
0001
0000
0001
0100
0000
,
0001
0000
1000
0000
0001
1000
0010
0100
,
0000
0010
0000
1000
0001
0000
0100
0000
,
0001
0000
0010
0000
0001
1000
0000
1100
,
0000
0101
0000
1100
0000
0010
0100
0000
,
1001
0000
0110
0000
1000
0010
1000
0001
,
0000
0010
0000
0001
0100
0000
0010
0000
,
1010
0000
0101
0000
0010
0001
0000
0011
,
0000
0110
0000
1100
0000
0010
0100
0000
,
0101
0000
0011
0000
0100
0010
0001
0100
,
0000
0010
0000
0100
0001
0000
1000
0000
,
1100
0000
0110
0000
0001
0100
0000
1001
,
0000
1010
0000
1100
0000
0100
1000
0000
,
1010
0000
0101
0000
0010
0001
0010
0100
,
0000
1000
0000
1000
0000
0001
1000
0100
,
0010
0000
0010
0000
0001
1000
0000
1010
,
0000
0101
0000
1010
0000
0001
0100
0000
,
0010
0000
1000
0000
0001
0100
0001
1000
,
0000
0100
0000
0100
0000
1000
0001
0000
,
0100
0000
0100
0000
0010
1000
0001
1000
,
0000
0001
0000
0001
0000
0100
0010
0000
,
1000
0000
0001
0000
1000
0100
0000
1000
,
0000
0001
0000
1000
0000
0010
0100
0000
,
0101
0000
0000
1100
0000
0000
0110
0220
,
0000
0000
0000
0000
,
0000
0000
0000
0000
,
0000
0000
0000
0000
,
0000
0000
0000
0330
;

//---------------dance-single - ----------------
#NOTES:
     dance-single:
     :
     Hard:
     12:
     :
0000
0000
0000
0000
,
0000
0000
0000
0000
,
0000
0000
0000
0000
,
0000
0000
0000
0000
,
0000
0000
0000
0000
,
0000
0000
0000
0000
,
0000
0000
0000
0000
,
0000
0000
0000
0000
,
0010
0000
0010
0000
0001
0100
0010
1000
,
0000
0000
0000
0010
0100
0000
0100
0000
,
0001
0000
0001
0000
0010
0001
0100
1000
,
0000
0001
0000
0001
0000
1000
0100
0000
,
0010
0000
0010
0000
0001
1000
0010
0100
,
0000
0100
0000
0010
1000
0000
0001
0000
,
0010
0000
0010
0000
0001
0100
0001
1000
,
0000
0010
1000
0001
0000
1000
0100
0000
,
0110
0000
1001
0000
1000
0010
0100
0001
,
0000
0010
0000
0001
1000
0000
0100
0000
,
1100
0000
0101
0000
0001
0010
0100
1000
,
0000
0100
0000
1000
0000
0001
0010
0000
,
0011
0000
1010
0000
0010
0100
0001
1000
,
0000
0100
0000
0010
0001
0000
1000
0000
,
0001
0100
0001
0100
0010
1000
0010
1000
,
0000
0001
0100
1000
0000
0010
0100
0000
,
1001
0000
0110
0000
1000
0010
1000
0100
,
0000
1000
0010
0100
0010
1000
0001
0100
,
0000
0001
0010
0100
1000
0010
1000
1100
,
0000
0101
0000
1100
0000
0001
0001
0000
,
1001
0010
1000
0100
1000
0010
0100
0001
,
0000
0010
0001
1000
0001
0100
0010
1000
,
0000
0100
1000
0010
1000
0001
0100
1010
,
0000
0001
0000
0001
1000
0000
0110
0000
,
1001
0000
0000
0000
0110
0000
0000
0010
1000
0000
0100
0000
1000
0000
0001
0000
,
0000
0010
0000
0001
1000
0000
0100
0000
,
1100
0000
0000
0000
0011
0000
0000
0100
0001
0000
0010
0000
0001
0000
1000
0000
,
0000
1100
0000
0101
0000
0010
0010
0000
,
1010
0000
0000
0000
0101
0000
0000
1000
0010
0000
1000
0000
0100
0000
0001
0000
,
0000
0010
0000
0001
0100
0000
1000
0000
,
0110
0000
0000
0000
1100
0000
0000
0010
1000
0000
0001
0000
1000
0000
0100
0000
,
0000
1000
0010
0001
0000
0100
0100
0000
,
0101
0000
0000
0000
0011
0000
0000
0010
0001
0000
0100
0000
0010
0000
1000
0000
,
0100
0001
0100
1000
0010
0000
0010
0000
,
0110
0000
0000
0000
0101
0000
0000
1000
0010
0000
1000
0000
0001
0000
0100
0000
,
0000
0110
0000
1001
0000
1000
1000
0000
,
1100
0000
0000
0000
0011
0000
0000
1000
0001
0000
1000
0000
0010
0000
0100
0000
,
1000
0100
0001
0100
0010
0000
0010
0000
,
1010
0000
0000
0000
0011
0000
0000
0010
0100
0000
1000
0000
0001
0000
0101
0000
,
0000
0010
1000
0001
0000
1000
0100
0000
,
1001
0000
0010
0000
1000
0100
0001
0000
,
0010
0001
0100
0000
0001
0010
1000
0000
,
0100
1000
0001
0000
1000
0010
0100
0000
,
0001
0000
0010
0000
0001
1000
0010
0100
,
0010
0000
1000
0000
0100
1000
0001
0000
,
0010
0001
0100
0000
0010
1000
0001
0000
,
1000
0010
0001
0000
1000
0100
0001
0000
,
0010
0001
0100
0000
2000
0010
3010
0000
,
1000
0000
0001
0000
1000
0100
0010
0001
,
0000
0100
0000
0010
0100
0000
0001
0000
,
0010
0000
0100
0000
1000
0010
1000
0001
,
0000
1000
0000
0001
0000
0010
0100
0000
,
1000
0010
1000
0010
0100
0001
0100
0001
,
0000
0010
0000
0001
1000
0000
0100
0000
,
1000
0010
1000
0100
0010
0001
0100
0101
,
0000
1100
0000
0101
0000
0010
0110
0000
,
1001
0000
0000
0000
0110
0000
0000
0010
1000
0000
0100
0000
1000
0000
0001
0000
,
0010
1000
0010
0001
0010
0100
1000
0000
,
1100
0000
0000
0000
0011
0000
0000
0100
0010
0000
1000
0000
0001
0000
1001
0000
,
0000
1010
0000
1100
0000
0001
0001
0000
,
0101
0000
0000
0000
1100
0000
0000
0010
1000
0000
0100
0000
1000
0000
0001
0000
,
0100
1000
0100
0001
0100
0010
1000
0000
,
1010
0000
0000
0000
0101
0000
0000
0010
0001
0000
0100
0000
1000
0000
1100
0000
,
0000
0001
0100
1000
0000
0010
0010
0000
,
1001
0000
0000
0000
0011
0000
0000
0100
0010
0000
1000
0000
0001
0000
0100
0000
,
0000
0010
0000
1000
0000
0100
1000
0001
,
1010
0000
0000
0000
0110
0000
0000
0010
1000
0000
0100
0000
1000
0000
0001
0000
,
0000
0011
0000
1100
0000
0010
1000
0100
,
1001
0000
0101
0000
1000
0010
0100
0001
,
0000
0011
0000
1100
0000
0001
0100
0000
,
0110
0000
1001
0000
0010
1000
0100
0001
,
0000
0101
0000
1100
0000
0010
0100
0000
,
0110
0000
0101
0000
0010
0001
0100
1000
,
0000
1010
0000
0011
0000
1000
0100
0000
,
1010
0000
0000
0101
0000
0000
0110
0220
,
0000
0000
0000
0000
,
0000
0000
0000
0000
,
0000
0000
0000
0000
,
0000
0000
0000
0330
;
