#TITLE:SPICY PIECE;
#ARTIST:ORIGINAL SOUND TRACKS;
#BANNER:SPICY PIECE-bn.png;
#BACKGROUND:SPICY PIECE-bg.png;
#JACKET:SPICY PIECE-jacket.png;
#MUSIC:SPICY PIECE.ogg;
#OFFSET:1.167;
#SAMPLESTART:43.449;
#SAMPLELENGTH:20;
#LASTBEATHINT:0.413;
#DISPLAYBPM:156;
#BPMS:0=156;
#STOPS:112=1.154,152=0.769;
#BGCHANGES:;

//---------------dance-single - ----------------
#NOTES:
     dance-single:
     :
     Beginner:
     3:
     :
0000
0000
0000
0000
,
0000
0000
0000
0000
,
0000
0000
0000
0000
,
0000
0000
0000
0000
,
0000
0000
0000
0000
,
0020
0000
0030
0000
,
0002
0000
0003
0000
,
1000
0000
0100
0000
,
0000
0000
0000
0000
,
2000
0000
3000
0000
,
0020
0000
0030
0000
,
0100
0000
1001
0000
,
0000
0000
0000
0000
,
0002
0000
0003
0000
,
2000
0000
3000
0000
,
0010
0000
0100
0000
,
0000
0000
0000
0000
,
0020
0000
0030
0000
,
2000
0000
3000
0000
,
0001
0000
1001
0000
,
0000
0010
0010
0010
,
0020
0000
0000
0000
,
0000
0000
0030
0000
,
1000
0000
0000
0002
,
0000
0000
0003
0000
,
2000
0000
0000
0000
,
0000
0000
3000
0000
,
0200
0000
0300
0000
,
0110
2000
0000
0000
,
3000
0000
0002
0000
,
0000
0003
0000
0200
,
0300
0000
0010
0000
,
1000
0000
0000
0000
,
0000
0002
0000
0000
,
0003
0000
2000
0000
,
0000
3000
0000
0020
,
0030
0000
0100
0000
,
0001
0000
1000
1000
,
1000
0001
0000
0100
,
0000
0000
0010
0010
,
0000
0110
0000
0000
,
0000
0000
0000
0000
,
0000
0010
0000
1000
,
0000
0000
0000
0000
,
2002
0000
0000
3003
,
0000
0010
0010
0010
,
0010
0010
0000
0100
,
0000
0000
0001
0001
,
0000
1001
0000
0000
,
0000
0000
0000
0000
,
0000
1000
0000
0100
,
0000
0000
0000
0000
,
0220
0000
0000
0330
,
0000
0001
0000
0000
,
0110
0000
0001
0001
,
0001
0001
0001
0001
;

//---------------dance-single - ----------------
#NOTES:
     dance-single:
     :
     Easy:
     7:
     :
0000
0000
0000
0000
,
0000
0000
0000
0000
,
0000
0000
0000
0000
,
0000
0000
0000
0000
,
0000
0000
0000
0000
,
0010
0001
0100
1000
,
0001
0010
1000
0100
,
1000
0010
0100
0001
,
0010
0100
0010
0001
,
0100
0010
0100
0001
,
1000
0010
1000
0100
,
1000
0001
0010
1000
,
0100
0010
0100
0010
,
0001
0010
1000
0100
,
1000
0010
0001
0100
,
0010
0100
0010
1000
,
0100
0010
0001
0100
,
0001
0010
1000
0100
,
1000
0001
1000
0010
,
0100
1000
0100
0001
,
0010
0100
0010
0100
,
2000
0000
0000
0010
0000
0000
0100
0000
,
0000
0010
0000
0000
0001
0000
3001
0000
,
0020
0000
0000
0032
0000
0000
0203
0000
,
0000
1000
0000
0000
0010
0000
0310
0000
,
2000
0000
0000
0010
0000
0000
0100
0000
,
0000
0010
0000
0000
0001
0000
3001
0000
,
0200
0010
0010
0310
,
0110
2001
0100
0100
,
0100
3100
1002
0100
,
0100
0100
0103
2010
,
0001
0000
0001
0000
0200
0000
3300
0001
,
1000
0001
0000
0000
0000
0000
0000
0000
,
0000
0110
0010
1000
,
0010
0100
0110
0001
,
0010
0001
0100
1010
,
0001
0000
0010
0000
0200
0000
0300
1000
,
0001
1000
0000
0000
0101
0000
1100
0000
,
0101
0010
1000
0100
,
0001
0010
0001
0010
,
0100
1000
0010
1000
,
0001
1000
0010
0100
,
0001
0010
0001
0100
,
0010
1000
0100
1000
,
0002
2000
0000
0000
0000
0000
0000
0000
,
0000
0000
0000
0000
,
3003
0001
0010
1000
,
0001
0010
0001
0100
,
0010
0100
1000
0010
,
1000
0100
0001
0010
,
0001
0010
1000
0001
,
0010
0001
0100
0010
,
0200
0020
0000
0000
0000
0000
0000
0000
,
0330
1000
0010
0001
,
1000
0200
0000
0000
0010
0000
0010
0000
,
0010
0010
0010
0010
,
0000
0000
0300
0000
;

//---------------dance-single - ----------------
#NOTES:
     dance-single:
     :
     Medium:
     10:
     :
0000
0000
0000
0000
,
0000
0000
0000
0000
,
0000
0000
0000
0000
,
0000
0000
0000
0000
,
0000
0000
0000
0000
,
0020
0000
0000
0000
0000
0000
0000
0000
0000
0000
0000
0000
0030
0000
0001
1000
,
0002
0000
0000
0000
0000
0000
0000
0000
0000
0000
0000
0000
0003
0000
1000
0010
,
2000
0000
0000
3001
0000
0000
0000
0000
,
0010
0100
0100
1000
0010
1000
0001
0000
,
0200
0000
0000
0000
0000
0000
0000
0000
0000
0000
0000
0000
0301
1000
0001
1000
,
0002
0000
0000
0000
0000
0000
0000
0000
0013
0001
0010
0000
0100
0000
1000
0000
,
0001
0001
0000
1010
0000
0101
0000
0000
,
1000
0010
0010
0100
0001
0010
1000
0000
,
0200
0000
0000
0000
0000
0000
0000
0000
0000
0000
0000
0000
1300
0000
0001
0100
,
0002
0000
0000
0000
0000
0000
0000
0000
0000
0000
0000
0000
0013
0000
0001
0100
,
0002
0000
0000
1003
0000
0000
0000
0000
,
0000
0000
0010
0000
1000
0001
1000
0000
0000
0000
0110
0000
0000
0000
0001
0000
,
0002
0000
0000
0000
0010
0000
0010
0000
0000
0000
0000
0000
1003
0100
1000
0100
,
2000
0000
0000
0000
0000
0000
0000
0000
3010
1000
0010
0000
0100
0000
0001
0000
,
1000
1000
0000
1100
0000
0011
0000
0000
,
0100
0010
0100
0010
1000
0001
1000
0001
,
0020
0000
0000
1000
0000
0000
0001
0000
,
0000
1000
0000
0001
0031
1000
0100
0000
,
1010
0000
0000
0101
0000
0000
1200
0000
,
0000
0001
0000
1000
1300
0001
0100
0010
,
2000
0000
0000
0100
0000
0000
0010
0000
,
0000
0000
0100
0000
0000
0000
0001
0000
3001
0000
1000
0000
0010
0000
0000
0100
,
0002
0000
0010
0010
0003
0000
1001
0000
,
0110
2001
0010
0010
,
3001
0100
0010
0100
0002
0000
0010
0000
,
0010
0000
1003
0010
0100
0010
2000
0000
,
0001
0000
0001
0000
3002
0000
0103
0010
,
1000
1000
0000
0001
0100
0000
0110
0000
,
1000
0001
0020
0000
1000
0000
0001
0000
,
1000
0000
0031
0100
0020
0000
0001
0000
,
1000
0000
0001
0000
1030
0100
0002
0000
,
0010
0000
0100
0000
0023
0000
0031
1000
,
0010
0010
0000
0010
0010
0000
1010
0000
,
0101
0000
1000
1000
0000
1100
0000
0101
,
0000
0000
0000
0010
0001
0010
0100
0010
,
0100
1000
0010
0100
0000
0000
0001
0000
,
1000
0000
0001
0010
0010
0001
0100
0010
,
1000
0001
1000
1000
0000
1010
0000
0011
,
0000
0000
0100
0010
0100
0001
0010
0100
,
2000
0002
0000
0000
0000
0000
0000
0000
,
3003
0000
1000
0010
0100
0001
1000
0100
,
0010
0001
0100
0100
0000
0101
0000
1010
,
0000
0000
0001
0010
0001
0100
0010
1000
,
0100
0010
0001
1000
0000
0000
0010
1000
,
0100
0000
1000
0001
0001
0010
0001
0100
,
0010
1000
0100
0100
0000
1100
0000
0011
,
0000
0000
1000
0010
0100
0010
1000
0001
,
0200
0020
0000
0000
0000
0000
0000
0000
,
0330
0000
1000
1000
1000
0001
0100
0010
,
2000
0002
3000
0000
0100
0000
0100
0000
,
0100
0100
0100
0100
,
0000
0000
0003
0000
;

//---------------dance-single - ----------------
#NOTES:
     dance-single:
     :
     Hard:
     12:
     :
0000
0000
0000
0000
,
0000
0000
0000
0000
,
0000
0000
0000
0000
,
0000
0000
0000
0000
,
0000
0000
0000
0000
,
0020
0000
0000
0000
0031
0000
0100
0000
0010
0000
1000
0000
0100
0000
1000
0001
,
2000
0000
0000
0000
3010
0000
1000
0000
0100
0000
0010
0000
0001
0000
0100
0010
,
0200
0000
0301
1010
0000
0001
0100
0010
,
1000
0000
0001
0010
0001
0000
1000
0000
0010
0000
0010
0000
0100
0000
0100
0000
,
0002
0000
0000
0000
0013
0000
0001
0000
0100
0000
0010
0000
1000
0000
0001
0100
,
0002
0000
1003
0100
0010
0001
0001
1000
,
0001
0100
0010
1100
0000
0101
1000
0100
,
0010
0000
0001
1000
0001
0000
0100
0000
0010
0000
0010
0000
1000
0000
1000
0000
,
2100
0000
0000
0000
3010
0000
1000
0000
0100
0000
0010
0000
0001
0000
1000
0010
,
2000
0000
0000
0000
3001
0000
0010
0000
1000
0000
0010
0000
0100
0000
1000
0001
,
2000
0000
3001
1010
0000
0010
0100
0001
,
1000
0000
0010
0100
0010
0000
1000
0000
0001
0000
0001
0000
0100
0000
0100
0000
,
0201
0000
0000
0000
0301
0000
0100
0000
1000
0000
0100
0000
0010
0000
1000
0001
,
2000
0000
3100
0010
0001
1000
1000
0010
,
0100
0001
1000
0011
0000
1100
0001
0100
,
0010
1000
1000
0001
0010
0001
0100
0010
,
2010
0000
0001
0001
0000
0100
0100
0000
,
0010
0000
0010
0000
0000
0000
0100
0000
3100
0000
1000
0000
0001
0000
0010
0100
,
0020
0000
0031
0102
0000
1003
1200
0000
,
0001
0000
0001
0000
0000
0000
1000
0000
1300
0000
0010
0000
0100
0000
0001
1000
,
0002
0000
0010
0010
0000
1000
1000
0000
,
0100
0000
0100
0000
0000
0000
1000
0000
1003
0000
0001
0000
0100
0000
0010
1000
,
0020
0000
0100
0100
0000
0001
0031
0000
,
0110
0000
0000
0000
1001
0000
0000
1000
0010
0000
0000
0010
0100
0000
0000
0100
,
0001
0000
0010
0000
0001
0000
1000
0000
0010
0000
0000
0010
1000
0000
0000
1000
,
0001
0000
0000
0001
0010
0000
0100
0000
0001
0000
0100
0000
1000
0000
0000
1000
,
0010
0000
0000
0010
0100
0000
0000
0100
0002
0000
0010
0000
0013
0000
0001
0000
,
1000
1000
0010
0100
1000
0100
0001
0100
,
1000
0000
0100
0000
1001
0000
0000
0010
1000
0000
0000
1000
0100
0000
0000
0100
,
0010
0000
0000
0010
0001
0000
0100
0000
0010
0000
0000
0010
1000
0000
0000
1000
,
0001
0000
0000
0001
1000
0000
0000
1000
0100
0000
0010
0000
0001
0000
0000
0001
,
0100
0000
0000
0100
1000
0000
0000
1000
0200
0000
0010
0000
0310
0000
1000
0000
,
0001
0011
0000
1000
1100
0000
0101
0000
,
0110
0000
1000
1000
0010
0101
0000
1100
,
0001
0100
0010
1000
0100
0001
0100
1000
,
0100
0001
0100
0100
1000
0010
1000
0001
,
0100
0000
0010
0000
1000
0000
0001
0010
0001
0000
0100
0000
0010
0000
0010
0000
,
1000
1000
0001
0001
0010
1100
0000
0011
,
0100
0010
1000
0100
1000
0010
0100
0001
,
0001
0000
0001
0000
0010
0000
0001
1000
0001
0000
0100
0000
0010
0000
0010
0000
,
1000
0000
1000
0000
0100
0000
0010
0001
0010
0000
0100
0000
1000
0000
1000
0000
,
0001
0001
0010
0010
0001
1010
0000
1100
,
0100
1000
0010
0100
1000
0100
0001
0100
,
1000
0100
0001
0001
0010
0100
1000
0010
,
1000
0001
0100
0010
0100
1000
0100
0001
,
0100
1000
0100
0100
0001
0011
0000
0101
,
1000
0001
0001
0010
0001
0100
0010
1000
,
1000
2000
0100
0000
0010
0000
0100
0000
,
3010
0000
0000
0000
1000
0001
1000
0001
1000
0000
0100
0000
0010
0000
0001
0000
,
0100
0200
0000
0000
1000
0000
0001
0000
,
1000
0001
1000
0001
,
0000
0000
0300
0000
;

//---------------dance-single - ----------------
#NOTES:
     dance-single:
     :
     Challenge:
     15:
     :
0000
0000
0000
0000
,
0000
0000
0000
0000
,
0000
0000
0000
0000
,
0000
0000
0000
0000
,
0000
0000
0000
0000
,
0010
0000
0001
0100
0010
0000
0010
0000
1000
0000
1000
0000
0100
0000
1000
0010
,
0100
0000
0001
0010
0100
0000
0100
0000
1000
0000
1000
0000
0010
0000
0100
0001
,
1000
0000
0010
1000
0100
0000
0010
0000
0001
0000
0001
0000
1000
0000
1000
0000
,
0001
0000
0010
0100
1000
0000
1000
0000
0001
0000
0001
0000
0100
0000
0100
0000
,
0010
0000
1000
0001
0010
0000
0010
0000
0100
0000
0100
0000
1000
0010
0100
0001
,
0010
0000
0001
1000
0100
0000
0100
0000
0010
0000
0001
0100
0001
0000
1000
0000
,
0010
0000
1000
0100
0010
0000
0010
0000
0001
0000
0001
0000
0100
0000
0100
0000
,
0010
0000
1000
0100
0010
0000
0010
0000
0001
0000
0001
0000
1000
0010
0100
0010
,
1000
0000
0001
0010
0100
0000
0100
0000
1000
0000
1000
0000
0001
0000
0001
1000
,
0010
0000
1000
0100
0010
0000
0010
0000
0001
0000
0001
0000
1000
0000
1000
0100
,
0010
0000
0001
1000
0010
0000
0010
0000
1000
0000
1000
0000
0100
0000
0100
0000
,
0010
0000
0001
0100
0010
0100
0001
0000
1000
0000
1100
0000
0001
0000
0101
0000
,
0010
0000
0100
0001
1000
0000
1000
0000
0001
0000
0001
0000
0010
0001
0010
0100
,
1000
0000
0001
0010
0100
0000
0100
0000
1000
0010
0100
0001
1000
0000
0001
0010
,
0001
0000
1000
0100
0010
0000
0010
0000
0001
0000
0001
0000
0100
0000
0100
0000
,
0010
1000
0010
1000
0010
1000
0010
1000
0010
1000
0010
1000
0010
1000
0010
1000
,
0001
0100
1000
1010
0000
0100
0110
0001
,
1000
0000
0010
0100
0010
0100
0010
0100
0010
0100
0010
0100
0010
0100
0010
0100
,
0001
0010
1000
1100
0000
0001
0101
0010
,
1000
0000
0001
0100
0001
0100
0001
0100
0001
0100
0001
0100
0001
0100
0001
0100
,
0010
1000
0100
0110
0000
0001
0011
0100
,
1000
0000
0010
0100
0010
0100
0010
0100
0010
0100
0010
0100
0010
0100
0010
0100
,
0002
0010
0010
1000
1000
0100
0103
0001
,
0110
0000
0000
0000
1001
0000
1000
0010
1000
0000
0001
0000
0100
0000
0100
0000
,
0010
0000
0010
0000
1000
0000
0100
0000
0001
0000
0100
0010
0100
0000
1000
0000
,
0001
0000
0001
0000
0010
0000
0010
0000
0001
0000
1000
0000
0010
0000
1000
0100
,
1000
0001
0100
0100
0020
1000
1030
0001
,
0100
0000
0100
0001
1000
0000
0010
0000
1000
0000
1000
0000
0100
0000
0100
0000
,
0010
0000
0001
0000
0100
0000
0001
0010
0001
0000
0001
0010
0001
0000
0001
0010
,
0001
0000
0001
0010
0001
0000
1000
0000
0010
0000
1000
0100
1000
0000
1000
0100
,
1000
0000
1000
0100
1000
0000
1000
0100
1000
0000
0001
0000
0100
0000
0001
1000
,
0001
0000
0001
1000
0001
0000
0001
1000
0002
0000
0100
0000
0103
0000
0010
0000
,
1010
0101
0000
0011
1100
0000
1001
0000
,
0110
0000
0000
0000
1000
0000
0001
0010
0100
0000
0100
0000
0010
0000
0010
0000
,
0001
0000
0001
0000
1000
0000
0010
1000
0100
0000
0100
0000
0010
0000
0010
0000
,
0001
0000
0001
0000
0100
0000
0001
1000
0100
0000
0100
0000
1000
0000
1000
0000
,
0010
0000
0010
0000
0100
0000
0001
0010
0001
0010
0001
0010
0001
0010
0001
0010
,
0001
0010
0001
0010
0100
0000
1000
0010
1000
0000
0001
0000
0001
0000
1000
0000
,
1000
0000
0010
0000
0010
0000
1000
0001
0010
0000
0010
0000
0001
0000
0200
0000
,
0320
0000
2030
0000
3001
0000
0010
0100
1000
0000
1000
0000
0001
0000
0001
0000
,
0100
0000
0100
0000
0010
1000
0010
1000
0010
1000
0010
0000
0100
0001
0100
0001
,
0100
0001
0100
0000
0001
0010
0100
0010
0001
0000
1000
0001
1000
0000
0100
1000
,
0010
0000
0010
0000
0100
0001
0010
0001
0100
0000
0010
1000
0001
0000
1000
0100
,
1000
0000
0010
0000
0100
0001
1000
0001
0100
0000
0010
1000
0010
0000
0100
0000
,
0001
0000
1000
0000
0100
0000
1000
0001
1000
0001
1000
0001
1000
0001
1000
0001
,
1000
0001
1000
0001
0010
0000
0001
0100
0001
0000
1000
0100
1000
0000
0010
0000
,
0100
0000
0001
0000
0010
0000
0100
1000
0001
0000
1000
0000
0010
0000
0200
0000
,
0302
0000
2003
0000
3010
0000
1000
0001
0010
0000
0001
0100
0010
0000
1000
0000
,
0100
0000
0001
0000
0100
1000
0001
0100
0010
0000
1000
0100
1000
0100
0010
0001
,
0100
0020
0030
0000
1010
0000
0011
0000
,
0101
1100
1001
0110
;
