#VERSION:0.83;
#TITLE:SPICY PIECE;
#SUBTITLE:(Ryu? Remix);
#ARTIST:Ryu?;
#TITLETRANSLIT:;
#SUBTITLETRANSLIT:(Ryu* Remix);
#ARTISTTRANSLIT:Ryu*;
#GENRE:;
#ORIGIN:;
#CREDIT:;
#BANNER:SPICY PIECE (Ryu Remix)-bn.png;
#BACKGROUND:SPICY PIECE (Ryu Remix)-bg.png;
#PREVIEWVID:;
#JACKET:SPICY PIECE (Ryu Remix)-jacket.png;
#CDIMAGE:;
#DISCIMAGE:;
#LYRICSPATH:;
#CDTITLE:;
#MUSIC:SPICY PIECE (Ryu Remix).ogg;
#OFFSET:0.166667;
#SAMPLESTART:23.987000;
#SAMPLELENGTH:20.000000;
#SELECTABLE:YES;
#DISPLAYBPM:90.000000:180.000000;
#BPMS:0.000=156.000,
16.000=180.000,
184.000=90.000,
220.000=180.000;
#STOPS:183.000=2.000;
#DELAYS:;
#WARPS:;
#TIMESIGNATURES:0.000=4=4;
#TICKCOUNTS:0.000=4;
#COMBOS:0.000=1;
#SPEEDS:0.000=1.000=0.000=0;
#SCROLLS:0.000=1.000;
#FAKES:;
#LABELS:0.000=Song Start;
#BGCHANGES:;
#KEYSOUNDS:;
#ATTACKS:
;

//---------------dance-single - ----------------
#NOTEDATA:;
#CHARTNAME:;
#STEPSTYPE:dance-single;
#DESCRIPTION:;
#CHARTSTYLE:;
#DIFFICULTY:Hard;
#METER:16;
#RADARVALUES:0.863925,0.999096,0.462555,0.085658,0.608174,706.000000,652.000000,54.000000,10.000000,0.000000,0.000000,0.000000,0.000000,0.000000,0.863925,0.999096,0.462555,0.085658,0.608174,706.000000,652.000000,54.000000,10.000000,0.000000,0.000000,0.000000,0.000000,0.000000;
#CREDIT:;
#DISPLAYBPM:90.000000:180.000000;
#NOTES:
0000
0000
0000
0000
,
0000
0000
0000
0000
0000
0000
2000
0002
,
3003
0101
1100
0101
,
0010
0000
0010
0000
0010
0000
0010
0000
1000
0001
1000
0001
1000
0001
1000
0001
,
0100
2020
0000
0000
,
0000
0000
0000
0030
0000
3001
0100
1000
,
1001
0000
0000
0000
0010
0000
0010
0000
0010
0000
1000
0100
1000
0000
0001
0100
,
0001
0000
0000
0010
0000
0000
0001
1000
0001
0000
0100
0000
0100
0000
0100
0010
,
1000
0000
0000
0000
0001
0000
0001
0000
0001
0000
0000
1000
0100
0000
1000
0000
,
1001
0000
0000
0100
0000
0000
0010
0000
0001
0100
0001
0000
0010
0000
1000
0100
,
1000
0000
0010
0000
0100
0001
0100
0001
1000
0000
0100
0000
0010
0001
0010
0001
,
1000
0000
0010
0000
1000
0001
1000
0001
0100
0000
0010
0000
1001
0000
0110
0000
,
1000
0010
1000
0010
0100
0001
0100
0001
1000
0100
1000
0100
0010
0001
0010
0001
,
1000
0202
0000
0300
,
1000
0000
0000
0000
1000
0000
0000
0000
1003
0100
0010
0001
1000
0001
0100
0010
,
0000
0000
0000
1000
0000
0100
0000
0001
0000
0010
0000
0100
0000
1000
0000
0000
,
0000
0000
0000
0000
0001
0000
0100
0000
0001
1000
0000
0000
0001
1000
0000
0000
,
0001
1000
0000
0000
0001
1000
0000
0000
0110
0000
0000
0000
0110
0000
0000
0000
,
0110
0000
1001
0000
0110
0000
0000
0000
1000
0000
0001
0100
0001
0000
0010
0000
,
0100
0000
1000
0000
0010
0000
1000
0000
0001
0000
0100
0010
0100
0000
0001
0000
,
1000
0000
0010
0000
1000
0000
0100
0000
0010
0000
0001
1000
0001
0000
0100
0000
,
0010
0000
1000
0000
0001
0000
0100
0000
0001
0000
0010
0100
0010
0000
0001
0000
,
1000
0100
0010
0000
0001
0000
1000
0000
0010
0000
0100
0001
0100
0000
0010
0000
,
1000
0000
0001
0000
1000
0000
0100
0000
0010
0000
0001
0100
0001
0000
0010
0000
,
1000
0000
0100
0000
0010
0000
0001
0000
0100
0000
0001
1000
0001
0000
0010
0000
,
0100
0010
0001
1000
1100
0000
0101
0000
,
1100
0000
0001
1000
0100
0000
0000
0000
0010
0000
0001
0100
0001
0000
0010
0000
,
0100
0000
1000
0000
0001
0000
1000
0000
0010
0000
1000
0001
1000
0000
0100
0000
,
0010
0000
0001
1000
0000
0001
1000
0000
0100
0000
0010
0001
0010
0000
0100
0000
,
1000
0000
0001
0100
0010
0000
1000
0100
0010
0100
1000
0000
0001
0000
0001
0000
,
0001
0000
0100
0010
0000
0100
0010
0000
1000
0000
0001
0010
0001
0000
0100
0010
,
1000
0000
0001
0000
1000
0000
0100
0000
0010
0000
0001
1000
0001
0000
0100
0000
,
0010
0000
1000
0000
0001
0000
0100
0000
0001
0000
0010
0100
1000
0000
0010
0100
,
0001
0000
1000
0000
0001
0000
0100
0000
0010
0000
1000
0100
0010
0000
0001
0000
,
1000
0010
1000
0000
0001
0000
0100
0000
0010
0000
0100
0001
1000
0000
0010
0000
,
1000
0000
0100
0000
0001
0000
0010
0000
0100
0000
1000
0010
1000
0000
0001
0000
,
0100
0000
0010
1000
0000
1000
0001
0000
0100
0000
0001
0010
0001
0000
0100
0000
,
0010
0000
1000
0001
0100
0000
0001
1000
0100
0000
0010
0000
0001
0000
0100
0000
,
1001
0000
0110
0000
1001
0000
0000
0000
0010
0000
1000
0100
1000
0000
0001
0000
,
0000
0000
0010
0000
0100
0000
1000
0010
1000
0000
0001
0000
0000
0000
0100
0010
,
0100
0000
0001
0000
0010
0000
0100
1000
0001
0000
0100
0000
0010
0000
1000
0000
,
0100
0010
0001
0000
2000
0000
0000
0000
3010
0000
0100
0001
0100
0001
0100
0001
,
0100
0001
0100
0001
0100
0001
0100
0001
1000
0000
0010
0000
0100
0000
0001
0010
,
0001
0000
0100
0000
0010
0000
1000
0000
0100
0000
0010
0001
0010
0001
0010
0001
,
0010
0001
0010
0001
0010
0001
0010
0001
0100
0000
0010
0000
1000
0000
0001
0000
,
0010
0000
0100
1000
0100
0000
0010
0000
0011
0000
0000
0000
1100
0000
0000
0000
,
2001
0000
0010
0000
0100
0000
0010
0000
0001
0000
0100
0000
3010
0000
1000
0100
,
0012
0000
0100
0000
1000
0000
0100
0000
0010
0000
0100
0000
1003
0000
0001
0100
,
1020
0001
1000
0001
0100
0001
1030
0100
,
1100
0000
0000
0101
0000
0000
0010
0000
0000
0100
0000
0000
1000
0000
0000
0010
0000
0000
1001
0000
0000
0100
0000
0100
,
0010
0000
1000
0000
1100
0000
0100
0100
0010
0000
0001
0000
0101
0000
1000
0001
,
0100
0000
0000
0000
0000
0000
0010
0000
0000
0000
0000
0000
1010
0000
0000
0000
0000
0000
0001
0000
0000
0100
0000
0000
1000
0000
0000
0100
0000
0000
0001
0000
0000
0000
0000
0000
0110
0000
0000
0000
0000
0000
1000
0000
0000
0000
1000
0000
,
0010
0000
0100
0000
0101
0000
0010
1000
0001
0000
0100
0000
0011
0000
1000
0000
,
1100
0000
0000
0000
0000
0000
0000
0000
0000
0000
0000
0000
0000
0000
0000
0000
0000
0000
0000
0000
0000
0000
0000
0000
0101
0000
0000
0000
0000
0000
0000
0000
0000
0000
0000
0000
0000
0000
0000
0000
0000
0000
0000
0000
0000
0000
0000
0000
0000
0000
0000
0000
0000
0000
0000
0000
0000
0000
0000
0000
0000
0000
0000
0000
0000
0000
1000
0000
0000
0000
0000
0000
0000
0000
0000
0000
0000
0000
0100
0000
0000
0000
0000
0000
0000
0000
0000
0000
0000
0000
0010
0000
0000
0000
0000
0000
0000
0000
0000
0000
0000
0000
0001
0000
0000
0000
0000
0000
0000
0000
0000
0000
0000
0000
0100
0000
0000
0000
0000
0000
0000
0000
0000
0000
0000
0000
1000
0000
0000
0000
0000
0000
0000
0000
0000
0000
0000
0000
0000
0000
0000
0000
0000
0000
1001
0000
0000
0000
0000
0000
0000
0000
0000
0000
0000
0000
0000
0000
0000
0000
0000
0000
0000
0000
0000
0000
0000
0000
0010
0000
0000
0000
0000
0000
0000
0000
0000
0000
0000
0000
0000
0000
0000
0000
0010
0000
0000
0000
0000
0000
0000
0000
,
0100
0000
0000
0000
1001
0000
0000
0000
0010
0000
1000
0000
0010
0000
0100
0000
0001
1000
0000
0000
0001
1000
0000
0000
0001
1000
0000
0000
0001
1000
0000
0000
,
0110
0000
0110
0000
0110
1001
0110
0000
,
0101
0000
0000
0000
1100
0000
0000
0000
0101
0000
1000
0001
0100
0000
0000
0000
,
1000
0010
0001
0100
0001
1000
0010
0100
,
0001
0010
0100
0010
0001
0100
1000
0001
,
0100
0000
0010
0000
1000
0000
0001
0100
0010
0000
1000
0000
0001
0000
0100
0000
,
0001
0000
0010
0100
1000
0000
0010
0100
0010
1000
0001
0000
0100
0000
0010
0000
,
1000
0000
0010
0000
0100
0000
0001
0000
0010
0100
1000
0000
0001
0000
0100
0000
,
0010
0000
1000
0001
1000
0000
0100
0000
0010
0000
0001
0100
0010
0000
1000
0000
,
0100
0010
0001
0100
0001
0010
1000
0001
,
1010
0000
0000
0000
0011
0000
0000
0000
1010
0000
0001
1000
0100
0000
0000
0000
,
0010
0000
0001
0100
0001
0000
1000
0000
0010
0000
0100
0000
0001
0000
1000
0000
,
0100
0000
0010
0001
0100
0000
1000
0000
0010
0000
0100
0001
1000
0000
0010
0000
,
0100
0000
0001
0000
0010
0000
0100
0000
1000
0001
1000
0000
0010
0000
0100
0000
,
0001
0000
0010
0001
1000
0000
0010
0000
0100
0001
0100
0000
1000
0000
0010
0000
,
0100
0001
0010
0001
1000
0100
0001
0010
,
0100
0000
1000
0010
1000
0000
0001
0000
0100
0000
0010
1000
0010
0000
0100
0000
,
0001
0000
0010
0001
0010
0000
0100
0000
1000
0000
0010
0000
0100
0000
0001
1000
,
0001
0100
0010
0000
1000
0000
0100
0000
0010
0000
0001
0100
0010
0000
1001
0000
,
0000
1100
0101
1100
,
0010
0000
0010
0000
0010
0000
0010
0000
1000
0001
1000
0001
1000
0001
1000
0001
,
0100
1010
0000
0000
;

//---------------dance-single - ----------------
#NOTEDATA:;
#CHARTNAME:;
#STEPSTYPE:dance-single;
#DESCRIPTION:;
#CHARTSTYLE:;
#DIFFICULTY:Medium;
#METER:12;
#RADARVALUES:0.609397,0.870181,0.462555,0.239843,0.115639,498.000000,444.000000,54.000000,28.000000,0.000000,0.000000,0.000000,0.000000,0.000000,0.609397,0.870181,0.462555,0.239843,0.115639,498.000000,444.000000,54.000000,28.000000,0.000000,0.000000,0.000000,0.000000,0.000000;
#CREDIT:;
#DISPLAYBPM:90.000000:180.000000;
#NOTES:
0000
0000
0000
0000
,
0000
0000
0000
0000
0000
0000
2000
0002
,
3000
0100
0010
0100
,
0013
0001
0010
0001
1000
0100
1000
0001
,
0100
2020
0000
0000
,
0000
0000
0000
0030
0000
3001
1000
0000
,
1001
0000
0010
0100
0010
0000
1000
0000
,
0102
0000
0000
0100
0000
0000
0103
0000
0010
0000
1000
0000
0001
0000
1000
0000
,
0100
0000
0010
0001
0010
0000
0100
0000
,
1200
0000
0000
1000
0000
0000
1300
0000
0001
0000
0100
0000
0010
0000
1000
0000
,
0100
0010
0002
0000
0103
0010
2000
0000
,
3001
1000
0020
0000
1030
0001
0100
0010
,
0100
0001
0100
0001
0100
0001
1000
0100
,
0010
0022
0000
0030
,
2003
0000
0001
0000
0001
0000
3001
0100
,
0000
0000
0000
0010
0000
1000
0000
0010
0000
0100
0000
0001
0000
1000
0000
0000
,
0000
0000
0100
0010
0001
0000
0001
0000
,
0001
0001
1001
0110
,
1001
0100
0010
0000
1000
0010
0100
0000
,
0001
0010
0100
0000
1000
0001
1000
0000
,
0010
0100
0010
1000
0001
0000
0010
0001
,
0100
0010
1000
0001
1000
0010
0100
0010
,
1000
0001
1000
0100
0020
0000
0031
0100
,
0001
0000
1000
0010
0200
0000
0310
1000
,
0010
0100
0001
1000
0200
0000
0310
0001
,
0100
0000
0001
1000
0010
0000
0010
0000
,
0010
1000
0100
0000
1000
0001
0100
0010
,
1000
0100
1000
0000
0010
0100
0001
1000
,
0100
0000
0000
0100
0000
0000
0100
0000
0010
0000
0001
0000
1000
0000
0000
0000
,
0101
1100
0101
1100
,
0010
0000
0000
1000
0000
0000
0001
0000
0100
0000
0010
0000
0100
0000
0001
0000
,
0100
0010
1000
0000
0001
0010
0100
1000
,
0010
0100
0001
1000
0010
0000
1000
0001
,
1000
0100
0010
0001
0100
0000
0010
1000
,
0010
0100
0001
1000
0100
0010
0001
0100
,
0001
0010
1000
0000
0100
1000
0010
1000
,
0001
0000
0000
0001
0000
0000
0001
0000
0100
0000
0010
0000
1000
0000
0000
0000
,
1010
0000
0101
0000
0001
0100
1000
0010
,
0001
1000
0100
0000
0110
0000
0001
0100
,
0000
0010
1000
0000
0100
0010
0000
0001
,
1000
0010
1000
0100
0020
0000
0031
2000
,
0000
3001
0200
0000
0310
1000
0001
1000
,
0001
1000
0001
1000
1001
0000
0010
0100
,
0001
0000
0101
0000
1000
0100
0010
0001
,
1000
0001
0100
0010
1000
0000
1000
0100
,
0001
0011
0110
1100
,
2001
0000
0000
0000
0010
0000
0000
0000
0001
0000
0000
0000
3010
0000
1000
0100
,
0002
0000
0000
0000
0010
0000
0000
0000
1000
0000
0000
0000
0013
0000
0001
0100
,
0020
0000
0001
0000
0100
0000
1030
0001
,
1100
0000
0000
0101
0000
0000
0010
0000
0000
0000
0000
0000
0100
0000
0000
0000
0000
0000
1001
0000
0000
0100
0000
0100
,
0010
0000
1000
0000
1100
0000
0000
0001
0000
0000
0100
0000
0101
0000
0010
1000
,
0001
0000
0000
0000
0000
0000
0010
0000
0000
0000
0000
0000
0011
0000
0000
0000
0000
0000
0000
0000
0000
0100
0000
0000
0000
0000
0000
0000
0000
0000
1000
0000
0000
0000
0000
0000
1010
0000
0000
0000
0000
0000
0001
0000
0000
0000
0001
0000
,
1000
0000
0010
0000
0110
0000
0000
0100
0000
0000
0001
0000
0011
0000
0100
0000
,
1100
0000
0000
0000
0101
0000
0000
0000
0000
0000
0000
1000
0000
0100
0000
1000
0000
0010
0000
0100
0000
0001
0000
0000
1001
0000
0000
0000
0010
0000
0000
0000
,
1100
0000
0101
0000
0010
1000
0010
0100
0001
0000
0001
0000
0001
0000
0001
0000
,
1001
0000
0110
0000
1001
0100
0010
0000
,
0101
0000
1100
0000
0101
1000
0100
0000
,
1000
0001
0000
0011
0000
1100
0000
0000
,
0000
0001
0100
0010
1000
0100
0001
0100
,
1000
0001
0000
0000
0100
0010
1000
0000
,
0001
0010
0001
0100
1000
0010
0001
0000
,
0100
0010
0000
1010
0000
0101
0000
0000
,
1000
0001
0100
0010
1000
0100
0010
0002
,
0100
0010
0100
1003
,
1100
0000
0101
0000
1100
0001
0100
0000
,
0010
1000
0000
0110
0000
0001
0100
0000
,
0001
0010
0100
0010
0001
0100
0010
1000
,
0001
0100
0010
0000
1000
0100
0001
0000
,
0010
0001
0010
0100
1000
0010
0001
0000
,
0100
0010
0000
0101
0000
1000
0001
0000
,
0010
0001
0010
0100
1000
0010
1000
0001
,
0200
0010
1000
0301
,
1010
0000
0011
0000
1010
0000
2000
0002
,
3000
0203
0320
0230
,
0301
1000
0010
0100
0001
1000
0010
0100
,
0001
1010
0000
0000
;

//---------------dance-single - ----------------
#NOTEDATA:;
#CHARTNAME:;
#STEPSTYPE:dance-single;
#DESCRIPTION:;
#CHARTSTYLE:;
#DIFFICULTY:Easy;
#METER:8;
#RADARVALUES:0.418502,0.612349,0.479686,0.274106,0.017132,342.000000,286.000000,56.000000,32.000000,0.000000,0.000000,0.000000,0.000000,0.000000,0.418502,0.612349,0.479686,0.274106,0.017132,342.000000,286.000000,56.000000,32.000000,0.000000,0.000000,0.000000,0.000000,0.000000;
#CREDIT:;
#DISPLAYBPM:90.000000:180.000000;
#NOTES:
0000
0000
0000
0000
,
0000
0000
0000
0000
0000
0000
2000
0002
,
3000
0100
0100
0100
,
0010
0000
0010
0000
1003
0001
1000
0001
,
0100
2020
0000
0000
,
0000
0000
3000
0130
,
1001
0100
1000
0010
,
0102
0100
1000
1003
,
1001
0010
0001
0100
,
2010
0010
0001
3001
,
1000
1100
0001
0101
,
1000
1010
0001
0011
,
0100
0100
0100
0100
,
0010
0202
0000
0000
,
0300
2003
3002
2003
,
3001
0000
0000
0000
0000
0010
0000
0100
,
0000
1000
0001
0001
,
0001
0001
1001
0110
,
1001
0110
1000
0010
,
1000
0001
0010
0100
,
0010
0001
0100
0001
,
0010
0100
1000
0010
,
1000
0001
1000
0001
0100
0000
0010
0000
,
1000
0001
0010
0001
,
0100
0010
1000
0100
,
1000
0001
1100
0101
,
1100
0101
0010
0010
,
1000
0001
0100
0010
,
1010
0101
0001
0010
,
1100
0101
1000
1000
,
1000
0001
0100
0010
,
0100
0001
0010
0100
,
1000
0010
1000
0100
,
0001
0010
0001
0100
,
0001
1000
0010
1000
,
0100
0010
0001
1000
,
1100
0011
0100
0010
,
1000
0001
0101
1100
,
0101
0000
1100
0000
0002
0000
0000
0023
,
0000
0000
0032
0000
0000
0203
0000
0000
,
0310
0000
1000
0001
2000
0000
0000
3200
,
0000
0000
0320
0000
0000
0032
0000
0000
,
1003
0000
0001
0000
0200
0000
0000
0320
,
0000
0000
2030
0000
0000
3200
0000
0000
,
0310
0000
0001
0100
0002
0000
0010
0000
,
1000
0103
0011
1100
,
2002
0000
0000
0000
0000
0000
0000
0000
0000
0000
0003
0000
3010
0000
1000
0001
,
0200
0000
0000
0000
0000
0000
0000
0000
0000
0000
0000
0000
0310
0000
1000
0001
,
0020
0000
0000
0000
0000
0000
0031
0100
,
1000
0001
0000
0000
0000
0000
1001
0100
,
0010
0000
0101
0000
1000
0100
1010
0000
,
0001
0000
0011
0000
0100
1000
1100
0000
,
0010
0000
0110
0000
1000
0001
1001
0100
,
0001
0000
0000
0000
1000
0000
0000
0000
0000
0000
0000
0000
0000
0000
0000
0010
0000
0000
0000
0100
0000
0000
0000
0000
1001
0000
0000
0000
0100
0000
0000
0000
,
1000
0001
1000
0100
0001
0001
0001
0001
,
1001
0110
1001
0110
,
0101
1100
0101
1100
,
0001
1000
0000
0010
0000
0100
0000
0000
,
0000
0001
0010
1000
,
0100
0010
0000
0000
0000
0000
0000
0000
,
0001
1000
0001
1000
,
0010
1000
0000
0001
0000
0100
0000
0000
,
0000
0000
0000
0000
0000
0001
1000
0200
,
0000
0000
0000
0300
,
1100
0101
1100
0101
,
0010
0100
0000
0001
0000
1000
0000
0000
,
0100
0010
0001
0000
1000
0010
1000
0000
,
0001
0100
0000
0000
0000
0000
0000
0000
,
0010
1000
0001
0000
0011
0000
0000
0000
,
0100
1000
0000
0010
0000
0001
0000
0000
,
1000
0000
0010
0000
1000
0000
0001
0100
,
0020
0000
0000
0030
,
0101
0000
1100
0000
0101
0000
2000
0002
,
3000
0100
0100
0100
,
0010
0000
0010
0000
1003
0001
1000
0001
,
0100
1010
0000
0000
;

//---------------dance-single - ----------------
#NOTEDATA:;
#CHARTNAME:;
#STEPSTYPE:dance-single;
#DESCRIPTION:;
#CHARTSTYLE:;
#DIFFICULTY:Beginner;
#METER:5;
#RADARVALUES:0.182330,0.290060,0.068527,0.171316,0.000000,149.000000,141.000000,8.000000,20.000000,0.000000,0.000000,0.000000,0.000000,0.000000,0.182330,0.290060,0.068527,0.171316,0.000000,149.000000,141.000000,8.000000,20.000000,0.000000,0.000000,0.000000,0.000000,0.000000;
#CREDIT:;
#DISPLAYBPM:90.000000:180.000000;
#NOTES:
// measure 0
0000
0000
0000
0000
,  // measure 1
0000
0000
0000
0000
0000
0000
0000
2000
,  // measure 2
0000
0000
0000
0000
,  // measure 3
0000
0000
0000
3000
,  // measure 4
0000
1001
0000
0000
,  // measure 5
0000
0000
0000
0000
,  // measure 6
0010
0000
1000
0000
,  // measure 7
0002
0000
0000
0003
,  // measure 8
0010
0000
0001
0000
,  // measure 9
0200
0000
0000
0300
,  // measure 10
0000
0110
0000
0110
,  // measure 11
0000
1000
0000
0001
,  // measure 12
0200
0000
0000
0300
,  // measure 13
0000
0110
0000
0000
,  // measure 14
0000
0000
0000
0000
,  // measure 15
0000
0000
0000
0000
,  // measure 16
0000
0000
0001
0000
,  // measure 17
0001
0000
1000
1000
,  // measure 18
1000
0000
0010
0000
,  // measure 19
1000
0000
0010
0000
,  // measure 20
0100
0000
0001
0000
,  // measure 21
0010
0000
0001
0000
,  // measure 22
1000
1000
0100
0000
,  // measure 23
0010
0000
0001
0000
,  // measure 24
0100
0000
0001
0000
,  // measure 25
1000
0000
0010
0010
,  // measure 26
0010
0000
0100
0000
,  // measure 27
0001
0000
0010
0000
,  // measure 28
0100
0100
1000
0000
,  // measure 29
0001
0001
1000
1000
,  // measure 30
0001
0000
0100
0000
,  // measure 31
0010
0000
0100
0000
,  // measure 32
0001
0000
0010
0000
,  // measure 33
0100
0000
1000
0000
,  // measure 34
0001
0001
1000
0000
,  // measure 35
0001
0000
0100
0100
,  // measure 36
0010
0010
0100
0000
,  // measure 37
0001
0001
1000
1000
,  // measure 38
0001
0000
0020
0000
,  // measure 39
0000
0030
0002
0000
,  // measure 40
0000
0003
1000
0000
,  // measure 41
0001
0000
0200
0000
,  // measure 42
0000
0300
0020
0000
,  // measure 43
0000
0030
2000
0000
,  // measure 44
0000
3000
0002
0000
,  // measure 45
0000
0103
0100
0010
,  // measure 46
2002
0000
0000
0003
,  // measure 47
0020
0000
0000
3030
,  // measure 48
0200
0000
0000
0301
,  // measure 49
1000
0001
0000
0000
0000
0000
1001
0000
,  // measure 50
0200
0000
0000
0300
,  // measure 51
0020
0000
0000
0030
,  // measure 52
0200
0000
0000
0301
,  // measure 53
1000
0001
0000
0000
0000
0000
1001
0000
,  // measure 54
0001
1000
0000
0000
0001
0000
0001
0000
,  // measure 55
0100
0100
0100
0000
,  // measure 56
0010
0010
0010
0000
,  // measure 57
1000
0000
0100
0000
,  // measure 58
1000
0000
0001
0010
,  // measure 59
0100
0000
0000
0000
,  // measure 60
1000
1000
1000
0000
,  // measure 61
0010
0000
1000
0000
,  // measure 62
0010
0000
0100
0000
,  // measure 63
0002
0000
0000
0003
,  // measure 64
0001
0001
0001
0000
,  // measure 65
0010
0000
0001
0000
,  // measure 66
0100
0000
0010
1000
,  // measure 67
0001
0000
0000
0000
,  // measure 68
1000
1000
1000
0000
,  // measure 69
0100
0000
1000
0000
,  // measure 70
0010
0000
0100
0001
,  // measure 71
0002
0000
0000
0003
,  // measure 72
0100
0000
0100
0000
0100
0000
0000
0020
,  // measure 73
0000
0000
0000
0000
,  // measure 74
0000
0000
0000
0030
,  // measure 75
0000
1001
0000
0000
;
