#VERSION:0.83;
#TITLE:SPEED KING ON FIRE;
#SUBTITLE:;
#ARTIST:Snowman;
#TITLETRANSLIT:;
#SUBTITLETRANSLIT:;
#ARTISTTRANSLIT:;
#GENRE:;
#ORIGIN:;
#CREDIT:;
#BANNER:SPEED KING ON FIRE-bn.png;
#BACKGROUND:SPEED KING ON FIRE-bg.png;
#PREVIEWVID:;
#JACKET:SPEED KING ON FIRE-jacket.png;
#CDIMAGE:;
#DISCIMAGE:;
#LYRICSPATH:;
#CDTITLE:;
#MUSIC:SPEED KING ON FIRE.ogg;
#OFFSET:0.000000;
#SAMPLESTART:57.230999;
#SAMPLELENGTH:20.000000;
#SELECTABLE:YES;
#DISPLAYBPM:260.000000;
#BPMS:0.000=260.000;
#STOPS:;
#DELAYS:;
#WARPS:;
#TIMESIGNATURES:0.000=4=4;
#TICKCOUNTS:0.000=4;
#COMBOS:0.000=1;
#SPEEDS:0.000=1.000=0.000=0;
#SCROLLS:0.000=1.000;
#FAKES:;
#LABELS:0.000=Song Start;
#BGCHANGES:;
#KEYSOUNDS:;
#ATTACKS:
;

//---------------dance-single - ----------------
#NOTEDATA:;
#CHARTNAME:;
#STEPSTYPE:dance-single;
#DESCRIPTION:;
#CHARTSTYLE:;
#DIFFICULTY:Hard;
#METER:15;
#RADARVALUES:0.815850,0.911572,0.191818,0.331322,0.008719,655.000000,633.000000,22.000000,38.000000,0.000000,0.000000,0.000000,0.000000,0.000000,0.815850,0.911572,0.191818,0.331322,0.008719,655.000000,633.000000,22.000000,38.000000,0.000000,0.000000,0.000000,0.000000,0.000000;
#CREDIT:;
#DISPLAYBPM:260.000000;
#NOTES:
0000
0000
0000
0000
,
0000
0000
0000
0000
,
0000
0000
0000
0000
,
0000
0000
0000
0000
,
1000
0001
1000
0000
0000
0000
0000
0000
,
0000
0000
0000
0000
,
0001
1000
0001
0000
0000
0000
0000
0000
,
0000
0000
0000
0000
,
0210
0000
0010
0000
0000
1000
0000
0000
,
0001
0000
0000
1000
0000
0000
0310
0000
,
0100
0001
0100
0001
0100
0001
0100
0001
,
1000
0100
1000
0100
1000
0100
1000
0100
,
0010
0000
0000
0001
1000
0010
0100
0010
,
1000
0010
0100
0010
1000
0010
0100
0010
,
1000
0001
0010
0001
1000
0001
0100
0001
,
1000
0001
0010
0001
0010
0100
1000
0000
,
0001
0100
0010
0000
2010
0000
3001
0000
,
1100
0000
1000
0010
0100
0001
0010
0100
,
1000
0001
1000
0001
0010
0100
1000
0010
,
0100
0001
1000
0000
0001
0010
0100
1000
,
0001
0000
0100
0010
0100
0001
0010
0100
,
1000
0000
0001
1000
0001
0010
0100
1000
,
0010
0000
1000
0001
1000
0001
0010
0001
,
0100
0010
0000
0010
1000
0001
1000
0100
,
0010
0001
0010
0001
0100
0010
1000
0001
,
0100
0010
0100
0001
1000
0100
0010
0001
,
0100
0001
0000
0100
0010
1000
0100
0010
,
0001
1000
0010
0100
0001
1000
0100
0010
,
0002
0000
0000
0000
0000
0000
0000
0000
1000
0000
0000
1003
0000
0000
0000
0000
,
0001
0000
0000
0010
0000
0000
0100
0000
1000
0000
0000
0000
0000
0000
0000
0000
,
0010
0100
0010
0000
1000
0001
1000
0100
,
0010
0001
0010
0001
1000
0010
0100
0001
,
1000
0100
1000
0100
1000
0001
0000
0001
,
0100
0010
0100
0001
0100
0010
0100
0001
,
1000
0100
0010
0100
0010
0001
0000
1000
,
0001
1000
0001
0100
0010
0100
0010
1000
,
0200
0000
0000
0320
0000
0000
0032
0000
,
2003
0010
0001
0010
,
3001
0100
0001
0100
0001
1000
0000
0001
,
0010
0100
0010
0001
0100
0010
1000
0001
,
0100
0010
0100
0000
0001
1000
0000
0000
,
0001
0010
0100
0010
0001
0100
0010
0100
,
0001
1000
0100
0000
1000
0001
0000
0100
,
0010
1000
0100
1000
0100
0010
0001
0100
,
0002
0000
0000
2003
0000
0000
3002
0000
,
0103
0010
0100
0010
0100
0001
1000
0000
,
0020
0000
0000
2030
0000
0000
3002
0000
,
0013
0000
0100
1000
0000
1000
0001
0000
,
0200
0000
0000
0302
0000
0000
0023
0000
,
0130
0000
1000
0001
0000
0001
0100
0000
,
0002
0000
1003
0010
0000
1000
0100
0000
,
0010
0000
0001
0100
0000
0010
1000
0000
,
1100
0000
0000
0001
0000
1000
0100
0000
,
0010
0001
0010
0100
0000
0100
1000
0000
,
0001
0000
0100
0010
0000
0000
1000
0000
,
0001
0100
0001
1000
,
0002
0000
0000
0023
0000
0000
0230
0000
,
2300
0000
3010
0100
0000
0010
0100
0000
,
0001
0100
0001
0100
0001
0100
0001
0100
,
0001
1000
0001
1000
0001
1000
0001
1000
,
0001
0010
0100
1000
0001
0100
0010
1000
,
0100
0010
0000
0000
1001
0000
0000
0000
,
0001
0100
0010
0000
1000
0000
0101
0000
,
0010
1000
0100
0001
,
0010
0000
0001
0100
0000
0001
1000
0000
,
0020
1000
0100
1030
,
0001
0010
0100
0010
0100
0000
1000
0000
,
0001
0010
0001
0100
,
1010
0000
0010
1000
0000
0001
0100
0000
,
0110
0000
1001
0000
0001
0010
0100
1000
,
0001
0000
0100
0010
0000
0000
2000
0000
,
0000
0001
0100
3100
,
1001
0000
0010
1000
0000
0001
1000
0000
,
0100
0010
0001
1000
,
0001
0010
0001
1000
0010
0000
0100
0000
,
0001
0010
1000
0001
,
1000
0000
0001
0100
0000
0001
0100
0000
,
0010
0000
1000
0100
1000
0000
1001
0000
,
0010
0100
0001
0000
1000
0000
1100
0000
,
0010
0100
0010
0001
,
0100
0000
0001
0010
0000
0100
1000
0000
,
0001
0100
0000
0001
1000
0000
0001
0000
,
0010
0100
1000
0000
0001
0000
1000
0000
,
0010
0100
0001
0000
0010
0000
0100
0000
,
2000
0000
3010
0200
0000
0301
0020
0000
,
0130
1000
0000
0000
0001
1000
0010
0100
,
0001
0000
0010
0200
0000
0000
1300
0001
,
0000
0010
0001
0000
0100
0001
1000
0000
,
0110
0000
0001
0200
0000
0000
0301
2000
,
0010
0100
0010
3100
,
0001
1000
0100
0000
0010
0000
0011
0000
,
0001
0100
1000
0010
,
0200
0000
0000
0302
0000
0000
2003
0000
,
0010
0000
0100
0000
3010
1000
0001
0000
,
0020
1000
0100
1000
,
0031
0000
0100
0010
0000
0010
1000
0000
,
0001
0000
1000
0010
0000
0100
0001
0000
,
1000
0010
0100
0010
1000
0100
0010
0001
,
0100
0010
1000
0000
0000
0001
0100
0000
,
0001
0000
0010
0100
0000
0100
1000
0000
,
0001
0000
1000
0010
0000
1000
0001
0000
,
0100
0000
0010
0100
0000
0010
1000
0000
,
0001
0010
0100
0000
1000
0001
0000
1000
,
0100
0000
0010
0001
0000
0001
0100
0000
,
0001
1000
0010
1000
0100
0010
0100
1000
,
0010
0100
0010
1000
0001
0010
0100
1000
,
0001
0000
0100
0000
0001
1000
0000
1000
,
0010
0000
1000
0100
0000
0010
0001
0100
,
0001
0000
0010
0000
0100
1000
0000
0001
,
0100
0000
0010
1000
0000
0010
0100
0002
,
0000
1003
0200
0320
,
0031
0000
0100
0010
0000
1000
0001
0000
,
0011
0000
0010
0100
0000
1000
0001
0000
,
0101
0000
0010
1000
0000
0001
0100
0000
,
1010
0000
0001
0010
0000
0100
1000
0000
,
1100
0000
0100
0010
0000
0001
1000
0000
,
1001
0000
0000
0110
0000
0000
1001
0000
,
0000
0001
0010
0100
1000
0010
0100
0001
,
1000
0010
1000
0001
0200
0000
0000
0000
,
0010
0000
0010
0000
,
0310
1000
0100
0000
0000
1001
0000
0000
,
0010
0001
0010
0100
1000
0001
0100
0010
,
2000
0000
0000
0000
,
3000
0000
0000
0000
;

//---------------dance-single - ----------------
#NOTEDATA:;
#CHARTNAME:;
#STEPSTYPE:dance-single;
#DESCRIPTION:;
#CHARTSTYLE:;
#DIFFICULTY:Medium;
#METER:13;
#RADARVALUES:0.551788,0.750706,0.122066,0.558016,0.000000,443.000000,429.000000,14.000000,64.000000,0.000000,0.000000,0.000000,0.000000,0.000000,0.551788,0.750706,0.122066,0.558016,0.000000,443.000000,429.000000,14.000000,64.000000,0.000000,0.000000,0.000000,0.000000,0.000000;
#CREDIT:;
#DISPLAYBPM:260.000000;
#NOTES:
0000
0000
0000
0000
,
0000
0000
0000
0000
,
0000
0000
0000
0000
,
0000
0000
0000
0000
,
1000
0001
1000
0000
0000
0000
0000
0000
,
0000
0000
0000
0000
,
0001
1000
0001
0000
0000
0000
0000
0000
,
0000
0000
0000
0000
,
0220
0000
0000
0000
,
0000
0000
0000
0030
,
0001
0001
0001
0301
,
1000
0000
1000
0000
1000
0001
1000
0001
,
0100
0000
0000
0010
1000
0000
0100
0000
,
1000
0001
0010
0100
,
1000
0010
0100
0001
,
0010
0100
0010
0100
,
1000
0001
0020
0030
,
0001
0000
1000
0010
1000
0000
0100
0000
,
1100
0000
0000
0101
0000
0000
1010
0000
,
0000
0011
0000
0000
1000
0001
1000
0001
,
1000
0000
0000
0000
0010
0100
0010
0100
,
0010
0000
0000
0000
0100
0001
0100
0001
,
0100
0000
0000
0000
0001
0010
0001
0010
,
0001
0000
0000
0000
1000
0010
1000
0010
,
1000
0000
0000
0000
1000
0100
1000
0100
,
1000
0000
0000
0000
0001
1000
0001
1000
,
0001
0000
0100
0000
0010
0000
1000
0001
,
1000
0000
0100
0000
0010
0001
0010
0001
,
2000
0000
0001
0000
,
0001
0000
3001
0000
,
1001
0000
0100
0000
0000
0010
0000
0000
,
1000
0000
0100
0000
1000
0000
0001
0100
,
0010
0000
1000
0000
0000
0001
0000
0000
,
0010
0001
0010
0000
0100
1000
0100
0000
,
1000
0000
0001
0000
0000
0100
0000
0000
,
0001
0000
0010
0000
0001
1000
0100
1000
,
0002
0000
0000
0023
0000
0000
0230
0000
,
2300
0000
0000
3000
,
1000
0010
1000
0000
0000
0001
0000
0000
,
0010
0000
0100
0000
1000
0000
0001
0100
,
0001
0000
0010
0000
0000
0010
0000
0000
,
0001
0100
0001
0000
1000
0010
1000
0000
,
0100
0000
0010
0000
0000
0010
0000
0000
,
0001
0000
1000
0000
0010
0100
0010
1000
,
0002
0000
0000
2003
0000
0000
3020
0000
,
0230
0001
0001
0301
,
1000
0000
0000
0010
0000
0000
1000
0000
,
0001
0000
0000
0010
0000
0000
0001
0000
,
0100
0000
0000
0010
0000
0000
1000
0000
,
0100
0000
0000
0010
0000
0000
0001
0000
,
0100
0000
0000
0010
0000
0000
0100
0000
,
0001
0000
0000
0010
0000
0000
1000
0000
,
1100
0000
0000
1000
0000
0000
0001
0000
,
0101
0000
0000
0100
0000
0000
0010
0000
,
1000
0000
0000
1000
0000
0000
0001
0000
,
0000
0010
0001
0100
,
0020
0000
0000
2030
0000
0000
3002
0000
,
0000
0203
0000
0000
,
0301
0000
0010
0000
0001
1000
0001
0000
,
1000
0000
0010
0000
0100
0001
0100
0000
,
0001
1000
0001
0000
1000
0010
1000
0010
,
0200
0010
0020
0330
,
1000
0010
1000
0002
,
0000
0023
0000
0130
,
2000
0000
0000
3002
0000
0000
2003
0000
,
3020
0100
1000
0130
,
0001
1000
0100
0020
,
0000
0032
0000
0103
,
0002
0000
0000
2003
0000
0000
3020
0000
,
0000
0000
0000
0000
1030
0010
0100
0001
,
2000
0000
0000
3200
0000
0000
0320
0000
,
0000
0031
1000
0001
,
0200
0000
0000
0320
0000
0000
2030
0000
,
3002
0010
1000
0103
,
0001
1000
0001
0020
,
0000
0230
0000
1300
,
0020
0000
0000
2030
0000
0000
3002
0000
,
0000
0100
0100
0103
,
0001
1000
0010
0000
1000
0000
0200
0000
,
0000
0320
0000
0130
,
1000
0000
0001
0100
0000
0001
0100
0000
,
0020
0000
0000
0030
,
1000
0010
0100
0000
0001
0000
2000
0000
,
0000
3020
0000
1030
,
0001
0000
1000
0001
0000
0010
0100
0000
,
1000
0000
0001
0000
1000
0010
1000
0001
,
2000
0000
0000
3200
0000
0000
0310
0001
,
0000
0001
0100
0000
0001
0000
1000
0000
,
0020
0000
0000
0230
0000
0000
0302
0000
,
2003
0010
0100
3010
,
0100
0001
1000
0000
0001
0000
0020
0000
,
0000
0032
0000
0103
,
0020
0000
0000
2030
0000
0000
3002
0000
,
0000
0000
1000
0000
1003
0100
1000
0000
,
1002
0100
0000
0103
,
0010
0000
1000
0000
0001
0100
0001
0000
,
2000
0010
0000
3010
,
1000
0001
1000
0000
0001
0100
0001
0000
,
0020
0000
0001
0000
0000
1000
0000
0000
,
0001
0000
0000
0100
0000
0000
1030
0000
,
0010
0000
0001
0000
0100
0010
1000
0000
,
0001
0000
0000
0100
0000
0000
0010
0000
,
1000
0000
0001
0000
0010
0100
0000
1000
,
0000
0000
0001
0100
0000
0001
1000
0000
,
0010
0100
0010
1000
,
0001
0000
0010
0000
0001
1000
0010
1000
,
0100
0000
0010
0000
0000
0001
0000
0000
,
0100
0000
0000
0010
0000
0000
1000
0000
,
0001
0000
1000
0000
0000
0010
0000
0000
,
0100
0000
0000
0001
0000
0000
0010
0001
,
2000
0000
3010
0200
,
0000
0001
0000
0301
,
1000
0000
0000
1000
0000
0000
0100
0000
,
0010
0000
0000
0001
0000
0000
0100
0000
,
0001
0000
0000
0001
0000
0000
1000
0000
,
0010
0000
0000
1000
0000
0000
0100
0000
,
1100
0000
0000
0110
0000
0000
0011
0000
,
0000
0000
1000
0001
0100
0000
0010
1000
,
0100
0000
0010
0001
0200
0000
0000
0000
,
0010
0000
0010
0000
,
0310
0000
1001
0000
0000
0110
0000
0000
,
1000
0001
1000
0001
1000
0001
1000
0001
,
2000
0000
0000
0000
,
3000
0000
0000
0000
;

//---------------dance-single - ----------------
#NOTEDATA:;
#CHARTNAME:;
#STEPSTYPE:dance-single;
#DESCRIPTION:;
#CHARTSTYLE:;
#DIFFICULTY:Easy;
#METER:9;
#RADARVALUES:0.378654,0.536219,0.087190,0.279008,0.000000,304.000000,294.000000,10.000000,32.000000,0.000000,0.000000,0.000000,0.000000,0.000000,0.378654,0.536219,0.087190,0.279008,0.000000,304.000000,294.000000,10.000000,32.000000,0.000000,0.000000,0.000000,0.000000,0.000000;
#CREDIT:;
#DISPLAYBPM:260.000000;
#NOTES:
0000
0000
0000
0000
,
0000
0000
0000
0000
,
0000
0000
0000
0000
,
0000
0000
0000
0000
,
1000
1000
0000
0000
,
0000
0000
0000
0000
,
0001
0001
0000
0000
,
0000
0000
0000
0000
,
0220
0000
0000
0000
,
0000
0000
0000
0030
,
0002
0000
0000
0300
,
2000
0000
0000
3003
,
1001
0000
1000
0100
,
1000
0000
0001
0000
,
0010
0001
0100
0010
,
1000
0001
1000
0100
,
0010
0000
0011
0000
,
0001
0100
0010
1000
,
0100
0000
0000
0100
0000
0000
0100
0000
,
0000
0100
0000
0000
0100
0000
0000
0000
,
1100
0000
1000
0010
,
0001
0000
0100
0001
,
0010
0000
1000
0001
,
0100
0000
0010
0100
,
1000
0000
0001
1000
,
0010
0000
1000
0100
,
0010
0000
0001
0100
,
0001
0010
0100
1000
,
0002
0000
0000
0000
,
0000
0000
0000
0003
,
0010
0000
0100
0000
0000
1000
0000
0000
,
0001
0100
0001
0010
,
0100
0000
1000
0000
0000
0001
0000
0000
,
1000
0010
1000
0001
,
0100
0000
0010
0000
0000
0100
0000
0000
,
0001
0010
0100
1000
,
0010
0000
0000
0010
0000
0000
1000
0000
,
0200
0000
0000
0300
,
1000
0000
0001
0000
0000
0001
0000
0000
,
0100
0010
1000
0001
,
0010
0000
0100
0000
0000
0100
0000
0000
,
1000
0010
1000
0001
,
0100
0000
0010
0000
0000
1000
0000
0000
,
0001
0010
0001
0100
,
0010
0000
0000
0010
0000
0000
1000
0000
,
0002
0000
0000
0003
,
0010
0000
0000
0001
0000
0000
0200
0000
,
0000
0000
0000
0310
,
1000
0000
0000
0100
0000
0000
2000
0000
,
0000
0000
0000
3001
,
1000
0000
0000
0001
0000
0000
0020
0000
,
0000
0000
0000
0130
,
0010
0000
0000
0001
0000
0000
1000
0000
,
1000
0000
0000
0001
0000
0000
0100
0000
,
0010
0000
0000
1000
0000
0000
0100
0000
,
0000
1000
0010
0001
,
0100
0000
0000
0010
0000
0000
2000
0000
,
0000
3002
0000
0000
,
0013
0000
0001
0000
,
0100
0000
1000
0000
,
0010
0100
0010
1000
,
0002
0000
0200
0303
,
0000
0001
0010
0100
,
0000
1000
0000
0010
,
1000
0000
0000
1000
0000
0000
1000
0000
,
0002
0000
0000
0000
,
0003
0010
0001
0100
,
0000
0010
0000
1000
,
0100
0000
0000
0010
0000
0000
0200
0000
,
0000
0300
1000
0001
,
1000
0000
0000
0010
0000
0000
1000
0000
,
0000
0001
0010
0100
,
0010
0000
0000
0001
0000
0000
1000
0000
,
0002
0000
0000
0000
,
0003
0001
1000
0010
,
0000
1000
0000
0100
,
0100
0000
0000
1000
0000
0000
0020
0000
,
0000
0000
0000
0030
,
1000
0100
1000
0001
,
0000
0010
0000
0001
,
0100
0000
0000
0100
0000
0000
0100
0000
,
0020
0000
0000
0030
,
0001
0010
0100
1000
,
0000
0001
0000
1000
,
0010
0000
0000
0010
0000
0000
2000
0000
,
0000
0000
3001
0100
,
0001
0000
0000
0010
0000
0000
0100
0000
,
0000
1000
1000
0001
,
1000
0000
0000
0010
0000
0000
1000
0000
,
0002
0000
0000
0003
,
0010
0001
0100
0010
,
0000
1000
0000
1000
,
0100
0000
0000
0010
0000
0000
0002
0000
,
0000
0000
0000
0003
,
0202
0000
0300
1000
,
1003
0001
0000
0010
,
0200
0000
0000
0300
,
1000
0010
0001
0100
,
2000
0000
0001
0000
,
0010
0000
0001
0000
,
3020
0000
0001
0000
,
1000
0000
0001
0000
,
0130
0000
0010
1000
,
0002
0000
0000
0003
,
0010
0001
0010
0100
,
1000
0001
1000
0010
,
0100
0001
0000
0010
,
0000
0001
0000
1000
,
0010
0000
1000
0200
,
0000
0310
0000
0001
,
1000
0000
0001
0200
,
0000
0000
0000
0300
,
0010
0000
0000
0010
0000
0000
0010
0000
,
1000
0000
0000
1000
0000
0000
1000
0000
,
0001
0000
0000
0001
0000
0000
0001
0000
,
0100
0000
0000
0100
0000
0000
0100
0000
,
0110
0000
0000
1001
0000
0000
0110
0000
,
0000
0001
0010
0100
,
1000
0001
2000
0000
,
0000
0000
0000
3000
,
0010
0000
1010
0000
0000
0101
0000
0000
,
1000
0001
0010
0100
,
2000
0000
0000
0000
,
3000
0000
0000
0000
;

//---------------dance-single - ----------------
#NOTEDATA:;
#CHARTNAME:;
#STEPSTYPE:dance-single;
#DESCRIPTION:;
#CHARTSTYLE:;
#DIFFICULTY:Beginner;
#METER:5;
#RADARVALUES:0.196800,0.268109,0.034876,0.034876,0.000000,158.000000,154.000000,4.000000,4.000000,0.000000,0.000000,0.000000,0.000000,0.000000,0.196800,0.268109,0.034876,0.034876,0.000000,158.000000,154.000000,4.000000,4.000000,0.000000,0.000000,0.000000,0.000000,0.000000;
#CREDIT:;
#DISPLAYBPM:260.000000;
#NOTES:
// measure 0
0000
0000
0000
0000
,  // measure 1
0000
0000
0000
0000
,  // measure 2
0000
0000
0000
0000
,  // measure 3
0000
0000
0000
0000
,  // measure 4
1000
0000
0000
0000
,  // measure 5
0000
0000
0000
0000
,  // measure 6
0001
0000
0000
0000
,  // measure 7
0000
0000
0000
0000
,  // measure 8
0110
0000
0000
0000
,  // measure 9
0000
0000
0000
0000
,  // measure 10
0001
0000
0000
0000
,  // measure 11
1000
0000
0000
0000
,  // measure 12
0001
0000
0100
0000
,  // measure 13
0001
0000
0100
0000
,  // measure 14
0010
0000
1000
0000
,  // measure 15
0100
0000
1000
0000
,  // measure 16
0000
0000
1001
0000
,  // measure 17
0010
0000
1000
0000
,  // measure 18
0100
0000
0000
0000
,  // measure 19
0010
0000
0000
0000
,  // measure 20
0001
0000
0000
0000
,  // measure 21
1000
0000
0000
0000
,  // measure 22
0001
0000
0000
0000
,  // measure 23
0100
0000
0000
0000
,  // measure 24
0010
0000
0000
0000
,  // measure 25
1000
0000
0000
0000
,  // measure 26
0100
0000
0000
0000
,  // measure 27
0010
0000
0001
0000
,  // measure 28
1000
0000
0000
0000
,  // measure 29
0000
0000
0000
0000
,  // measure 30
0001
0000
0001
0000
,  // measure 31
1000
0000
0000
0000
,  // measure 32
0010
0000
0010
0000
,  // measure 33
0100
0000
0000
0000
,  // measure 34
0010
0000
1000
0000
,  // measure 35
1000
0000
0000
0000
,  // measure 36
0001
0000
0000
0000
,  // measure 37
0100
0000
0000
0000
,  // measure 38
0010
0000
0010
0000
,  // measure 39
1000
0000
0001
0000
,  // measure 40
0010
0000
0010
0000
,  // measure 41
0100
0000
1000
0000
,  // measure 42
0001
0000
0001
0000
,  // measure 43
0100
0000
0001
0000
,  // measure 44
1000
0000
0000
0000
,  // measure 45
0100
0000
0000
0000
,  // measure 46
0010
0000
0010
0000
,  // measure 47
0000
0000
0000
0000
,  // measure 48
0001
0000
0001
0000
,  // measure 49
0000
0000
0000
0000
,  // measure 50
1000
0000
1000
0000
,  // measure 51
0000
0000
0000
0000
,  // measure 52
0100
0000
0100
0000
,  // measure 53
1000
0000
1000
0000
,  // measure 54
0001
0000
0000
0000
,  // measure 55
1000
0000
0000
0000
,  // measure 56
0010
0000
0010
0000
,  // measure 57
0100
0000
0000
0000
,  // measure 58
0110
0000
0000
0000
,  // measure 59
1001
0000
0000
0000
,  // measure 60
1000
0000
0001
0000
,  // measure 61
1000
0000
0000
0000
,  // measure 62
0010
0000
0000
0000
,  // measure 63
0100
0000
0000
0000
,  // measure 64
0001
0000
0010
0000
,  // measure 65
1000
0000
0000
0000
,  // measure 66
0100
0000
0000
0000
,  // measure 67
0010
0000
0000
0000
,  // measure 68
0001
0000
0100
0000
,  // measure 69
1000
0000
0000
0000
,  // measure 70
0001
0000
0000
0000
,  // measure 71
1000
0000
0000
0000
,  // measure 72
0010
0000
1000
0000
,  // measure 73
0100
0000
0000
0000
,  // measure 74
1000
0000
0000
0000
,  // measure 75
0001
0000
0000
0000
,  // measure 76
0010
0000
0001
0000
,  // measure 77
0100
0000
0000
0000
,  // measure 78
0001
0000
0010
0000
,  // measure 79
0001
0000
0100
0000
,  // measure 80
0010
0000
1000
0000
,  // measure 81
1000
0000
0000
0000
,  // measure 82
0100
0000
1000
0000
,  // measure 83
0010
0000
0100
0000
,  // measure 84
0001
0000
0001
0000
,  // measure 85
1000
0000
0000
0000
,  // measure 86
0010
0000
1000
0000
,  // measure 87
0100
0000
0010
0000
,  // measure 88
0001
0000
0100
0000
,  // measure 89
0100
0000
0000
0000
,  // measure 90
0001
0000
0010
0000
,  // measure 91
0001
0000
0100
0000
,  // measure 92
0010
0000
1000
0000
,  // measure 93
0100
0000
0000
0000
,  // measure 94
1000
0000
0000
0000
,  // measure 95
0010
0000
0000
0000
,  // measure 96
0100
0000
0000
0000
,  // measure 97
0001
0000
1000
0000
,  // measure 98
0002
0000
0000
0000
,  // measure 99
0000
0000
0003
0000
,  // measure 100
2000
0000
0000
0000
,  // measure 101
0000
0000
3000
0000
,  // measure 102
0010
0000
1000
0000
,  // measure 103
0001
0000
0000
0000
,  // measure 104
0100
0000
0100
0000
,  // measure 105
0010
0000
0100
0000
,  // measure 106
0001
0000
0000
0000
,  // measure 107
1000
0000
0000
0000
,  // measure 108
0010
0000
1000
0000
,  // measure 109
0000
0000
0000
0000
,  // measure 110
0100
0000
0010
0000
,  // measure 111
0000
0000
0000
0000
,  // measure 112
0001
0000
0000
0000
,  // measure 113
0001
0000
0000
0000
,  // measure 114
1000
0000
0000
0000
,  // measure 115
1000
0000
0000
0000
,  // measure 116
0010
0000
0100
0000
,  // measure 117
0000
0000
0001
0000
,  // measure 118
1000
0000
0002
0000
,  // measure 119
0000
0000
0003
0000
,  // measure 120
0100
0000
0000
0000
,  // measure 121
0010
0000
0010
0000
,  // measure 122
2000
0000
0000
0000
,  // measure 123
3000
0000
0000
0000
;
