#TITLE:SO FABULOUS SO FIERCE (FREAK OUT);
#ARTIST:THUNDERPUSS feat. JOCELYN ENRIQUEZ;
#BANNER:SO FABULOUS SO FIERCE (FREAK OUT).png;
#BACKGROUND:SO FABULOUS SO FIERCE (FREAK OUT)-bg.png;
#JACKET:SO FABULOUS SO FIERCE (FREAK OUT)-jacket.png;
#MUSIC:SO FABULOUS SO FIERCE (FREAK OUT).ogg;
#SAMPLESTART:33.51;
#SAMPLELENGTH:20;
#DISPLAYBPM:128;
#BPMS:0=127.095,4=128.002;
#STOPS:136=0.469,136.5=0.469,137=0.469,137.5=0.469,140=0.469,140.5=0.469,141=0.469,141.5=0.469;
#BGCHANGES:0=SO FABULOUS SO FIERCE (FREAK OUT).mp4=1=0=0=0,
;

//---------------dance-single - ----------------
#NOTES:
     dance-single:
     :
     Beginner:
     2:
     :
0000
0000
0000
0000
,
0000
0000
0000
0000
,
0000
0000
0000
0000
,
0001
0000
1000
0000
,
1001
0000
0000
0000
,
0010
0000
0100
0000
,
0001
0000
0001
0000
,
0001
0000
0000
0000
,
1000
0000
1000
0000
,
1000
0000
0000
0000
,
0100
0000
0100
0000
,
0100
0000
0000
0000
,
0010
0000
0010
0000
,
0010
0000
0000
0000
,
0001
0000
0100
0000
,
0001
0000
0000
0000
,
1000
0000
0100
0000
,
1000
0000
0001
0000
,
1001
0000
0000
0000
,
0010
0000
0100
0000
,
0110
0000
0001
0000
,
0000
0000
1000
0000
,
1001
0000
1000
0000
,
0000
0000
0100
0000
,
0110
0000
0000
0000
,
0001
0000
0001
0000
,
1000
0000
0001
0000
,
1000
1000
0000
0000
,
0010
0000
0100
0000
,
0010
0010
0000
0000
,
1000
0000
0100
0000
,
1000
0000
0001
0000
,
0100
0000
0010
0000
,
0100
0000
0001
0000
,
1001
0000
1000
0000
,
1001
0000
0001
0000
,
0100
0000
0000
0000
,
0010
0000
0100
0000
,
1001
0000
0100
0000
,
0000
0000
0001
0000
,
0110
0000
1000
0000
,
0000
0000
0100
0000
,
0110
0000
0100
0000
,
0000
0000
1000
0000
,
1001
0000
0001
0000
,
0000
0000
1001
0000
;

//---------------dance-single - ----------------
#NOTES:
     dance-single:
     :
     Easy:
     5:
     :
0000
0000
0000
0000
,
0000
0000
0000
0000
,
0000
0000
0000
0000
,
0000
0000
0000
0000
,
0000
0000
0000
0000
,
0000
0000
0000
0000
,
0001
0000
0000
0000
,
1000
0000
0000
0000
,
0010
0000
0000
0000
,
0100
0000
0000
0000
,
0001
0000
0000
0000
,
0010
0000
0000
0000
,
1000
0000
0000
0000
,
0100
0000
0100
0000
,
1001
0000
0100
0000
,
0100
0000
0001
0000
,
1000
0000
0001
0000
,
0010
0010
0100
0000
,
1001
0000
1000
0000
,
0001
0000
1000
0100
,
0010
0000
0010
0000
,
0001
0000
0001
0100
,
0010
0000
0100
0000
,
0010
0000
0100
0100
,
1001
0000
0100
0100
,
1001
0000
0100
0100
,
1001
0000
1000
0000
,
0001
0000
1000
1000
,
1000
0000
0001
0000
,
1000
0000
0001
0001
,
0010
0000
0010
0000
,
0100
0000
0100
0000
,
1000
0000
1000
0000
,
0001
0000
0001
0000
,
1001
0100
0010
1000
0001
0000
0100
0000
,
0100
0001
1000
0100
0100
0000
0100
0000
,
0000
0000
0000
0000
,
0010
0000
0100
1001
,
0010
0000
0010
0000
,
0000
0001
0100
1000
,
0100
0000
0100
0000
,
0000
1000
0100
0001
,
0100
0000
0010
0000
,
0000
0000
0100
0100
,
0020
0000
0100
0130
,
0000
0000
0010
0000
;

//---------------dance-single - ----------------
#NOTES:
     dance-single:
     :
     Medium:
     7:
     :
0000
0000
0000
0000
,
0000
0000
0000
0000
,
0000
0000
0000
0000
,
0010
0000
0010
0000
,
1001
0000
0010
0000
,
0001
1000
0110
1001
,
0010
0000
0010
0000
,
0001
0100
1000
0100
,
0001
0000
1000
0000
,
0100
0100
1000
0001
,
0100
0000
0100
0000
,
1000
0000
0001
0000
,
1000
1000
0001
0001
,
0110
1100
1001
0100
,
1000
0000
0000
0000
0001
0000
0001
1000
,
0001
0000
0000
0000
1000
0000
1000
0001
,
0010
0010
0100
0100
,
0000
0001
0000
1000
0000
0010
0100
0000
,
1001
0000
0100
0000
0010
0001
0100
0000
,
0010
1000
0100
0000
0010
0001
1000
0000
,
1001
0000
0010
0000
0001
1000
0100
0000
,
0010
0100
0010
0000
1000
0001
1000
0000
,
0010
0000
0100
0000
,
0100
0000
0010
1000
0001
0000
0110
0000
,
1001
0010
0000
0100
,
0000
0000
0110
1001
,
1000
0001
0000
0000
0100
1000
0000
0000
,
0010
0100
0000
0000
0001
0001
1000
0000
,
0001
1000
0000
0000
0010
0001
0000
0000
,
1000
0001
0000
0000
0100
0100
0100
0000
,
0010
0001
0100
0000
1000
0001
1000
0000
,
0010
1000
0100
0000
0001
1000
0001
0000
,
0100
0100
0100
0100
,
0010
0100
0010
0000
0001
1000
0001
0000
,
1000
0100
0001
0010
1000
0000
0001
0000
,
0100
1000
0010
0001
0001
0000
1000
0000
,
0220
0000
0000
0330
,
1000
0001
2000
0000
0100
0000
3010
0000
,
0100
0001
1000
0000
0100
1000
0001
0000
,
0010
0000
0010
0000
1000
0001
0100
0000
,
0010
0010
0100
0100
,
1000
0100
0001
0000
0001
0100
1000
0000
,
0001
0100
1000
0100
,
1000
1000
0001
0001
,
0010
0000
0100
0100
,
0000
0000
0000
0010
1000
0001
0000
0000
;

//---------------dance-single - ----------------
#NOTES:
     dance-single:
     :
     Hard:
     11:
     :
0000
0000
0000
0000
,
0000
0000
0000
0000
,
0000
0000
0000
0000
,
0000
0000
0000
0000
0000
0000
0000
1000
,
0001
0000
0000
0001
1000
0000
0000
0010
,
0100
0000
0010
0000
0100
0100
0100
0000
,
0000
0010
1000
0100
0000
0010
0001
0100
,
0000
1000
0001
1000
0000
0010
0100
0010
,
0000
0001
1000
0001
0000
0100
0010
0100
,
0000
1001
0000
0110
0000
1001
0000
0010
,
0001
0010
0000
1000
0100
1000
0000
0100
,
0001
0100
0010
1000
0010
1000
0001
0100
,
0000
0010
1000
0100
0000
0010
0001
0100
,
0010
1000
0100
0010
0001
0100
0100
0000
,
1002
0000
0100
0000
0000
0100
0103
0000
,
2001
0000
0100
0000
0000
0100
3100
0000
,
1001
0000
0100
0000
0000
0001
1000
0001
,
0000
1100
0000
0011
0000
1001
0100
0010
,
1001
0000
0100
0001
0100
0010
1000
0100
,
1000
0000
1000
0001
0100
0010
1000
0100
,
0011
0000
1100
0000
0010
1000
0001
0100
,
0010
0000
0001
0100
0010
1000
0001
1000
,
0101
0000
1010
0000
0100
0100
0100
0000
,
0001
0000
0001
1000
0010
0100
0001
1000
,
1010
0000
0101
0000
,
0010
1000
0010
1000
0001
0000
0100
0000
0001
0000
0100
0000
1000
0000
0000
0000
,
0110
0001
0110
1000
,
0110
0000
0001
0000
1000
0001
1000
0000
,
0010
0000
0000
1000
0001
0000
0100
0000
0010
0000
0000
1000
0010
0000
0100
0000
,
0100
0000
0000
0001
1000
0000
0100
0000
0010
0000
0001
0000
1000
0000
0000
0000
,
0001
0000
0000
1000
0100
0000
0010
0000
0100
0000
1000
0000
0001
0000
0100
0000
,
0001
0000
0000
1000
0001
0000
0010
0000
0001
0000
0100
0000
0010
0000
1000
0000
,
0001
0010
0001
1000
0100
0010
0001
1000
,
0001
0100
0010
1000
0001
0100
0001
0001
,
0001
1000
0110
1001
0001
0100
1000
0000
,
0010
0000
0001
0000
1000
0000
0001
0000
0100
0000
0000
0010
0100
0000
0000
0000
,
2002
0000
0000
3003
,
1000
0000
1000
0000
0010
0100
0010
0100
0010
0000
0000
0000
1001
0000
0001
0000
,
1000
0000
0110
0001
1000
0100
0001
0000
,
0010
0001
0100
0000
0001
0000
0100
0000
0010
0000
1000
0000
0100
0000
1000
0000
,
0001
0000
0110
1000
0001
0100
1000
0000
,
0010
1000
0100
0000
1000
0000
0100
0000
0010
0000
0001
0000
0100
0000
0001
0000
,
1000
0011
1100
1010
,
0101
0000
1010
0000
0101
0100
1000
0000
,
0010
0000
0000
0000
0001
0000
0000
0000
1000
0000
0100
1000
0100
0000
0001
0000
,
0000
0000
0000
0110
0001
1000
0000
0000
;

//---------------dance-single - ----------------
#NOTES:
     dance-single:
     :
     Challenge:
     15:
     :
0000
0000
0000
0000
,
0000
0000
0000
0000
,
0000
0000
0000
0000
,
0010
1000
0010
1000
0010
0000
0100
0002
0000
0000
1000
0000
1003
0001
0100
0000
,
1001
0000
0000
0000
0010
0000
1000
0100
2000
0000
0001
0000
3001
0100
0010
0000
,
1000
0100
1000
0100
1000
0000
0001
0000
2200
0000
0000
0000
3300
0000
0001
0000
,
0100
0010
0100
1000
0100
0001
0010
0100
,
0001
0000
0100
0000
1000
0000
0010
0000
0100
0001
0100
0000
0010
0000
1000
0000
,
0100
1000
0010
0100
1000
0100
0001
0010
,
0001
0000
0100
0000
1000
0000
0100
0000
0010
1000
0010
0000
0100
0000
1001
0000
,
1001
0010
1000
0100
0001
0100
1000
0001
,
0010
0000
1000
0000
0010
0000
0100
0000
0010
0001
0010
0000
0100
0000
1000
0000
,
0001
0100
0010
0100
1000
0100
0001
1000
,
0001
0000
0010
0000
1000
0000
0010
0000
0001
1000
0001
0000
0100
0000
0110
0000
,
0110
1000
0100
0010
1000
0010
0001
0100
,
0010
0000
0001
0000
0010
0000
1000
0000
0100
0000
0010
0001
0010
0000
0100
0000
,
1000
0010
0100
1000
0100
0001
0010
0011
,
0000
1100
0000
1010
0001
1010
0100
0110
,
1001
0000
0010
1000
0100
0000
0010
0000
0001
0000
0100
0010
0000
1000
0001
0000
,
0100
0001
0010
0001
0100
0000
0010
0000
1000
0000
0100
0000
1000
0001
0100
0000
,
1001
0000
0010
0001
0100
0000
0010
0000
1000
0000
0100
0010
0000
0001
1000
0000
,
0100
1000
0001
1000
0100
0000
0010
0000
0001
0000
1000
0000
0010
0100
0001
0000
,
0011
0000
0100
1000
0001
0000
0100
0000
0010
0000
1000
0001
0000
0100
0010
0000
,
1000
0100
0010
0100
1000
0000
0001
0000
0100
0000
0010
0000
1000
0001
0100
0000
,
1010
0000
0100
1000
0001
0000
0100
0010
2000
0000
0001
0000
3001
0010
0100
0000
,
1100
0001
0101
0100
1010
0010
0110
0000
,
0001
0000
0100
0000
1000
0000
0010
0100
0010
1000
0010
0100
0001
0000
0010
0001
,
2000
3010
2000
3001
0100
0010
0100
0001
,
1000
0000
0100
0000
0001
0000
0010
0100
1000
0000
0001
0000
1000
0010
0100
0001
,
0020
1030
0020
0130
1000
0001
0100
0001
,
0010
0001
1000
0000
0010
0000
0100
0001
1000
0010
0100
0010
1000
0010
0100
0001
,
0010
0000
0100
0000
1000
0000
0001
0000
0101
0000
0100
0010
0000
0010
1000
0000
,
0100
0000
1000
0000
0001
0010
0100
0010
0001
0000
1000
0001
0100
0010
1000
0010
,
0100
0001
0001
1000
1000
0010
0010
0100
,
0202
0303
2200
3300
2020
3030
0202
0303
2002
0000
3003
0000
0220
0000
0330
0000
,
2020
3030
2200
3300
0022
0033
0202
0303
0110
0000
1000
0100
0001
0000
0000
0000
,
0022
0000
0000
0030
,
1000
0000
1000
0000
1003
0001
1000
0001
0100
0010
1000
0010
0100
0000
0110
0000
,
1001
0000
0010
1000
0100
0000
0010
0000
0001
0000
0100
0010
0000
1000
0001
0000
,
0010
0001
0100
0001
1000
0000
0010
0100
0002
0000
1000
0000
1003
0001
0100
0000
,
0010
1000
0100
1000
0001
0000
0010
0001
0200
0000
0010
0000
0310
1000
0001
0000
,
1000
0100
0010
0001
0100
0000
0010
1000
0001
0000
0010
0000
0001
1000
0100
0000
,
1000
0001
0100
0010
0100
0000
0001
1000
0010
0000
0100
0000
0010
1000
0001
0000
,
0010
0100
1000
0100
0010
0000
0001
0100
0002
0000
1000
0000
1003
0100
0010
0000
,
0011
0000
0100
1000
0001
0000
0100
0010
1000
0000
0001
0010
0000
0001
0100
0000
,
0010
0010
0010
1010
0101
1100
0000
0000
;

//---------------dance-double - ----------------
#NOTES:
     dance-double:
     :
     Easy:
     5:
     :
00000000
00000000
00000000
00000000
,
00000000
00000000
00000000
00000000
,
00000000
00000000
00000000
00000000
,
00000000
00000000
00000000
00000000
,
00000000
00000000
00000000
00000000
,
00001000
00000001
00000100
00001001
,
00000000
00000100
00000000
00000001
,
00000000
00001000
00000000
00010000
,
00000000
01000000
00000000
10000000
,
00100000
00010000
10000000
01000000
,
00000000
01000000
00000000
00010000
,
00000000
00001000
00000000
00000010
,
00000000
00000001
00000000
00001000
,
00000010
00000100
00000010
00001001
,
00000000
00000100
00000000
00001000
,
00000000
00010000
00000000
10000000
,
00000000
00010000
00000000
10000000
,
00100000
00100000
01000000
01000000
,
10010000
01000000
00000000
01000000
,
00010000
00001000
00000100
00000010
,
00001001
00000010
00000001
00000100
,
00001000
00010000
01000000
00100000
,
10010000
01000000
00000000
01000000
,
00000000
00010000
00000000
00001000
,
00000010
00000000
00000010
00000000
,
00001000
00000001
00000110
00001001
,
00000010
00000000
00001000
00000000
,
00010000
00000000
01000000
01000000
,
10000000
00000000
00100000
00000000
,
00010000
00000000
00001000
00000100
,
00000001
00000001
00001000
00001000
,
00000010
00000010
00000100
00000100
,
00001000
00010000
00100000
10000000
,
01000000
01000000
01000000
01000000
,
00010000
00001000
00000100
00000001
00000100
00000000
00001000
00000000
,
00010000
01000000
01000000
10000000
01000000
00000000
00010000
00000000
,
00002000
00000000
00000000
00003000
,
00010000
00010000
00001000
00001000
,
00000010
00000001
00000100
00001000
,
00000000
00010000
00000000
00010000
,
00100000
00010000
01000000
10000000
,
00000000
01000000
00000000
01000000
,
10000000
00000000
00010000
00000000
,
10000000
01000000
00010000
00001000
,
00000010
00000000
00000010
00000000
,
00000000
00000110
00001001
00000000
;

//---------------dance-double - ----------------
#NOTES:
     dance-double:
     :
     Medium:
     8:
     :
00000000
00000000
00000000
00000000
,
00000000
00000000
00000000
00000000
,
00000000
00000000
00000000
00000000
,
00000000
00000000
00100000
00000000
00000000
00000000
00100000
00010000
,
00001000
00000001
00000000
00001000
,
00000110
00001002
00000100
00000013
,
00000100
00000001
00000010
00001000
,
00010000
00000000
01000000
00010000
10000000
00000000
00100000
00000000
,
00010000
10000000
00010000
10000000
,
01100000
00000000
10010000
00000000
01100000
00000000
00000000
00010000
,
00001000
00000100
00000010
00000001
,
00000100
00001000
00010000
01000000
,
10000000
00010000
10000000
00000000
00010000
10000000
00010000
00000000
,
01100000
20010000
01000000
30100000
,
00010000
00000000
00001000
00000000
00000001
00000000
00000100
00000010
,
00000100
00000001
00000100
00000000
00001000
00000000
00010000
00000000
,
01100000
00000000
10000000
00000000
00010000
00000000
10000000
02000000
,
00000000
00010000
00000000
00010000
00000000
00010000
00000000
03010000
,
11000000
00000000
00100000
00000000
00010000
00001000
00000100
00000000
,
00000001
00000000
00000010
00000000
00000001
00000100
00001000
00000000
,
01100000
20010000
01000000
00100000
,
31000000
00000000
00000000
00000000
00110000
00000000
11000000
10000000
,
00010000
00000000
00001000
00000010
,
00000001
00000000
00001000
00000000
00000010
00000001
00000100
00001000
,
00010000
00000000
00010000
10000000
,
00110000
00021000
00000100
00030010
,
00001000
00000001
00000000
00000100
00000001
00001000
00000000
00010000
,
01000000
00010000
00000000
01000000
00100000
10000000
01000000
10000000
,
00010000
00001000
00000000
00001000
00000100
00000010
00000000
00000001
,
00001000
00010000
00010000
00001000
00000100
00000001
00000100
00000001
,
00001000
00000000
00001000
00000000
00010000
00010000
00010000
00000000
,
00010000
00000000
00010000
00000000
01000000
01000000
01000000
00000000
,
00110000
11000000
01010000
00011000
,
00000010
00000001
00000100
00001000
,
10010000
01100000
00011000
00000110
00001001
00000000
00011000
00000000
,
01100000
11000000
00110000
01010000
00011000
00000000
00000110
00000000
,
00002002
00000000
00000000
00003000
,
00001000
00000000
00001000
00000000
00000100
00000100
00000103
00000001
,
00001000
00000110
00000001
00001000
,
00010000
01000000
10000000
00000000
00010000
00100000
01000000
00100000
,
00010000
00000000
00100000
01000000
,
00010000
00010000
00001000
00001000
00000100
00000001
00000010
00000100
,
00001000
00000000
00010000
00000000
10000000
00010000
01000000
00000000
,
00010000
00001000
00000100
00000001
,
00000110
00001001
00000100
00002000
,
00000000
00000000
00000000
00010000
00010000
00013000
00000000
00000000
;

//---------------dance-double - ----------------
#NOTES:
     dance-double:
     :
     Hard:
     11:
     :
00000000
00000000
00000000
00000000
,
00000000
00000000
00000000
00000000
,
00000000
00000000
00000000
00000000
,
00000010
00000000
00000001
00000000
00000001
00000100
00001000
00010000
,
00001000
00000000
00000000
00001000
00000000
00010000
00000000
10000000
,
01100000
00000000
20010000
00000000
01000000
01000000
31000000
00000000
,
00110000
01000000
11000000
00000000
00100000
00010000
01000000
00000000
,
10100000
01000000
01010000
00000000
10000000
01000000
00010000
00000000
,
00010000
00001000
00000000
00000100
00000000
00000001
00000000
00000100
,
00000010
00001000
00000000
00000010
00000100
00000000
00000100
00000000
,
00000010
00000000
00000100
00000000
00000001
00000100
00001000
00000000
,
00110000
00000000
11000000
00000000
00100000
01000000
01000000
00000000
,
10010000
01100000
00011000
00000110
,
00001000
00000000
00000100
00000000
00001001
00000100
00000010
00000000
,
00000100
00000001
00001000
00000000
00010000
00000000
01000000
00010000
,
10000000
00000000
01000000
00010000
00001000
00000000
00000110
00000001
,
00001000
00000000
00010000
00000000
00010000
10000000
01000000
00100000
,
01000000
20000000
00000000
01000000
00000000
01000000
00000000
31000000
,
00110000
00000000
11000000
00000000
00100000
00010000
00001000
00000000
,
00000100
00000010
00000100
00000010
00001000
00000000
00000001
00000000
00000100
00000000
00000010
00000000
00000100
00000000
00000010
00000000
,
00001001
00000000
00000010
00000000
00001000
00010000
01000000
00100000
,
00100000
01000000
00100000
01000000
00010000
00000000
10000000
00000000
01000000
00000000
00100000
00000000
00010000
00000000
00000000
00000000
,
10020000
00000000
00100000
01030000
,
00010000
01000000
00010000
01000000
00100000
00000000
10000000
00000000
01000000
00000000
00010000
00000000
00001000
00000000
00010000
00000000
,
00001000
00002001
00000010
00003100
,
00000010
00000001
00000010
00000001
00000100
00000000
00000010
00000000
00000100
00000000
00001000
00000000
00010000
00000000
01000000
00000000
,
20000000
01000000
00000000
01000000
01000000
00000000
31000000
00000000
,
00120000
00100000
00000000
00100000
00100000
00000000
00130000
00000000
,
10000000
01000000
00000000
00010000
00001000
00000100
00000000
00000001
,
00000100
00001000
00000000
00010000
10000000
00100000
01000000
00020000
,
01000000
01000000
01000000
00000000
01000000
00000000
00030000
00000000
,
00012000
00010000
00010000
00000000
00010000
00000000
00013000
00000000
,
00000100
00000001
00000010
00000001
,
00000010
00001000
00000001
00001000
00000001
00001000
00000100
00000000
,
00010000
01000000
00100000
11000000
00010000
00000000
00010100
00000000
,
00001001
00000010
00001000
00000101
00001000
00000000
10010000
00000000
,
00002000
00000000
00000000
00003000
,
00010000
00000000
10000000
00000000
00010000
01000000
02000000
00000000
00010000
00000000
00000000
00000000
03100000
00000000
00000000
00000000
,
10010000
00000000
01100000
00000000
10000000
01000000
00010000
00001000
,
00010000
00001000
00010000
00001000
00010000
00000000
00001000
00000000
00000100
00000000
00000001
00000000
00000100
00000000
00000010
00000000
,
00001001
00000000
00000110
00000000
00000001
00000100
00001000
00010000
,
00001000
00010000
00001000
00010000
01000000
00000000
10000000
00000000
01000000
00000000
00100000
00000000
01000000
00000000
00100000
00000000
,
01010000
00001000
00000010
00000100
,
00001000
00010000
00001000
00010000
00001000
00000000
00100000
00000000
01000000
00000000
00000000
00000000
20000000
00000000
00000000
00000000
,
00200000
00300000
02000000
00000000
,
33000000
00000000
00000000
00100000
00010000
00001000
00000000
00000000
;
