#TITLE:SIZE OF A COW;
#ARTIST:THE WONDERSTUFF;
#BANNER:SIZE OF A COW.png;
#BACKGROUND:SIZE OF A COW-bg.png;
#JACKET:SIZE OF A COW-jacket.png;
#MUSIC:SIZE OF A COW.ogg;
#SAMPLESTART:43.36;
#SAMPLELENGTH:20;
#DISPLAYBPM:135:151;
#BPMS:0=151.26,12=149.28,40=146.34,44=149.37,76=149.22,108=149.37,124=148.76,156=149.22,188=148.76,192=149.48,221=148.45,237=145.16,238=150,244=148.45,260=150,264=142.4,266.5=135;
#BGCHANGES:;

//---------------dance-single - ----------------
#NOTES:
     dance-single:
     :
     Beginner:
     4:
     :
0000
0000
0000
0000
,
0000
0000
0000
0000
,
1000
1000
1000
0000
,
0001
0000
0100
0000
,
0001
0000
0100
0000
,
0010
0000
1000
0000
,
0010
0000
1000
0000
,
0100
0000
0010
0000
,
0100
0000
1000
0000
,
0001
0000
0100
0000
,
0010
0010
0010
0000
,
1000
0000
1000
0000
,
0001
0000
0001
0000
,
0000
0100
0100
0000
,
1001
0000
0110
0000
,
0010
0000
0010
0000
,
1000
0000
1000
0000
,
0100
0100
0100
0000
,
0110
0000
1001
0000
,
0010
0000
1000
0000
,
0001
0000
0100
0000
,
0020
0000
0030
0000
,
0020
0000
0030
0000
,
1000
1000
1000
0000
,
0100
0000
0010
0000
,
0110
0000
1001
0000
,
0010
0010
0010
0000
,
1000
0000
0001
0000
,
0100
0100
0000
0000
,
0010
0010
0010
0000
,
1000
0000
0001
0000
,
1000
0000
0100
0000
,
0010
0010
0000
0000
,
0001
0000
1000
0000
,
0001
0001
0001
0000
,
0100
0000
0110
0000
,
1001
0000
0110
0000
,
1001
0000
0000
0000
,
1000
1000
1000
0000
,
0002
0000
0003
0000
,
2000
0000
3000
0000
,
0020
0000
0030
0000
,
0200
0000
0300
0000
,
0001
0000
0001
0000
,
1000
0000
1000
0000
,
0100
0000
0100
0000
,
0010
0000
0010
0000
,
0001
0000
0100
0000
,
0010
0000
1000
0000
,
0200
0000
0300
0000
,
0200
0000
0300
0000
,
1000
1000
1000
0000
,
0001
0000
0100
0000
,
1001
0000
0110
0000
,
0100
0100
0100
0000
,
0001
0000
0010
0000
,
1000
1000
0000
0000
,
0010
0010
0010
0000
,
0100
0000
0001
0000
,
0000
1000
1000
0000
,
0001
0001
0000
0000
,
1000
0000
0001
0000
,
0100
0100
0100
0000
,
0010
0000
0110
0000
,
1001
0000
0110
0000
,
1001
0000
0000
0000
,
1000
1000
1000
0000
,
0001
0000
0000
0000
;

//---------------dance-single - ----------------
#NOTES:
     dance-single:
     :
     Easy:
     7:
     :
0000
0000
0000
0000
,
0000
0000
0000
0000
,
1000
0001
1000
0010
,
1001
1000
0100
0000
,
0001
0000
0100
0000
,
0010
0000
1000
0000
,
0001
0001
1000
0001
,
0010
0100
1000
0000
,
0001
0000
1000
0000
,
0010
0000
0100
0000
,
0101
1100
0101
0000
,
0010
0010
1000
0001
,
1000
0100
1000
0001
,
0100
0010
1000
0001
,
2000
0000
0200
3300
,
1000
0001
0010
0110
,
1001
0100
0010
1000
,
0001
0010
0001
1000
,
0020
0000
0200
0330
,
0100
0001
1000
0100
,
0110
0010
0001
1000
,
0020
0000
0200
0330
,
0002
0000
2000
3003
,
1001
0011
1001
0100
,
0010
0010
1000
0001
,
1100
0000
0101
0000
,
1001
1001
0110
1001
,
0010
0101
2200
0300
,
0001
3100
1000
0000
,
0010
0010
1000
0001
,
1000
0100
0010
0001
,
0100
1001
0220
0300
,
0130
0001
0010
0000
,
1000
0010
0001
0100
,
0110
1001
0110
0000
,
1000
0100
0011
0000
,
0101
0000
1100
0000
,
0101
0000
0010
0000
,
1001
0110
1001
0000
,
0010
1000
0100
0001
,
0010
0100
0010
0001
,
0100
1000
0001
1000
,
0010
0001
1000
0100
,
0010
0100
0010
0001
,
0100
0001
0010
1000
,
0001
1000
0010
1000
,
0100
0010
0001
0100
,
0010
1000
0100
0001
,
0011
0010
0100
1000
,
0020
0000
0200
0330
,
0002
0000
2000
3003
,
1001
1010
1001
0100
,
0001
0010
0100
1000
,
1010
0000
0011
0000
,
1001
1001
0110
1001
,
0100
1010
0202
0300
,
0010
1000
0103
0000
,
1000
0010
1000
0010
,
0100
0100
0001
1000
,
0000
1100
0022
0003
,
0130
1000
0001
0000
,
1000
0010
0001
0100
,
0110
1001
0110
0000
,
1000
0100
1100
0000
,
0011
0000
0101
0000
,
1100
0000
0001
0000
,
1000
0001
1001
0000
,
1010
0000
0000
0000
;

//---------------dance-single - ----------------
#NOTES:
     dance-single:
     :
     Medium:
     11:
     :
0000
0000
0000
0000
,
0000
0000
0000
0000
,
1000
0000
1000
0001
0000
0001
1000
0000
0010
0100
0000
0000
,
0101
0000
0000
0010
0000
0000
1000
0000
0001
0000
0000
1000
,
0100
0000
0010
0000
0000
0001
1000
0000
0001
0000
0000
0100
,
0010
0000
1000
0000
0000
0100
1000
0000
0001
0000
0000
0010
,
0001
0000
0010
0000
0000
0100
1000
0000
0001
0100
0000
0000
,
0001
0000
1000
0000
0000
1000
0010
0000
0100
0000
0000
0001
,
0010
0000
0100
0000
0000
0010
0100
0000
1000
0000
0000
0001
,
1000
0000
0001
0000
0000
1000
0100
0000
0010
0000
0000
0001
,
1000
0000
0000
1000
0000
0100
1000
0000
0001
0000
0000
1001
,
0000
0000
1000
0010
0000
1000
0010
0000
0100
0001
0000
1000
,
0000
0000
0001
0010
0000
0100
1000
0000
0000
0010
0000
0100
,
0000
0000
0000
1010
0000
0000
0001
0000
1000
0000
0000
0000
,
2200
0000
0000
0300
0000
0000
3001
0000
0000
0000
0000
0010
,
0001
0000
0010
0001
0000
1000
0001
0000
0000
0110
0000
0000
,
1000
0000
0010
1000
0000
0001
0100
0000
0000
0010
0000
0010
,
1000
0000
1000
0001
0000
0001
1000
0000
0000
0100
0000
0000
,
0022
0000
0000
0030
0000
0000
1003
0000
0000
0000
0000
0001
,
0100
0000
0000
0010
0000
2000
0000
0000
0002
3000
0000
0000
,
0103
0000
0000
0001
0000
1000
0000
0000
0100
0000
0000
0010
,
0002
0000
0000
0003
0000
0100
0010
0000
1000
0000
0000
0001
,
2000
0000
0000
3000
0000
0001
0010
0000
0100
0000
0000
1000
,
0001
0000
0000
0101
0000
0000
1100
0000
0000
0001
0000
1000
,
0000
0000
0010
0100
0000
0000
0002
0000
0000
2003
0000
0000
,
3100
1001
0100
1001
,
1010
0000
0000
0101
0000
0000
1000
0000
1000
0001
0000
0000
,
0010
0011
2200
0300
,
3001
0000
1000
0001
0000
0100
0000
0000
0010
0000
1000
0000
,
0001
0000
0001
0010
0000
0000
0001
0000
0001
1000
0000
0000
,
0010
0000
1000
0000
0000
0001
0000
0000
1000
0100
0000
0000
,
0010
0011
2002
3000
,
0013
0000
0100
0010
0000
0001
0000
0000
1000
0001
0000
0000
,
1000
0000
1000
0010
0000
0010
0100
0000
0100
0001
0000
0001
,
1000
0000
0000
0001
0000
0100
0020
0000
0000
0030
0000
0100
,
0001
0000
1000
0001
0000
0000
2010
0000
0000
3001
0000
0000
,
0201
0301
0012
1003
,
1100
0000
0000
0010
0000
0001
1000
0000
0001
0000
0000
0100
,
0010
0000
0000
1000
0000
0001
0100
0000
0000
0000
0000
0000
,
0001
0000
0010
0000
0100
0000
1000
0000
0001
0000
1000
0000
,
0010
0000
0100
0000
0001
0000
0010
0000
0100
0000
1000
0000
,
0001
0000
1000
0000
0010
0000
1000
0000
0100
0000
0001
0000
,
0010
0000
0100
0000
0010
0000
0001
0000
0100
0000
1000
0000
,
0001
0000
0200
0000
0000
0310
1000
0000
0002
0000
0000
1003
,
0100
0000
0020
0000
0000
0031
1000
0000
0200
0000
0000
0310
,
0001
0000
0100
0000
0001
0000
1000
0000
0100
0000
1000
0000
,
0001
0000
0001
1000
0000
1000
0010
0000
0010
0100
0000
0100
,
0001
0000
0000
1000
0000
0020
0000
0000
0230
0000
0000
0000
,
0301
0000
0000
0010
0000
0100
0000
0000
1000
0000
0000
0001
,
2000
0000
0000
3000
0000
0001
1000
0000
0100
0000
0000
0010
,
0002
0000
0000
0003
0000
0100
0010
0000
1000
0000
0000
0001
,
1000
0000
0000
1100
0000
0000
0101
0000
0000
1000
0000
0001
,
0000
0000
0100
0010
0000
0000
2000
0000
0000
3002
0000
0000
,
0013
1001
0010
1001
,
1100
0000
0000
0101
0000
0000
1000
0000
0001
0100
0000
0000
,
0010
0110
0202
0300
,
1003
0000
0001
1000
0000
0010
0000
0000
0100
0001
0000
0000
,
0100
0000
0100
0010
0000
0000
0100
0000
0100
0001
0000
0000
,
1000
0000
0100
0000
0000
0010
0000
0000
0001
1000
0000
0001
,
0000
1100
0022
0003
,
0130
0000
0010
0001
0000
1000
0000
0000
0001
0100
0000
0000
,
0001
0000
0001
0010
0000
0010
0100
0000
0100
1000
0000
1000
,
0010
0000
0000
1000
0000
0001
0200
0000
0000
0300
0000
0010
,
1000
0000
0001
1000
0000
0000
1200
0000
0000
0310
0000
0000
,
0012
1003
0201
0310
,
1010
0000
0000
0100
0000
0000
0001
0000
1000
0000
0000
0010
,
0100
0000
0000
0110
0000
0000
0001
0000
1000
0000
0000
0000
,
1010
0000
0000
0000
;

//---------------dance-single - ----------------
#NOTES:
     dance-single:
     :
     Hard:
     14:
     :
0000
0000
0000
0000
,
0000
0000
0000
0000
,
1000
0100
1000
0001
0100
0001
1000
0000
0010
0100
0000
0000
,
0101
0000
0001
1000
0000
1000
0100
0000
0100
0010
0000
0000
,
0001
0000
0001
0100
0000
0100
0010
0000
0010
1000
0000
0000
,
0100
0000
1000
0000
0000
0001
1000
0000
1000
0010
0000
0010
,
0100
0000
0100
0001
0000
1000
0001
0000
0010
0100
0000
0000
,
1100
0000
1000
0001
0000
0001
0100
0000
0100
0010
0000
0010
,
0100
0000
0001
1000
0000
0000
0001
0000
0001
0010
0000
0000
,
0100
0000
1000
0000
0000
0010
1000
0000
1000
0001
0000
0001
,
0010
0000
0000
0010
0000
0001
1000
0000
0100
0000
0000
1001
,
0000
0000
1000
0010
0000
1000
0010
0000
0100
0001
0000
2000
,
0000
0000
3001
0010
0000
0010
0100
0000
0000
1000
0000
0001
,
0100
0000
0000
1010
0000
0000
0101
0000
1000
0001
0000
0000
,
0020
0000
0000
0031
0000
1000
0100
0000
0100
1000
0000
0000
,
0001
0000
0100
0001
0000
1000
0001
0000
0000
0011
0000
0000
,
1100
0000
1000
0010
0000
1000
0010
0000
0000
0100
0000
0001
,
0010
0000
0010
0100
0000
0100
1000
0000
0000
0001
0000
0000
,
2010
0000
0000
0001
0000
0000
3100
0000
1000
0010
0100
0001
,
1000
0000
0000
0001
0000
0010
0001
0000
0100
0010
0000
0000
,
0110
0000
0000
0100
0000
0001
0000
0000
1000
0001
0000
0100
,
0010
0000
0010
1000
0000
1000
0100
0000
0010
0000
0000
0001
,
1000
0000
1000
0001
0000
0001
0100
0000
0010
0000
0000
1000
,
0100
0000
0000
1001
0000
0000
0110
0000
0000
0100
0000
0001
,
0010
0000
0100
1000
0000
0000
0002
0000
0000
0203
0000
0000
,
0310
0000
0000
1010
0000
0000
0010
0000
0000
0011
0000
0001
,
1000
0000
0000
1000
0000
1000
0010
0100
0010
1000
0000
0001
,
0100
0000
0000
0101
0000
0000
2100
0000
0000
3001
0000
0100
,
0010
0000
1000
0010
0000
0100
0001
0000
1000
0000
0001
0000
,
0100
0000
0100
0010
0000
1000
0010
0000
0100
0001
0000
1000
,
0100
0000
0010
0001
0000
1000
0000
0000
0001
0100
0000
0100
,
0010
0000
0000
1001
0000
0000
1020
0000
0000
0130
0000
0010
,
1000
0000
0100
1000
0000
0001
0010
0000
0100
1000
0000
0100
,
1000
0000
1000
0010
0000
0010
0100
0000
0100
0001
0000
0001
,
0010
0000
0000
0001
0000
1000
0002
0000
0000
0103
0010
1000
,
0001
0000
1000
0010
0000
0000
0101
0000
0010
1000
0000
0000
,
1100
0000
0010
0001
0000
1000
0001
0000
0100
0010
0000
0000
,
0110
0000
0000
1000
0000
0010
1000
0000
0001
0100
0000
0010
,
1000
0000
0000
0100
0000
1000
0001
0000
0100
0010
0000
0100
,
0010
1000
0200
0000
0000
0310
0001
0100
0010
1000
0000
0001
,
1000
0100
0020
0000
0000
0031
1000
0001
0100
0010
0000
1000
,
0100
0010
0002
0000
0000
1003
0001
0010
0001
0100
0000
0010
,
1000
0100
2000
0000
0000
3001
1000
0010
0100
0001
0000
1000
,
0100
0010
0001
2000
0000
0000
3001
0010
0100
2000
0000
0000
,
3001
0100
0001
2000
0000
0000
3010
0100
0001
2000
0000
0000
,
3001
0010
0100
1000
0000
0001
1000
0010
0100
0001
0000
1000
,
0010
0100
0010
0100
0010
0100
0001
0010
0100
1000
0100
0010
,
0001
0000
0000
0011
0000
0001
1000
0000
0010
0100
0000
0000
,
0110
0000
0000
0010
0000
1000
0010
0000
1000
0100
0000
0010
,
0002
0000
0000
1003
0000
0010
1000
0000
0100
0000
0000
0010
,
0002
0000
0000
0103
0000
0001
1000
0000
0010
0100
0000
0001
,
1000
0000
0000
1100
0000
0000
0011
0000
0000
0100
0000
0001
,
1000
0000
0010
0100
0000
0000
0002
0000
0000
2003
0000
0000
,
3010
0000
0000
0101
0000
0000
0010
0000
0000
1100
0000
1000
,
0001
0000
0000
0001
0000
0001
1000
0100
1000
0001
0100
0001
,
0010
0000
0000
1100
0000
0000
0110
0000
0001
1000
0000
0010
,
1000
0000
0010
0100
0000
0001
1000
0000
1000
0001
0000
1000
,
0100
0000
0100
0010
0000
0010
0001
0000
0001
1000
0000
1000
,
0001
0000
0100
0010
0000
0100
0001
0000
1000
0001
0010
0100
,
1000
0000
0000
1001
0000
0000
0110
0000
1000
0001
0000
0010
,
0100
0000
0010
0001
0000
1000
0001
0000
0100
0010
0000
1000
,
0001
0000
0001
0010
0000
0010
0100
0000
0100
1000
0000
1000
,
0010
0000
0000
0100
0000
0001
1000
0100
0010
0001
0010
0100
,
1000
0000
0001
0100
0000
0000
1010
0000
0001
1000
0000
0000
,
0101
0000
0100
0010
0000
0000
1100
0000
0010
0001
0000
0000
,
0011
0000
0010
0001
0000
0001
1000
0000
1000
0010
0000
0100
,
0001
0000
0000
1001
0000
1000
0100
0000
1000
0000
0001
0000
,
1010
0000
0000
0000
;
