#TITLE:SHOOTING STAR;
#SUBTITLE:(Euro Mix);
#ARTIST:BANG!;
#BANNER:SHOOTING STAR (Euro Mix)-bn.png;
#BACKGROUND:SHOOTING STAR (Euro Mix)-bg.png;
#JACKET:SHOOTING STAR (Euro Mix)-jacket.png;
#MUSIC:SHOOTING STAR (Euro Mix).ogg;
#SAMPLESTART:89.99;
#SAMPLELENGTH:20;
#DISPLAYBPM:170;
#BPMS:0=170.04;
#BGCHANGES:;

//---------------dance-single - ----------------
#NOTES:
     dance-single:
     :
     Beginner:
     3:
     :
0000
0000
0000
0000
,
0000
0000
0000
0000
,
0000
0000
0000
0000
,
0000
0000
0000
0000
,
1001
0000
0000
0000
,
0000
0000
0000
0000
,
0000
0000
0000
0000
,
0000
0000
0000
0000
,
0110
0000
0000
0000
,
0001
0000
0000
0000
,
1000
0000
0000
0000
,
0010
0000
0000
0000
,
1001
0000
0000
0000
,
0100
0000
0000
0000
,
1000
0000
0000
0000
,
0010
0000
0000
0000
,
0110
0000
0000
0000
,
0001
0000
0000
0000
,
1000
0000
0000
0000
,
0010
0000
0100
0000
,
0010
0000
0000
0000
,
1000
0000
0000
0000
,
0100
0000
0000
0000
,
1000
0000
0001
0000
,
0100
0000
0000
0000
,
0010
0000
0000
0000
,
1000
0000
0000
0000
,
0001
0000
0010
0000
,
0001
0000
0000
0000
,
0100
0000
0000
0000
,
0010
0000
0000
0000
,
1000
0000
0000
0000
,
0001
0000
0000
0000
,
1000
0000
0000
0000
,
0010
0000
0000
0000
,
1000
0000
0000
0000
,
0100
0000
0000
0000
,
0010
0000
0000
0000
,
0001
0000
0000
0000
,
0100
0000
0010
0000
,
0100
0000
0001
0000
,
1000
0000
0001
0000
,
0010
0000
0100
0000
,
1000
0000
0010
0000
,
1000
0000
0100
0000
,
1000
0000
0001
0000
,
0010
0000
0100
0000
,
1000
0000
0001
0000
,
0010
0000
0000
0000
,
0100
0000
0000
0000
,
0010
0000
0000
0000
,
0001
0000
0000
0000
,
0100
0000
0000
0000
,
0010
0000
0000
0000
,
1000
0000
0100
0000
,
1000
0000
0001
0000
,
1001
0000
0000
0000
,
0000
0000
0000
0000
,
0100
0000
0000
0000
,
0010
0000
0000
0000
,
1000
0000
0000
0000
,
0001
0000
0000
0000
,
1000
0000
0100
0000
,
0010
0000
0000
0000
,
0001
0000
0001
0000
,
1000
0000
0000
0000
,
0010
0000
1000
0000
,
0100
0000
0000
0000
,
0010
0000
0010
0000
,
0001
0000
0000
0000
,
1000
0000
0001
0000
,
0100
0000
0010
0000
,
0110
0000
0000
0000
,
1000
0000
0000
0000
,
0010
0000
0000
0000
,
1000
0000
0001
0000
,
0010
0000
0100
0000
,
1000
0000
0000
0000
,
0001
0000
1000
0000
,
0001
0000
0000
0000
,
0110
0000
1001
0000
,
0100
0000
0010
0000
,
1000
0000
0100
0000
,
0001
0000
0010
0000
,
0001
0000
1000
0000
,
0001
0000
0100
0000
,
0010
0000
1000
0000
,
0001
0000
0000
0000
,
0100
0100
0100
0000
,
0001
0000
0010
0000
,
0001
0000
0100
0000
,
0010
0000
1000
0000
,
0100
0000
1000
0000
,
0001
0000
0010
0000
,
0001
0000
0100
0000
,
1000
0000
0001
0000
,
1000
0000
0010
0000
,
0100
0000
0001
0000
,
0010
0000
0100
0000
,
1000
0000
0000
0000
,
0001
0000
0000
0000
,
1000
0000
0010
0000
,
1000
0000
0100
0000
,
0010
0000
0010
0000
,
0001
0000
0000
0000
,
1001
0000
0000
0000
,
0100
0000
0000
0000
,
1000
0000
0010
0000
,
1000
0000
0000
0000
,
0001
0000
0000
0000
,
0010
0000
0000
0000
,
0001
0000
0100
0000
,
1000
0000
0000
0000
,
0110
0000
0000
0000
,
0100
0000
0000
0000
,
0001
0000
0010
0000
,
1000
0000
0000
0000
,
0100
0000
0000
0000
,
0100
0000
0000
0000
,
1000
0000
0010
0000
,
1000
0000
0001
0000
,
1001
0000
0000
0000
,
0110
0000
0000
0000
,
1001
0000
0000
0000
,
0110
0000
0000
0000
,
1001
0000
0000
0000
,
0110
0000
0000
0000
,
1001
0000
0000
0000
,
1000
1000
1000
0000
,
0110
0000
0000
0000
,
1001
0000
0000
0000
,
0110
0000
0000
0000
,
1001
0000
0000
0000
,
0110
0000
0000
0000
,
1001
0000
0000
0000
,
0110
0000
0000
0000
,
0001
0001
0001
0000
,
0010
0000
0001
0000
,
1000
0000
0010
0000
,
1000
0000
0100
0000
,
0010
0000
0001
0000
,
0100
0000
0100
0000
,
0010
0000
0010
0000
,
0100
0000
0001
0000
,
1000
0000
0001
0000
,
1000
0000
0010
0000
,
1000
0000
0001
0000
,
0010
0000
0100
0000
,
0100
0000
1000
0000
,
0010
0000
1000
0000
,
0001
0000
0001
0000
,
0010
0000
0001
0000
,
0100
0000
0000
0000
,
0010
0000
0000
0000
,
1000
0000
0000
0000
,
0001
0000
0000
0000
,
0100
0000
0000
0000
,
0001
0000
0000
0000
,
0010
0000
0000
0000
,
0100
0000
0010
0000
,
0001
0000
1000
0000
,
1001
0000
0000
0000
,
0000
0000
0000
0000
,
0010
0000
0000
0000
,
1000
0000
0000
0000
,
0110
0000
0000
0000
,
0001
0000
0000
0000
,
0010
0000
0100
0000
,
1000
0000
0000
0000
,
0001
0000
0001
0000
,
0100
0000
0000
0000
,
0010
0000
1000
0000
,
0100
0000
0000
0000
,
1000
0000
0001
0000
,
1000
0000
0000
0000
,
0010
0000
0100
0000
,
0010
0000
0100
0000
,
0001
0000
0000
0000
,
1000
0000
0000
0000
,
0100
0000
0000
0000
,
1000
0000
0001
0000
,
1000
0000
0010
0000
,
0100
0000
0000
0000
,
0001
0000
0010
0000
,
1000
0000
0000
0000
,
0100
0000
1000
0000
,
0001
0000
0100
0000
,
0001
0000
0010
0000
,
0100
0000
1000
0000
,
0010
0000
1000
0000
,
0001
0000
0010
0000
,
0100
0000
0100
0000
,
1000
0000
0001
0000
,
1001
0000
0000
0000
,
0010
0000
0000
0000
,
1000
0000
0100
0000
,
1000
0000
0001
0000
,
0110
0000
0000
0000
,
0010
0000
0000
0000
,
1000
0000
0100
0000
,
0001
0000
0010
0000
,
1000
0000
0000
0000
,
0001
0000
0000
0000
,
1000
0000
0000
0000
,
0100
0000
0010
0000
,
0001
0000
0000
0000
,
0100
0000
0000
0000
,
0001
0000
0000
0000
,
1000
0000
0010
0000
,
1000
0000
1000
0000
,
0001
0000
0001
0000
,
1000
0000
1000
0000
,
0010
0000
0010
0000
,
0100
0000
0100
0000
,
0010
0000
0010
0000
,
0100
0000
0100
0000
,
0001
0000
0001
0000
,
1000
0000
0000
0000
,
0100
0000
0000
0000
,
1000
0000
0000
0000
,
0001
0000
0000
0000
,
0010
0000
0000
0000
,
0100
0000
0000
0000
,
1000
0000
0000
0000
,
0010
0000
0000
0000
,
0100
0000
0000
0000
,
0001
0000
0000
0000
,
0010
0000
0000
0000
,
0001
0000
0000
0000
,
1000
0000
0000
0000
,
0010
0000
0000
0000
,
1000
0000
0000
0000
,
0100
0000
0110
0000
,
1001
0000
0000
0000
;

//---------------dance-single - ----------------
#NOTES:
     dance-single:
     :
     Easy:
     7:
     :
0000
0000
0000
0000
,
0000
0000
0000
0000
,
0000
0000
0000
0000
,
0000
0000
0000
0000
,
1001
0000
0010
0000
,
1000
0000
0100
0000
,
1000
0000
0001
0000
,
0100
0000
0010
0010
,
0110
0100
0001
1000
,
0001
0010
0100
1000
,
0010
1000
0001
1000
,
0100
0010
0001
1000
,
0001
1000
0010
1000
,
0100
0010
0100
1000
,
0010
1000
0001
0100
,
0020
0000
0000
0000
,
1030
0010
1000
0001
,
1000
0100
0010
0001
,
1000
0001
0010
0100
,
0010
0001
0100
1000
,
0001
0010
0001
0100
,
0010
1000
0100
1000
,
0001
0010
0001
0100
,
0001
0010
0100
1000
,
1001
0010
1000
0001
,
1000
0100
1000
0001
,
0010
0100
0010
0001
,
0100
0010
1000
0001
,
0110
0001
0010
1000
,
0001
1000
0001
0100
,
0010
1000
0100
0010
,
0001
1000
0100
1000
,
0010
0100
0000
0001
,
0000
0010
0000
0100
,
0000
1000
0000
0001
,
0000
1000
0000
0010
,
1000
0100
0000
0010
,
0000
0001
0000
0010
,
0000
0001
0000
0100
,
0000
1000
0010
0001
,
0100
0010
0100
0001
,
1000
0000
0100
0010
,
0001
0000
1000
0001
,
1000
0000
0010
1000
,
0100
1000
0010
0100
,
0001
0000
0010
0001
,
0100
0000
0001
0010
,
2000
0000
0000
0000
,
3010
0000
0010
0000
,
1000
0000
0001
0000
,
1000
0100
1000
0100
,
0010
0001
0100
0000
,
0010
0000
0010
0000
,
1000
0000
0001
0000
,
0100
0001
0010
0100
,
2000
0000
0002
3003
,
2002
0000
0000
3000
,
0200
0000
0000
0300
,
2000
0000
0000
3000
,
0020
0000
0030
1003
,
0220
0000
0000
0030
,
0020
0000
0030
0010
,
1000
0001
2000
3000
,
0020
0000
0030
0301
,
0100
0010
0100
0010
,
1000
0100
0001
0000
,
0010
0001
0010
0100
,
1000
0010
1000
0000
,
0100
1000
0001
0010
,
0001
0100
1000
0000
,
0010
1000
0001
1000
,
0020
0000
0200
0330
,
0110
0010
1000
0001
,
1000
0000
0100
0000
,
1000
0000
0001
0010
,
0001
0000
0100
0010
,
1000
0001
1000
0000
,
0010
1000
0100
0010
,
0001
0100
0001
1000
,
0010
0000
1000
0100
,
0110
0000
1001
1001
,
0002
0003
0010
1000
,
0010
0100
0001
0010
,
2000
3000
0100
0010
,
0100
1000
0010
0100
,
0002
0003
0010
0001
,
1000
0001
0100
0010
,
2000
0000
0000
3001
,
0100
1000
0100
0001
,
0020
0030
0001
1000
,
0001
0100
0010
1000
,
0200
0300
0010
0100
,
1000
0010
1000
0100
,
0002
0003
0010
0001
,
0010
0100
1000
0001
,
0200
0300
0001
0010
,
0001
0100
0010
1000
,
0110
0000
1000
0100
,
1000
0010
1000
0001
,
0200
0000
0000
0310
,
2000
0000
0000
3001
,
1001
0000
0010
1000
,
0001
1000
0100
0010
,
0001
0100
0010
1000
,
0001
0000
0000
0100
,
2002
0000
3000
0100
,
0013
0000
0001
0000
,
1000
0001
1000
0010
,
1000
0100
0010
0001
,
0101
0000
1100
0000
,
0001
0010
0001
1000
,
0010
1000
0100
0010
,
0002
0000
0000
1003
,
0220
0000
0030
0301
,
0100
0000
0010
0000
,
1000
0100
1000
0010
,
1000
0001
0100
0010
,
0101
0000
1100
0000
,
0001
0000
0010
0001
,
1000
0010
1000
0001
,
0100
0100
0100
0100
,
0110
0000
0000
0000
,
1001
0000
0000
1000
,
0001
0000
0000
0000
,
0110
0000
0001
1000
,
1001
0000
0000
0000
,
0110
0000
0000
1000
,
0100
0000
0000
0000
,
1001
1001
1001
0010
,
0100
0001
1000
0100
,
1000
0010
0100
0001
,
0010
0100
0010
0001
,
0100
0001
0010
1000
,
0100
1000
0010
1000
,
0001
0010
0001
0100
,
0010
0100
0010
1000
,
0001
0010
0001
1000
,
0000
0010
1000
0100
,
0000
1000
0010
0001
,
0000
1000
0100
0010
,
0000
0001
1000
0001
,
0000
0010
0100
1000
,
0000
0010
1000
0001
,
0000
1000
0100
0010
,
0000
0001
0100
0001
,
0000
1000
0100
0001
,
0000
0010
0001
0100
,
0000
0010
0100
0010
,
0000
1000
0100
1000
,
0000
0010
1000
0100
,
0000
1000
0010
0001
,
0000
1000
0100
0010
,
0002
0000
0000
0000
,
1003
0000
0010
0000
,
1000
0000
0001
0000
,
0010
0001
0100
0010
,
1000
0100
0001
0000
,
1000
0000
0010
0000
,
0100
0000
0010
0000
,
1000
0100
0010
0001
,
2000
0000
0002
3003
,
2002
0000
0000
3000
,
0020
0000
0000
0030
,
1003
0000
0001
0000
,
1000
0000
0010
0000
,
0220
0000
0000
0300
,
2000
0000
3000
0100
,
0001
1000
0002
0003
,
0200
0000
0300
1030
,
0010
1000
0100
0010
,
0100
1000
0001
0000
,
0001
0010
0100
1000
,
0010
1000
0001
0000
,
0010
0001
0010
0100
,
1000
0010
1000
0000
,
0001
1000
0010
1000
,
0020
0000
0200
0330
,
0100
0000
0001
0000
,
0010
0001
1000
0000
,
0010
0000
1000
0000
,
0100
0000
1000
0001
,
0010
0100
1000
0010
,
0100
0000
0010
0000
,
0100
0000
0001
0000
,
0010
0001
0100
1000
,
0001
0010
0001
0100
,
1000
0010
0100
0000
,
0010
1000
0001
1000
,
0100
0010
0100
1000
,
0010
1000
0001
0010
,
0001
0100
0010
0000
,
1000
0100
0010
0001
,
2000
0000
0002
3003
,
1001
0010
0001
0100
,
0010
1000
0100
0001
,
0010
0001
1000
0010
,
1000
0100
0010
0001
,
0110
1000
0010
1000
,
0100
0010
0001
0100
,
0001
0010
0001
1000
,
0100
0010
0001
1000
,
0010
0000
1000
0000
,
0100
0000
0001
0000
,
1000
0000
0010
0000
,
0100
0000
0001
0000
,
0010
0000
0100
0000
,
1000
0000
0010
0000
,
1000
0000
0001
0000
,
0100
0000
0001
0010
,
0001
0000
1000
0100
,
1000
0000
0010
1000
,
0001
0000
0010
0100
,
1000
0000
0001
0100
,
0010
1000
0001
1000
,
0100
0000
0010
0001
,
0100
0000
0001
0010
,
1000
0000
0100
1000
,
0001
0000
1000
0000
,
0010
0000
0100
0000
,
0001
0000
0010
0000
,
0001
0000
0100
1000
,
0010
0000
1000
0000
,
0001
0000
1000
0000
,
0100
0000
0010
0000
,
0001
0100
0010
1000
,
0110
0000
1000
0000
,
0001
0000
0010
0000
,
0001
0000
0100
0000
,
1000
0000
0010
1000
,
0001
0000
0010
0000
,
0100
0000
1000
0000
,
0010
0000
0010
0000
,
1000
0000
0001
0100
,
1001
0000
0000
0000
;

//---------------dance-single - ----------------
#NOTES:
     dance-single:
     :
     Medium:
     10:
     :
0000
0000
0000
0000
,
0000
0000
0000
0000
,
0000
0000
0000
0000
,
0000
0000
0000
0000
,
1001
0010
1000
0100
,
1000
0001
0010
0100
,
0010
0001
0100
0010
,
1000
0100
1000
0001
,
0110
0001
1000
0010
,
1000
0100
0010
0001
,
0100
0001
0010
0100
,
1000
0000
0001
0000
0100
0000
0010
0010
,
0010
1000
0100
0001
,
1000
0001
1000
0010
,
0100
0001
0010
0100
,
2000
0000
0010
0000
0001
0000
0100
0100
,
3100
0000
1100
0000
0001
0010
1000
0000
,
0001
0000
0101
0000
0010
1000
0001
0000
,
0100
0010
1000
0100
,
1000
0000
0001
0000
0010
0000
0100
0100
,
0100
0000
0011
0000
1000
0001
0010
0000
,
1000
0000
1010
0000
0010
0001
0100
0000
,
0001
0010
0001
0100
,
0010
0000
1000
0000
0100
0000
0001
0001
,
0001
0000
0010
0000
1000
0001
0100
0000
,
0010
0000
1000
0000
0100
0010
0001
0000
,
1000
0000
0001
0000
1000
0010
0100
0000
,
0001
0000
0010
0000
0100
0000
1000
1000
,
1000
0010
1000
0000
0001
0010
0001
0000
,
1000
0010
1000
0001
,
0010
0100
1000
0000
0010
1000
0001
0000
,
0200
0000
0010
0000
1000
0000
0001
0001
,
0301
0010
0000
0100
0000
1000
0000
0010
,
0000
1000
0000
0100
0000
0010
0000
0001
,
0000
1000
0000
0001
0000
0100
0000
0010
,
0000
1000
0000
0100
0000
1000
0000
0001
,
0010
0100
0000
1000
0000
0010
0000
1000
,
0000
0001
0000
0010
0000
0100
0000
0010
,
0000
0001
0000
0100
0000
0010
0000
1000
,
0000
0100
0000
1000
0000
0010
0000
0100
,
0001
0010
0001
1000
0000
0010
0000
0100
,
0000
0010
1000
0001
0000
1000
0000
0100
,
0000
0010
0001
0100
0000
0001
0000
1000
,
0000
0001
0010
0100
0000
1000
0000
0010
,
1000
0001
0010
0100
0000
1000
0000
0010
,
0000
1000
0001
0100
0000
0001
0000
0010
,
0000
0001
0100
1000
0000
0010
0000
0100
,
0002
0000
0010
0000
1000
0000
0103
0010
,
0100
0001
0000
1000
0000
0001
0010
0100
,
0010
0001
0000
1000
0000
0000
0000
0010
,
1000
0100
0010
0001
0000
1000
0001
1000
,
0010
0100
0000
0010
0000
1000
0100
0020
,
0000
0032
0000
2003
0000
3001
0100
0010
,
1000
0001
0000
1000
0000
0000
0000
0010
,
1000
0100
0010
0001
0000
0100
0010
1000
,
0002
0000
2000
3003
,
2002
0000
0000
3000
,
1000
0100
1000
0013
,
0001
0000
0100
0000
0010
1000
0001
0000
,
1000
0000
0100
0000
1000
0001
0010
0000
,
0202
0000
0000
0300
,
2000
0000
0003
3020
,
2030
3002
0023
0230
,
2000
0000
0000
0000
0300
0000
3001
1000
,
0010
1000
0000
0100
0000
1000
0010
1000
,
0001
0010
0000
0100
0000
0000
0000
1000
,
0010
1000
0100
0010
0000
0001
1000
0001
,
0010
0100
0000
1000
0000
0010
1000
0200
,
0000
0320
0000
0032
0000
1003
0001
0100
,
0001
0010
0000
1000
0000
0000
0000
0100
,
0010
0001
0010
0001
0000
1000
0001
0100
,
0020
0000
0000
0000
0230
0000
0001
0001
,
0301
0000
1000
0100
0000
1000
0001
0000
,
0010
0010
0000
0001
0000
1000
0010
0000
,
0100
0000
0001
0010
0000
0001
1000
0000
,
0100
0000
0000
1000
0010
0000
0100
0001
,
0000
1000
0000
0010
0000
1000
0001
0000
,
0010
0010
0100
1000
0000
0001
0100
0000
,
0010
0000
1000
0001
0000
1000
0100
0010
,
0001
0000
0100
0010
0000
1000
0001
0100
,
0010
0000
1001
1001
,
1000
0100
0000
0010
0001
0200
0000
0320
,
0000
2030
0000
3002
0000
0023
0000
0230
,
0000
1300
0000
0100
1000
0002
0000
2003
,
0000
3020
0000
2030
0000
3002
0000
0023
,
0000
0130
0000
1000
0010
2000
0000
3002
,
0000
0023
0000
0032
0000
2003
0000
3200
,
0000
0310
0000
0001
1000
0010
1000
0100
,
0000
0010
0001
1000
0000
0001
0100
0010
,
1000
0000
0100
0000
1000
0010
1000
0001
,
0000
0010
0000
0001
0000
0100
0010
1000
,
0001
1000
0100
0000
0010
0001
0000
0100
,
0000
0001
0000
0010
0000
0001
1000
0010
,
1000
0100
0001
0000
1000
0001
0000
1000
,
0000
0010
0000
1000
0000
0100
0010
0001
,
0100
0010
1000
0000
0001
1000
0000
0010
,
0000
1000
0000
0100
0000
0010
0001
1000
,
0001
0100
0010
0000
1000
0100
0000
2000
,
0000
3002
0000
0203
0000
0310
1000
0001
,
0010
0000
0001
0000
1000
0000
0010
0200
,
0000
0301
1000
0000
0100
0000
1000
0010
,
0100
0000
0001
0010
0001
1000
0000
0020
,
0000
0230
0000
0302
0000
1003
0001
1000
,
0100
0000
0100
1000
0010
1000
0000
0002
,
0000
1003
0000
0000
0000
0000
0010
0100
,
0002
0000
0010
0000
1003
0001
1000
0100
,
0010
0001
0000
0100
0000
0001
1000
0010
,
0100
0000
0010
2000
0000
3002
0000
1003
,
0100
0010
0000
0001
0000
0000
1000
0001
,
0200
0310
2000
3001
,
0010
0100
0000
1000
0000
0000
0001
1000
,
0002
0000
0103
0010
0000
2000
0000
3002
,
0000
2003
0000
3100
1000
0010
0100
0001
,
2000
0000
0010
0000
3001
1000
0001
0100
,
0001
0010
0000
0001
0000
1000
0100
0010
,
0001
0000
0100
0020
0000
2030
0000
3001
,
1000
0100
0000
0010
0000
0000
0001
0100
,
0020
1030
0002
0103
,
0001
0010
0000
1000
0000
0000
0100
0010
,
0002
0000
1003
0020
0000
2030
0000
3200
,
0000
0310
0001
0010
0001
0010
0001
1000
,
0100
0000
0100
0000
1000
0010
1000
0001
,
0100
0000
0100
0000
0001
0010
0001
1000
,
0010
0000
0100
0000
0010
0100
0001
1000
,
0100
0000
0010
0000
0100
1000
0001
0100
,
0001
0000
0010
0000
0001
1000
0001
0100
,
0010
0000
0010
0000
0010
0100
0010
1000
,
0100
0000
0100
0000
1000
0010
1000
0100
,
0010
0000
0001
0000
1000
0001
1000
0100
,
0010
0000
1001
0000
1000
0010
0100
0001
,
1000
0000
1100
0000
0010
1000
0001
0100
,
0001
0000
0011
0000
0100
0010
0001
1000
,
0001
0000
1010
0000
0001
1000
0100
0010
,
0100
0000
0110
0000
0100
1000
0010
1000
,
0001
0000
1100
0000
0010
1000
0100
0010
,
0001
0000
0011
0000
1000
0001
1000
0010
,
0100
0000
0110
0000
0010
1000
0100
0001
,
0010
0100
0000
1000
0001
1000
0010
0100
,
0000
0001
0000
0010
0001
0100
0010
1000
,
0000
0100
0000
1000
0001
1000
0010
0100
,
0000
0001
0000
0010
0001
0100
0010
1000
,
0100
0010
0000
0001
0100
0001
1000
0100
,
0010
0001
0000
0100
0001
0010
0001
1000
,
0000
0010
0000
1000
0100
0010
0001
0100
,
0000
0010
0000
0010
0100
0001
1000
0100
,
0010
0001
0000
1000
0001
1000
0010
0100
,
0010
1000
0000
0100
1000
0001
0010
0100
,
0010
0100
0000
1000
0010
0100
0001
0010
,
0100
0010
0000
0001
1000
0010
1000
0001
,
1000
0100
0000
0010
0100
1000
0010
1000
,
0001
0010
0000
0010
0100
0010
0001
1000
,
0100
0010
0000
0100
1000
0010
1000
0001
,
0200
0000
0010
0000
0010
0000
0310
1000
,
0001
1000
0000
0100
0000
1000
0010
1000
,
0010
0100
0000
0001
0000
0000
0000
0010
,
0001
0010
0100
1000
0000
0010
1000
0001
,
1000
0100
0000
0010
0000
0001
0100
0002
,
0000
2003
0000
3200
0000
0310
0001
0100
,
0001
1000
0000
0010
0000
0000
0000
1000
,
0100
1000
0100
0010
0000
0010
0001
0100
,
0002
0000
2000
3003
,
2002
0000
0000
3000
0000
0100
0100
0000
,
1003
0001
0000
0010
0000
0001
1000
0000
,
0010
0000
0000
0100
0000
0000
0001
0000
,
1000
0000
0000
0100
0000
1000
0001
0000
,
0202
0000
0000
0300
,
2000
0000
0003
3002
,
0023
0032
2003
3020
,
0200
0000
0000
0000
0030
0000
0301
1000
,
0100
0010
0000
0100
0000
1000
0010
0100
,
0001
0010
0000
0001
0000
0000
0000
0010
,
0100
0010
0001
1000
0000
0001
1000
0010
,
1000
0100
0000
0010
0000
0001
0100
0020
,
0000
2030
0000
3002
0000
1003
0001
0010
,
0100
1000
0000
0001
0000
0000
0000
0100
,
0010
0100
0010
1000
0000
1000
0001
0010
,
0200
0000
0000
0000
0320
0000
0001
0001
,
0031
0000
0000
1000
0000
0010
0100
0000
,
0001
0010
0000
0001
0000
1000
0100
0000
,
1000
0000
0001
0010
0000
0010
0100
0000
,
1000
0000
0000
0010
0100
0000
0010
1000
,
0000
0001
0000
0010
0000
0001
0100
0000
,
1000
1000
0000
0010
0000
2000
0000
3002
,
0000
0023
0000
0230
0000
1300
0010
0000
,
1000
0000
0001
0010
0000
0001
0100
0010
,
1000
0100
0000
0010
0000
0001
1000
0001
,
0100
0010
0000
1000
0000
0001
0010
0100
,
1000
0010
1000
0001
0000
1000
0100
0010
,
0001
1000
0000
0010
0000
1000
0100
0020
,
0000
0032
0000
0203
0000
0301
1000
0010
,
1000
0001
0000
0010
0000
0100
1000
0001
,
1000
0010
0100
0001
0000
0010
0100
1000
,
0020
0000
0130
0000
0002
0000
1003
0100
,
0020
0000
0031
1000
0000
0001
0100
0000
,
0010
0010
0000
1000
0000
0100
1000
0001
,
0100
0000
0010
1000
0000
0001
0010
0000
,
0001
0000
0100
0010
0000
1000
0001
0000
,
1010
0000
0100
0001
0000
0001
0010
0000
,
0001
1000
0000
0110
0000
1000
0100
0010
,
0001
0000
0100
0010
0000
1000
0001
0000
,
0010
0000
0001
0100
0000
0010
1000
0001
,
0000
1000
0000
0010
0000
1000
0000
0001
,
0000
0010
0000
0100
0000
1000
0000
0010
,
0000
1000
0000
0100
0000
1000
0000
0001
,
0000
0010
0000
0100
0000
0010
0000
0001
,
0000
0100
0000
0001
0000
0010
0000
0100
,
0000
1000
0000
0100
0000
1000
0000
0100
,
0000
1000
0000
0001
0000
0010
0000
0100
,
0000
1000
0000
0010
0000
0100
0001
1000
,
0001
0010
0000
0001
0000
0100
0010
1000
,
0000
0100
0000
0010
0000
0001
1000
0001
,
0000
0010
0000
1000
0000
0100
1000
0010
,
0000
0100
0000
0001
0000
0010
0100
1000
,
0000
0001
0000
0001
0000
0010
0001
1000
,
0000
0100
0000
0010
0000
0100
1000
0010
,
0000
1000
0000
0100
0000
0010
0001
1000
,
0000
0001
0000
0010
0000
0100
1000
0001
,
1000
0010
0000
0000
0100
0001
0000
0000
,
0010
0100
0000
0000
1000
0001
0000
0000
,
1000
0100
0000
0000
0010
0001
0000
0000
,
0100
0001
0000
0000
1000
0100
0000
0000
,
0010
0010
0000
0000
0001
0001
0000
0000
,
1000
1000
0000
0000
0100
0100
0000
0000
,
1000
0010
0000
0000
1000
0001
0000
0000
,
0010
0100
0000
0000
1000
0010
0100
0001
,
1000
0001
0000
0000
0000
0011
0000
0000
,
0000
1100
0000
0000
0000
0101
0000
0000
,
0000
1100
0000
0000
0000
1001
0000
0000
,
0000
1010
0000
0000
0000
0101
0000
0010
,
1000
0001
0000
0000
0000
0110
0000
0000
,
0000
1010
0000
0000
0000
1100
0000
0000
,
0000
1001
0000
0000
0000
0011
0000
0000
,
0000
1100
0000
0000
0010
0000
1000
0001
,
1001
0000
0000
0000
;

//---------------dance-single - ----------------
#NOTES:
     dance-single:
     :
     Hard:
     13:
     :
0000
0000
0000
0000
,
0000
0000
0000
0000
,
0000
0000
0000
0000
,
0000
0000
0000
0000
,
1001
0010
1000
0100
,
1000
0001
0010
0100
,
1000
0010
1000
0001
,
0010
0000
0000
0000
0100
0000
0000
0000
1000
0000
0000
0001
0100
0000
0010
0000
,
0110
0100
0001
0010
,
0100
1000
0001
1000
,
0010
1000
0100
0010
,
0001
0000
0100
0000
0010
0000
1000
1000
,
1001
0010
0001
0100
,
0010
1000
0100
1000
,
0001
0010
0100
1000
,
0120
0000
0000
0000
1000
0000
0000
0000
0130
0000
0000
0100
0001
0000
1000
0000
,
0001
0000
0000
0010
0100
0000
0000
0000
1000
0000
0010
0000
0001
0000
0000
0000
,
0100
0000
0000
0001
1000
0000
0000
0000
0001
0000
0010
0000
0100
0000
0000
0000
,
0010
0000
0000
0001
0100
0000
0000
0000
0010
0000
1000
0000
0001
0000
0000
0000
,
0100
0000
0000
0001
0010
0000
0000
0000
0100
0000
0000
0000
1000
0000
1000
0000
,
1000
0000
0000
0001
0010
0000
0000
0001
0100
0000
0010
0000
1000
0000
0000
0000
,
0100
0000
0000
0010
0001
0000
0000
1000
0001
0000
0100
0000
0010
0000
0000
0000
,
1000
0000
0000
0100
0010
0000
0000
0001
1000
0000
0010
0000
0001
0000
0000
0000
,
0100
0000
0000
0001
0010
0000
0000
0100
1000
0000
0000
0010
0100
0000
0001
0000
,
0010
0000
0000
0001
1000
0000
0000
0000
0001
0100
0001
0000
0010
0000
0000
0000
,
0100
0000
0000
1000
0001
0000
0000
0000
0100
0010
0100
0000
0001
0000
0000
0000
,
1000
0000
0000
0010
1000
0000
0100
0000
0010
0000
0001
0000
0100
0000
0000
0000
,
0001
0000
0000
0010
0100
0000
0000
1000
0010
0000
0000
1000
0001
0000
0100
0000
,
0010
0000
0000
1000
0100
0000
1000
0000
0010
0000
0100
0000
0001
0000
0000
0000
,
1000
0000
0000
0001
0010
0000
0000
0001
0100
0000
0010
0000
1000
0000
0000
0000
,
0001
0000
0010
0000
0100
0000
1000
0000
0001
0100
0001
0000
0010
0000
0000
0000
,
0100
0000
0000
0000
1000
0000
0000
0000
0010
0000
0000
1000
0001
0000
0100
0000
,
0010
1000
0100
1000
0000
0001
0010
0100
,
0000
1000
0010
1000
0000
0001
0100
0001
,
0000
0010
0100
0010
0000
0001
0100
0010
,
0000
1000
0100
0001
0000
1000
0010
0100
,
0001
0010
0001
0100
0000
0010
1000
0001
,
0000
1000
0100
0001
0000
0010
0001
0100
,
0000
0010
0100
0001
0000
1000
0100
0010
,
0000
0000
0001
0000
0100
0000
0010
0000
1000
0000
0000
0001
1000
0000
0100
0000
,
0010
0001
0100
0001
0010
0001
1000
0100
,
0000
0010
0001
1000
0000
0001
0100
0010
,
1000
0100
1000
0001
0000
0010
0100
1000
,
0000
0001
0100
0010
1000
0000
0100
0001
,
0010
0100
1000
0010
0000
1000
0100
0001
,
0000
0000
0010
0000
0001
0000
1000
0000
0001
0000
0100
0000
0010
0000
1000
0100
,
1000
0001
0010
0100
0000
0010
0001
1000
,
0020
0000
0000
0000
1000
0000
0000
0000
0130
0000
0000
0100
0001
0000
1000
0000
,
0001
0010
0000
0100
0000
1000
0010
1000
,
0100
0010
0000
0001
0000
0000
0000
1000
,
0001
0100
0010
1000
0000
1000
0100
0010
,
0001
1000
0000
0010
0000
1000
0100
0020
,
0000
0032
0000
2003
0000
3010
1000
0100
,
1000
0001
0000
0100
0000
0000
0000
0010
,
1000
0001
1000
0010
0000
0100
0001
0010
,
2000
0000
0002
3003
,
1001
0000
0000
0010
0000
0000
1000
0000
0000
0100
0000
0000
0010
0000
0000
0000
,
0001
0000
0000
0100
0000
0000
0001
0000
0000
1000
0000
0000
0010
0000
0000
0100
,
0001
0000
0000
0010
0000
0000
0100
0000
0000
1000
0000
0000
0010
0000
1000
0000
,
0001
0000
0000
0100
0000
0000
0001
0000
0000
1000
0000
0000
0010
0000
0000
0000
,
0102
1000
0100
1000
,
0023
0000
0000
0100
0000
0000
0100
0000
0000
0100
0000
0000
0230
0000
0000
0000
,
2300
3002
0023
0230
,
1000
0000
0001
0000
1300
0000
0100
0010
,
0001
0100
0010
1000
0000
0100
1000
0001
,
1000
0010
0100
0001
0000
1000
0010
1000
,
0100
0010
0001
1000
0000
0001
0100
0010
,
1000
0001
1000
0100
0000
0010
0001
0100
,
0001
0010
0100
1000
0000
0010
1000
0100
,
1000
0001
0010
0100
0000
1000
0100
0010
,
0001
0100
0010
0100
0000
0001
0010
0100
,
2000
0000
0000
0000
0010
0000
0000
0000
3001
0000
0000
1000
0001
0000
0100
0000
,
0020
0000
1030
0100
0000
1000
0001
0010
,
0100
1000
0010
1000
0000
0001
0100
0010
,
0100
0000
0001
0010
0000
0001
1000
0010
,
0100
0000
0001
1000
0001
0000
0010
0100
,
1000
0010
1000
0001
0010
0100
1000
0001
,
0100
0010
0100
0001
0000
1000
0100
0001
,
0010
0000
0100
1000
0000
0001
0100
0001
,
1000
0000
0000
0000
0010
0000
1000
0000
0100
0000
0000
0010
0001
0000
0100
0000
,
0110
0000
1001
1001
,
0010
1000
0100
1000
0010
0100
0001
1000
,
0100
0000
0001
0000
0100
0000
1000
0000
0010
0000
0100
0000
0001
0000
1000
0010
,
1000
0100
0010
0001
0100
1000
0100
0001
,
0100
0010
1000
0001
0010
0100
1000
0010
,
0100
0001
0010
0100
1000
0010
1000
0001
,
0100
0000
1000
0000
0100
0000
0001
0000
0100
0000
0010
0000
1000
0000
0001
0010
,
0001
0100
0010
1000
0100
0001
0100
1000
,
0010
0000
0100
0000
0001
0000
1000
0100
1000
0000
0000
0010
0100
0000
0001
0000
,
0010
0000
0000
0001
1000
0000
0000
0001
0100
0000
0010
0000
1000
0000
0100
0000
,
0001
0000
0100
0000
0010
0000
0100
0000
0001
0000
0100
0000
1000
0000
0010
0100
,
0010
0000
0000
1000
0001
0000
0000
1000
0100
0000
0010
0000
0001
0000
0100
0000
,
0010
0100
1000
0100
0001
1000
0010
0100
,
0001
0000
0000
0010
0100
0000
0000
1000
0010
0000
1000
0000
0001
0000
0100
0000
,
1000
0000
0010
0000
0100
0000
0001
0000
0010
0000
0100
0000
1000
0000
0001
0100
,
0001
0000
0010
0000
0100
0000
0000
1000
0001
0000
0100
0000
0010
0000
1000
0000
,
0100
0000
0001
0000
0100
0000
1000
0001
1000
0000
0000
0010
0100
0000
0001
0000
,
1000
0100
0010
0001
0100
1000
0100
0010
,
0100
1000
0100
0001
0000
0010
0001
1000
,
0100
0010
0001
0100
0001
1000
0010
0100
,
1000
0000
0100
0000
0001
0000
0000
0010
0001
0000
0000
1000
0010
0000
0100
0000
,
0001
0000
0010
0000
0100
0000
0000
1000
0001
0000
1000
0000
0010
0000
0100
0000
,
1000
0100
0010
1000
0100
0010
1000
0010
,
0110
0000
0001
0100
0010
1000
0000
0002
,
0000
2000
0000
0000
3003
0000
0010
0100
,
0001
0010
0100
1000
0010
1000
0100
0010
,
0001
0100
0001
1000
0000
0010
0100
0010
,
1000
0001
0010
0100
1000
0001
0100
0010
,
1000
0100
1000
0001
0000
0010
0100
1000
,
1010
0000
0100
0001
0011
0000
1000
0001
,
0010
0000
0100
0000
1000
0000
0010
0000
0000
0000
1000
0000
0001
0000
0100
0010
,
0100
0001
0010
1000
0010
0001
0100
0010
,
1000
0000
0100
0000
0010
0000
0000
0001
1000
0000
0010
0000
1000
0000
0001
0000
,
0100
1000
0100
0010
1000
0001
0010
0100
,
1000
0001
1000
0010
0000
0100
0001
0100
,
0010
1000
0001
0010
0100
0010
0001
1000
,
0001
0100
0010
1000
0000
0100
1000
0001
,
0101
0000
0010
1000
1100
0000
0001
0100
,
0001
0000
0010
0000
0100
0000
1000
0000
0000
0000
0001
0000
1000
0000
0100
0010
,
0100
1000
0001
0100
0010
1000
0100
0010
,
0000
0000
0001
0000
0001
0000
0001
0000
1000
0100
1000
0100
1000
0100
1000
0100
,
1000
0000
0001
0000
1000
0010
0100
0001
,
1001
0000
0010
0000
1000
0100
0010
0001
,
0101
0000
1000
0000
0001
1000
0010
0100
,
0110
0000
0000
0000
0010
0000
0000
0000
1000
0000
0001
0100
0001
0000
0010
0000
,
1001
0000
1000
0000
0100
1000
0001
0010
,
0011
0000
0100
0000
1000
0010
1000
0001
,
1100
0000
0010
0000
0001
1000
0001
0100
,
0101
0000
1100
0000
0010
1000
0001
0100
,
0110
0000
1000
0010
1000
0001
0010
0100
,
1100
0000
0000
0000
0010
0000
1000
0000
0001
0000
0010
0000
0100
0000
1000
0001
,
1000
0000
0010
1000
0001
0010
0001
0100
,
1010
0000
0000
0000
0100
0000
0001
0000
0010
0000
0001
1000
0001
0000
0100
0000
,
1010
0000
0001
0010
1000
0001
0100
1000
,
1001
0000
0000
0000
0010
0000
1000
0000
0001
0000
0010
0000
0001
0000
1000
0100
,
1000
0000
0001
0010
0001
0100
1000
0010
,
0101
0000
0000
0000
1100
0000
0000
0000
0101
0000
1000
0100
1000
0000
0001
0000
,
0100
0000
0010
0000
1000
0001
0000
0010
0001
0000
1000
0000
0010
0000
0100
0000
,
0001
0000
0010
0000
0100
1000
0000
0010
1000
0000
0001
0000
1000
0000
0100
0000
,
0010
0000
0001
0000
0100
0010
0000
1000
0001
0000
1000
0000
0100
0000
0010
0000
,
0100
0000
1000
0000
0010
0100
0000
0001
1000
0000
0010
0000
0100
0000
0001
0000
,
0010
0000
0100
0000
1000
0010
0000
1000
0001
0000
0010
0000
0100
0000
1000
0000
,
0010
0000
0100
0000
0010
1000
0000
0001
0100
0000
0010
0000
1000
0000
0100
0000
,
0010
0000
0001
0000
1000
0010
0000
0100
0010
0000
1000
0000
0001
0000
0100
0000
,
0001
0000
0010
0000
0001
0100
0000
0010
1000
0000
0000
0100
1000
0000
0001
0000
,
0010
0000
0100
0000
1000
0010
0000
0100
0001
0000
0010
0000
0001
0000
0100
0000
,
1000
0000
0001
0000
1000
0010
0000
0100
0001
0000
0010
0000
0100
0000
1000
0000
,
0010
0000
0100
0000
0010
1000
0000
0001
0010
0000
0100
0000
1000
0000
0100
0000
,
1000
0000
0001
0000
0010
0001
0000
1000
0001
0000
0100
0000
0010
0000
1000
0000
,
0100
0000
0010
0000
0001
0100
0000
0001
1000
0000
0010
0000
1000
0000
0001
0000
,
0100
0000
0010
0000
1000
0100
0000
0010
0001
0000
0100
0000
0001
0000
1000
0000
,
0010
0000
1000
0000
0100
0010
0000
0010
0001
0000
0100
0000
0010
0000
1000
0000
,
0001
0100
0001
0000
1000
0000
0010
0000
1000
0000
0100
0000
0010
0000
0001
0000
,
0100
0010
0000
1000
0000
0001
1000
0100
,
0010
0001
0000
0100
0000
0000
0000
0001
,
1000
0010
1000
0100
0000
0010
0001
0100
,
0001
0010
0000
0100
0000
1000
0010
2000
,
0000
3200
0000
0320
0000
0031
1000
0001
,
1000
0010
0000
0100
0000
0000
0000
0001
,
0010
0001
1000
0010
0000
1000
0100
0010
,
0002
0000
2000
3003
,
1001
0000
0000
0010
0000
0000
1000
0000
0000
0100
0000
0000
0001
0000
0000
0000
,
1000
0010
0100
0010
0000
1000
0100
0001
,
0010
0000
0000
0100
0000
0000
1000
0000
0000
0010
0000
0000
0001
0000
0000
0000
,
0100
0001
0010
0100
0000
1000
0001
0000
,
2100
0000
0010
0010
0000
0001
0001
0000
,
3200
0010
0000
0001
0000
1000
2300
0000
,
3002
2003
3020
0230
,
0301
0000
1000
0100
0000
1000
0010
0100
,
0001
0010
0100
1000
0000
0010
1000
0001
,
0010
0001
0100
1000
0000
0010
1000
0100
,
1000
0010
0001
0100
0000
0001
1000
0010
,
1000
0100
0010
0001
0000
0100
0010
1000
,
0001
0010
0001
0100
0000
1000
0100
1000
,
0001
0010
0100
1000
0000
0010
0100
0010
,
1000
0001
1000
0100
0000
0010
0001
0100
,
2000
0000
0000
0000
0010
0000
0000
0000
3001
0000
0000
1000
0001
0000
0100
0000
,
0020
0000
1030
0100
0001
0100
1000
0010
,
0100
0001
0010
0100
0000
1000
0001
1000
,
0010
0000
0100
0001
0000
0010
0001
1000
,
0100
0000
1000
0010
1000
0000
0001
0010
,
0100
1000
0001
1000
0000
0010
0100
0001
,
0010
0100
0010
0001
0000
1000
0100
0001
,
1000
0100
0010
0001
0000
0100
0001
0010
,
0100
0000
1000
0000
0010
0000
0100
0000
0001
0000
0000
1000
0001
0000
0100
0000
,
0010
1000
0001
1000
0000
0100
0010
0001
,
1000
0000
0100
0000
1000
0000
0001
0000
0000
0000
0010
0000
0100
0000
1000
0001
,
1000
0010
0001
0100
0000
0001
1000
0100
,
0010
0001
0100
0001
0000
1000
0100
1000
,
0010
1000
0001
1000
0000
0100
0010
0100
,
1000
0000
0010
0000
0100
0000
0001
0000
0000
0000
1000
0000
0001
0000
0010
0100
,
0010
0001
0100
1000
0000
0001
0010
1000
,
0100
0000
0010
0000
0001
0000
1000
0100
1000
0000
0000
0001
0100
0000
0010
0000
,
1000
0010
1000
0001
0010
0100
1000
0000
,
0001
0000
0010
0000
0001
0000
0100
0000
1000
0000
0010
0000
0001
0000
1000
0100
,
1000
0010
1000
0100
0010
0001
0100
0000
,
0001
0000
0010
0000
0001
0000
1000
0000
0010
0000
0000
0100
0010
0000
1000
0000
,
0001
0000
0010
0000
0001
0000
0100
0000
0010
0000
0000
1000
0100
0000
0010
0000
,
0001
0000
1000
0000
0001
0000
0100
0000
0000
0000
0010
0000
1000
0000
0001
0100
,
0001
0010
1000
0001
1000
0100
0010
0000
,
0001
0000
0100
0000
0001
0000
1000
0010
1000
0000
0000
0100
0010
0000
0001
0000
,
1000
0010
1000
0001
0000
0100
0010
1000
,
0000
0100
1000
0001
0000
0010
0001
0100
,
0000
0001
0010
1000
0000
0100
1000
0001
,
0000
0010
0001
0100
0000
0001
0010
1000
,
0100
1000
0100
0010
0000
0001
0100
0001
,
0000
1000
0001
1000
0000
0010
0100
0001
,
0000
0010
0100
1000
0000
0010
1000
0001
,
0000
0000
1000
0000
0100
0000
0010
0000
0001
0000
0000
0001
1000
0000
0001
0000
,
0100
0010
0100
0010
1000
0010
1000
0010
,
1000
0100
1000
0100
0010
0001
0010
0001
,
0100
0001
0100
0001
0010
0100
0010
0100
,
1000
0010
1000
0010
1000
0001
1000
0001
,
0100
0010
1000
0001
0000
0010
0000
0100
,
0000
1000
0100
1000
0000
0001
0000
0100
,
0010
1000
0001
1000
0000
0100
0000
0010
,
0001
0000
0100
0000
0010
0000
1000
0000
0001
0000
0000
1000
0010
0000
0100
0000
,
0010
0110
0000
0100
0001
0011
0000
1000
,
0001
1010
0000
0100
0010
0110
0000
1000
,
0100
1100
0000
0010
0001
0011
0000
1000
,
0001
1001
0000
1000
0100
0010
0001
1000
,
0010
0110
0000
0100
0010
1000
0001
0000
,
1000
1100
0000
0010
0001
0101
0000
1000
,
0001
1010
0000
0100
0010
0110
0000
0100
,
0001
0000
0010
0000
0000
0000
0100
0000
1000
0000
0000
0010
1000
0000
0001
0000
,
0100
0010
1000
0001
1000
0100
0010
0000
,
0001
0100
0001
0010
0001
0100
1000
0000
,
0010
1000
0100
1000
0001
0010
0100
0000
,
1000
0010
1000
0001
0010
0100
1000
0001
,
0100
0010
0000
1000
0001
0010
0000
0001
,
0100
0010
0000
1000
0100
0001
0000
1000
,
0010
0100
0000
0010
1000
0001
0000
0100
,
0010
0000
1000
0000
0000
0000
0000
0000
0110
0000
0000
1000
0001
0000
0100
0000
,
1001
0000
0000
0000
;
