#VERSION:0.83;
#TITLE:SHAKE YOUR BOOTY;
#SUBTITLE:;
#ARTIST:KC & THE SUNSHINE BAND;
#TITLETRANSLIT:;
#SUBTITLETRANSLIT:;
#ARTISTTRANSLIT:;
#GENRE:;
#ORIGIN:;
#CREDIT:;
#BANNER:SHAKE YOUR BOOTY-bn.png;
#BACKGROUND:SHAKE YOUR BOOTY-bg.png;
#PREVIEWVID:;
#JACKET:SHAKE YOUR BOOTY-jacket.png;
#CDIMAGE:;
#DISCIMAGE:;
#LYRICSPATH:;
#CDTITLE:;
#MUSIC:SHAKE YOUR BOOTY.ogg;
#OFFSET:0.000000;
#SAMPLESTART:36.182999;
#SAMPLELENGTH:20.000000;
#SELECTABLE:YES;
#DISPLAYBPM:112.000000:113.000000;
#BPMS:0.000=112.819,
24.000=112.667,
48.000=112.070,
64.000=111.812,
80.000=111.699,
100.000=112.342,
144.000=111.942,
152.000=112.290;
#STOPS:;
#DELAYS:;
#WARPS:;
#TIMESIGNATURES:0.000=4=4;
#TICKCOUNTS:0.000=4;
#COMBOS:0.000=1;
#SPEEDS:0.000=1.000=0.000=0;
#SCROLLS:0.000=1.000;
#FAKES:;
#LABELS:0.000=Song Start;
#BGCHANGES:16.000=SHAKE YOUR BOOTY.mp4=1.000=1=0=0=StretchNoLoop==CrossFade==,
99999=-nosongbg-=1.000=0=0=0 // don't automatically add -songbackground-
;
#KEYSOUNDS:;
#ATTACKS:
;

//---------------dance-single - ----------------
#NOTEDATA:;
#CHARTNAME:;
#STEPSTYPE:dance-single;
#DESCRIPTION:;
#CHARTSTYLE:;
#DIFFICULTY:Easy;
#METER:5;
#RADARVALUES:0.188971,0.224110,0.021864,0.000000,0.000000,121.000000,119.000000,2.000000,0.000000,0.000000,0.000000,0.000000,0.000000,0.000000,0.188971,0.224110,0.021864,0.000000,0.000000,121.000000,119.000000,2.000000,0.000000,0.000000,0.000000,0.000000,0.000000,0.000000;
#CREDIT:;
#DISPLAYBPM:112.000000;
#NOTES:
0000
0000
0000
0000
,
0000
0000
0000
0000
,
0000
0000
0000
0000
,
0010
0000
0000
0000
,
0010
0000
0000
0010
,
1000
0000
0000
0000
,
1000
0000
0000
0000
,
0001
0000
0000
0000
,
0001
0000
0000
0000
,
0001
0000
0000
1000
,
1000
0001
0000
0010
,
0010
0000
0001
1000
,
0001
0001
1000
1000
,
0001
0000
0000
0010
,
1000
0010
0100
0100
,
0010
0000
0001
0001
,
0001
0000
0010
0000
,
0010
0010
0100
0001
,
0010
0010
0100
1000
,
0010
0001
0010
0001
,
0001
0100
0001
0100
,
0010
0010
1000
0100
,
0010
0010
0100
0001
,
0001
1000
0100
0100
,
0001
1000
0010
0010
,
0010
0000
0010
0000
,
0100
0000
0100
0000
,
0010
0100
0010
0100
,
0001
0010
1000
1001
,
0100
0000
0100
0000
,
0010
0000
0010
0000
,
0100
0010
0100
0010
,
1000
0100
0001
1001
,
0010
0010
0100
1000
,
0010
0010
0001
1000
,
0100
1000
0100
1000
,
1000
0010
1000
0010
,
0010
0010
0100
0001
,
0010
0010
0100
1000
,
0001
0001
1000
1000
,
0010
0001
0100
1000
,
0001
0000
0000
0000
;

//---------------dance-single - ----------------
#NOTEDATA:;
#CHARTNAME:;
#STEPSTYPE:dance-single;
#DESCRIPTION:;
#CHARTSTYLE:;
#DIFFICULTY:Medium;
#METER:7;
#RADARVALUES:0.238946,0.313754,0.240508,0.000000,0.000000,153.000000,131.000000,22.000000,0.000000,0.000000,0.000000,0.000000,0.000000,0.000000,0.238946,0.313754,0.240508,0.000000,0.000000,153.000000,131.000000,22.000000,0.000000,0.000000,0.000000,0.000000,0.000000,0.000000;
#CREDIT:;
#DISPLAYBPM:112.000000;
#NOTES:
0000
0000
0000
0000
,
0000
0000
0000
0000
,
0000
0000
0000
0000
,
0010
0000
0000
0000
,
0010
0000
0000
1000
,
0001
0000
0000
0000
,
1000
0000
0000
0000
,
1000
0000
0000
0000
,
0001
0000
0000
0000
,
0010
0100
0010
0000
0000
0000
0000
0000
,
0100
0010
0100
0000
0000
0000
0001
0000
,
1001
0000
0000
0100
,
0100
0000
0000
0000
,
0001
0100
0001
0000
0000
0000
0000
0000
,
1000
0010
1000
0000
0010
0000
0000
0000
,
0110
0000
0000
0001
,
0000
0000
0100
0100
,
0001
0100
0001
0000
0001
0100
1000
0000
,
1000
0010
1000
0000
1000
0010
0001
0000
,
1100
1100
0001
0001
,
0011
0011
0100
0100
,
1000
0010
1000
0000
1000
0010
0001
0000
,
0001
0100
0001
0000
0001
0100
1000
0000
,
0011
0011
1000
1000
,
1100
1100
0010
0010
,
0100
0000
0000
0110
0000
0000
0000
0000
,
1000
0000
0000
1001
0000
0000
0010
0001
,
0100
0000
0000
0000
,
0001
1000
0001
1000
,
0010
0000
0000
1100
0000
0000
0000
0000
,
0001
0000
0000
0011
0000
0000
0001
1000
,
0100
0000
0000
0000
,
0010
0100
0010
0100
,
0010
0100
0010
0000
0001
1000
0100
0000
,
1000
0001
1000
0000
0010
0100
0001
0000
,
1001
1001
0100
0100
,
1001
1001
0010
0010
,
1000
0010
1000
0000
1000
0100
0001
0000
,
0001
0100
0001
0000
0001
0010
1000
0000
,
0011
1100
0010
0010
,
1100
0011
0100
0100
,
0010
0000
0000
0000
;

//---------------dance-single - ----------------
#NOTEDATA:;
#CHARTNAME:;
#STEPSTYPE:dance-single;
#DESCRIPTION:;
#CHARTSTYLE:;
#DIFFICULTY:Hard;
#METER:10;
#RADARVALUES:0.385750,0.448220,0.546609,0.000000,0.174915,247.000000,197.000000,50.000000,0.000000,0.000000,0.000000,0.000000,0.000000,0.000000,0.385750,0.448220,0.546609,0.000000,0.174915,247.000000,197.000000,50.000000,0.000000,0.000000,0.000000,0.000000,0.000000,0.000000;
#CREDIT:;
#DISPLAYBPM:112.000000;
#NOTES:
0000
0000
0000
0000
,
0000
0000
0000
0000
,
0000
0000
0000
0000
,
0010
0010
0001
0001
,
0100
0100
0010
0100
,
0011
0100
0100
1000
,
1100
0010
0100
0010
,
0001
0001
1000
1000
,
0110
0100
0010
0100
,
1000
0000
0100
0000
0010
0001
0000
0000
0100
0000
0010
0000
1000
0000
0000
0000
,
0100
0000
0010
0000
0001
0100
0000
0000
0010
0000
1000
0000
0100
0000
0000
0000
,
0010
0000
0001
0000
0100
0010
0000
0000
1000
0000
0100
0000
0001
0000
0000
0000
,
0100
0000
0010
0000
1000
0100
0000
0000
0010
0000
0001
0000
0110
0000
0000
0000
,
0001
0000
0100
0000
0010
1000
0000
0000
0100
0000
0010
0000
0001
0000
0000
0000
,
0100
0000
0010
0000
1000
0100
0000
0000
0010
0000
0001
0000
0100
0000
0000
0000
,
0100
0000
1000
0000
0010
0100
0000
0000
0001
0000
0010
0000
1000
0000
0000
0000
,
0010
0000
0100
0000
0001
0010
0000
0000
0100
0000
1000
0000
0010
0000
0000
0000
,
0011
0001
0011
0000
0101
0000
0100
0000
,
1100
1000
1100
0000
1010
0000
0010
0000
,
0000
0000
0000
0001
0000
0000
0001
0000
0001
0010
0001
0010
0000
0000
0000
0000
,
0000
0000
0000
1000
0000
0000
1000
0000
1000
0100
1000
0100
0000
0000
0000
0000
,
0100
1100
1100
0000
0110
0000
0100
0000
,
0010
0011
0011
0000
1001
0000
1000
0000
,
0000
0000
0000
0010
0000
0000
0010
0000
1000
0100
1000
0010
0000
0000
0000
0000
,
0000
0000
0000
0100
0000
0000
0100
0000
0001
0010
0001
0100
0000
0000
0000
0000
,
1010
0000
0000
0101
0000
0000
0000
0000
,
0011
0000
0000
1100
0000
0000
1001
1001
,
0110
0000
0000
0000
0000
0000
0010
0011
,
0001
0000
1001
0000
0010
0110
0100
0000
,
1001
0000
0000
0110
0000
0000
0000
0000
,
0011
0000
0000
1100
0000
0000
1001
0110
,
1001
0000
0000
0000
0000
0000
0010
0110
,
0100
0000
1010
0000
0100
0110
0101
0000
,
1010
1000
1100
0000
1100
0000
0100
0000
,
0101
0001
0011
0000
0011
0000
0010
0000
,
0000
0000
0000
0100
0000
0000
0100
0000
0100
1000
0010
1000
0000
0000
0000
0000
,
0000
0000
0000
0010
0000
0000
0010
0000
0010
0001
0100
0001
0000
0000
0000
0000
,
0010
0011
0011
0000
0110
0000
0010
0000
,
0100
1100
1100
0000
1001
0000
0001
0000
,
0000
0000
0000
0100
0000
0000
0100
0000
0001
0010
0001
0100
0000
0000
0000
0000
,
0000
0000
0000
0010
0000
0000
0010
0000
1000
0100
1000
0010
0000
0000
0000
0000
,
1100
0000
0000
0000
;

//---------------dance-double - ----------------
#NOTEDATA:;
#CHARTNAME:;
#STEPSTYPE:dance-double;
#DESCRIPTION:;
#CHARTSTYLE:;
#DIFFICULTY:Easy;
#METER:5;
#RADARVALUES:0.221767,0.291343,0.218644,0.000000,0.000000,142.000000,122.000000,20.000000,0.000000,0.000000,0.000000,0.000000,0.000000,0.000000,0.221767,0.291343,0.218644,0.000000,0.000000,142.000000,122.000000,20.000000,0.000000,0.000000,0.000000,0.000000,0.000000,0.000000;
#CREDIT:;
#DISPLAYBPM:112.000000;
#NOTES:
00000000
00000000
00000000
00000000
,
00000000
00000000
00000000
00000000
,
00000000
00000000
00000000
00000000
,
00100000
00000000
00000000
00000000
,
00100000
00000000
00000000
00001000
,
00010000
00000000
00000000
00000000
,
00000100
00000000
00000000
00000000
,
00000100
00000000
00000000
00000000
,
00000010
00000000
00000000
00000000
,
00001000
00000001
00000000
00000100
,
00010000
00001000
00000000
00001000
,
01010000
00000000
00000000
00100000
,
00100000
00100000
10000000
10000000
,
00010000
01000000
00000000
00001000
,
00010000
00001000
00010000
00010000
,
00001100
00000000
00000000
00000001
,
00000001
00000001
00001000
00001000
,
00000010
00000010
00010000
00001000
,
00010000
00010000
00001000
00100000
,
10010000
10010000
10000000
00010000
,
01100000
01100000
10000000
00010000
,
00100000
00100000
00001000
00010000
,
00001000
00001000
00010000
00000010
,
00000110
00000110
00000001
00001000
,
00001001
00001001
00000001
00001000
,
00000010
00000000
00000010
00000000
,
00000100
00000000
00000100
00010000
,
00001000
00010000
00001000
01000000
,
00010000
01000000
00010000
10010000
,
00100000
00000000
00100000
00000000
,
01000000
00000000
01000000
00000000
,
00010000
00100000
00010000
00100000
,
00001000
00010000
00001000
00011000
,
00000010
00000010
00000100
00000001
,
00001000
00001000
00000100
00010000
,
00011000
00011000
00100000
01000000
,
10010000
10010000
00010000
01000000
,
00001000
00001000
00010000
00000010
,
00001000
00001000
00000001
00000100
,
00000110
00000110
00001000
00000100
,
00011000
00011000
00100000
01000000
,
00010000
00000000
00000000
00000000
;

//---------------dance-double - ----------------
#NOTEDATA:;
#CHARTNAME:;
#STEPSTYPE:dance-double;
#DESCRIPTION:;
#CHARTSTYLE:;
#DIFFICULTY:Medium;
#METER:7;
#RADARVALUES:0.285799,0.291343,0.098390,0.000000,0.000000,183.000000,174.000000,9.000000,0.000000,0.000000,0.000000,0.000000,0.000000,0.000000,0.285799,0.291343,0.098390,0.000000,0.000000,183.000000,174.000000,9.000000,0.000000,0.000000,0.000000,0.000000,0.000000,0.000000;
#CREDIT:;
#DISPLAYBPM:112.000000;
#NOTES:
00000000
00000000
00000000
00000000
,
00000000
00000000
00000000
00000000
,
00000000
00000000
00000000
00000000
,
00000010
00000000
00000010
00000100
00000010
00000000
00000000
00000000
,
00001000
00000000
00001000
00000001
00001000
00000000
00000100
00000000
,
00010000
00000000
00010000
00001000
00010000
00000000
00000000
00000000
,
00100000
00000000
00100000
00010000
00100000
00000000
01000000
00000000
,
00010000
00000000
00010000
10000000
00010000
00000000
00000000
00000000
,
10000000
00000000
10000000
01000000
10000000
00000000
00010000
00000000
,
10000000
00100000
01000000
00000000
00010000
00000000
01000000
00000000
,
01000000
00001000
00010000
00000000
00001000
00000000
00010000
00000000
,
00001100
00000000
00000000
00000001
,
00000001
00000001
00001000
00001000
,
00000100
00010000
00001000
00000000
00010000
00000000
00001000
00000000
,
00010000
00100000
01000000
00000000
10000000
00000000
10000000
00000000
,
01010000
00000000
00000000
00001000
,
00010000
00000000
00010000
00000000
00000010
00001000
00000100
00000000
,
00000010
00000001
00000010
00000000
00001000
00000000
00000100
00000000
,
00010000
00001000
00010000
00000000
00100000
00000000
01000000
00000000
,
00010000
00000000
00010000
00000000
10000000
01000000
00010000
00000000
,
10000000
00000000
10000000
00000000
00010000
01000000
10000000
00000000
,
10000000
00100000
10000000
00000000
00010000
01000000
00001000
00000000
,
00010000
00001000
00010000
00000000
00000010
00000100
00000001
00000000
,
00001000
00000000
00001000
00000000
00000100
00010000
00001000
00000000
,
00010000
00000000
00010000
00000000
00001000
00100000
01000000
00000000
,
00100000
00000000
00000000
01100000
00000000
00000000
00000000
00000000
,
00001000
00000000
00000000
00011000
00000000
00000000
00000010
00000100
,
00000010
00000000
00000000
00001000
,
00000001
00000100
00000010
00001000
00000100
00000000
00011000
00000000
,
00100000
00000000
00000000
01010000
00000000
00000000
00000000
00000000
,
00100000
00000000
00000000
11000000
00000000
00000000
00100000
00010000
,
00100000
00000000
00000000
01000000
,
00001000
01000000
00001000
00010000
00000010
00000000
00001001
00000000
,
00000010
00000001
00000010
00000000
00001000
00000000
00000100
00000000
,
00010000
00001000
00010000
00000000
00100000
00000000
01000000
00000000
,
00010000
00000000
00010000
00000000
10000000
01000000
00010000
00000000
,
10000000
00000000
10000000
00000000
00010000
01000000
10000000
00000000
,
10000000
00100000
10000000
00000000
00010000
01000000
00001000
00000000
,
00010000
00001000
00010000
00000000
00000010
00000100
00000001
00000000
,
00001000
00000000
00001000
00000000
00000100
00010000
00001000
00000000
,
00010000
00001000
00010000
00000000
00001000
00100000
01000000
00000000
,
10010000
00000000
00000000
00000000
;

//---------------dance-double - ----------------
#NOTEDATA:;
#CHARTNAME:;
#STEPSTYPE:dance-double;
#DESCRIPTION:;
#CHARTSTYLE:;
#DIFFICULTY:Hard;
#METER:10;
#RADARVALUES:0.357639,0.358576,0.153051,0.000000,0.120254,229.000000,215.000000,14.000000,0.000000,0.000000,0.000000,0.000000,0.000000,0.000000,0.357639,0.358576,0.153051,0.000000,0.120254,229.000000,215.000000,14.000000,0.000000,0.000000,0.000000,0.000000,0.000000,0.000000;
#CREDIT:;
#DISPLAYBPM:112.000000;
#NOTES:
00000000
00000000
00000000
00000000
,
00000000
00000000
00000000
00000000
,
00000000
00000000
00000000
00000000
,
10000000
00000000
00100000
00000000
01000000
00010000
00000000
00000000
00100000
00000000
00000000
00000000
00001000
00000000
00000000
00000000
,
00010000
00000000
00000100
00000000
00000010
00000001
00000000
00000000
00000100
00000000
00000000
00000000
00001001
00000000
00000000
00000000
,
00000001
00000000
00000010
00000000
00000100
00001000
00000000
00000000
00000010
00000000
00000000
00000000
00010000
00000000
00000000
00000000
,
00001000
00000000
00100000
00000000
01000000
10000000
00000000
00000000
00100000
00000000
00000000
00000000
10000000
00000000
00000000
00000000
,
01000000
00000000
00100000
00000000
00010000
01000000
00000000
00000000
00001000
00000000
00000000
00000000
00010000
00000000
00000000
00000000
,
00000100
00000000
00000010
00000000
00000001
00000100
00000000
00000000
00000010
00000000
00000000
00000000
00001001
00000000
00000000
00000000
,
00000001
00000000
00000000
00000000
00000001
00001000
00000000
00000000
00000010
00000000
00010000
00000000
00001000
00000000
00000000
00000000
,
10000000
00000000
00000000
00000000
10000000
00010000
00000000
00000000
00100000
00000000
00001000
00000000
00010000
00000000
00000000
00000000
,
00001010
00000000
00000001
00000000
00000001
00000100
00001000
00000000
,
00100000
00100000
01000000
01000000
,
10000000
00000000
00000000
00000000
10000000
00010000
00000000
00000000
00100000
00000000
00001000
00000000
00010000
00000000
00000000
00000000
,
01000000
00000000
00000000
00000000
01000000
00001000
00000000
00000000
00000010
00000000
00000100
00000000
00001000
00000000
00000000
00000000
,
00000101
00000000
00000010
00000000
00000010
00010000
01000000
00000000
,
00100000
00100000
01000000
10010000
,
00100000
00000000
10000000
00000000
00100000
00000000
00000000
00000000
10000000
01000000
00010000
00000000
00001000
00000000
00000000
00000000
,
00010000
00000000
00001000
00000000
00010000
00000000
00000000
00000000
00000100
00000010
00000001
00000000
00000010
00000000
00000000
00000000
,
00001000
00001000
00001000
00000000
00000001
00000100
00001000
00000000
,
00010000
00010000
00010000
00000000
00001000
00100000
01000000
00000000
,
10000000
00000000
00100000
00000000
10000000
00000000
00000000
00000000
00100000
01000000
00001000
00000000
00010000
00000000
00000000
00000000
,
00010000
00000000
00001000
00000000
00010000
00000000
00000000
00000000
00000100
00000010
00000001
00000000
00000010
00000000
00000000
00000000
,
00001000
00001000
00001000
00000000
00000001
00000100
00001000
00000000
,
00010000
00010000
00010000
00001000
00100000
01000000
00000000
00000000
,
11000000
00000000
00000000
00110000
00000000
00000000
00000000
00000000
,
00011000
00000000
00000000
00000110
00000000
00000000
00000001
00001000
,
00000100
00000000
00000000
00000000
,
00000010
00000100
00001000
00000010
00010000
00001000
00100000
00000000
,
10100000
00000000
00000000
01010000
00000000
00000000
00000000
00000000
,
00011000
00000000
00000000
00000110
00000000
00000000
00000001
00001000
,
00000010
00000000
00000000
00000000
,
00010000
00001000
01000000
00100000
10000000
01000000
00100000
00000000
,
00001000
00000000
00010000
00000000
00001000
00000000
00000000
00000000
00000010
00000001
00000100
00000000
00000010
00000000
00000000
00000000
,
00010000
00000000
00001000
00000000
00010000
00000000
00000000
00000000
00100000
10000000
01000000
00000000
00100000
00000000
00000000
00000000
,
00001000
00000000
00010000
00000000
00001000
00000000
00010000
00000000
00000010
00000100
00000000
00000000
00000001
00000000
00000000
00000000
,
00001000
00000000
00000100
00000000
00001000
00000000
00000100
00000000
00010000
00001000
00000000
00000000
10000000
00000000
00000000
00000000
,
00100000
00000000
01000000
00000000
00100000
00000000
00000000
00000000
10000000
01000000
00010000
00000000
00001000
00000000
00000000
00000000
,
00000100
00000000
00001000
00000000
00000100
00000000
00000000
00000000
00010000
00001000
00100000
00000000
01000000
00000000
00000000
00000000
,
10000000
00000000
00100000
00000000
01000000
00000000
00001000
00000000
00010000
00000100
00000000
00000000
00000010
00000000
00000000
00000000
,
00000001
00000000
00000100
00000000
00001000
00000000
00010000
00000000
01000000
10000000
00000000
00000000
00010000
00000000
00000000
00000000
,
00011000
00000000
00000000
00000000
;

//---------------dance-couple - ----------------
#NOTEDATA:;
#CHARTNAME:;
#STEPSTYPE:dance-couple;
#DESCRIPTION:;
#CHARTSTYLE:;
#DIFFICULTY:Challenge;
#METER:3;
#RADARVALUES:0.238946,0.313754,0.262372,0.000000,0.043729,153.000000,129.000000,24.000000,0.000000,0.000000,0.000000,0.000000,0.000000,0.000000,0.238946,0.336165,0.262372,0.000000,0.043729,153.000000,129.000000,24.000000,0.000000,0.000000,0.000000,0.000000,0.000000,0.000000;
#CREDIT:;
#DISPLAYBPM:112.000000;
#NOTES:
00000000
00000000
00000000
00000000
,
00000000
00000000
00000000
00000000
,
00000000
00000000
00000000
00000000
,
10000001
00000000
01000000
00000000
00100000
00010000
00000000
00000000
01000001
00000000
00000000
00000000
10000000
00000000
00000000
00000000
,
01000001
00000000
00100000
00000000
00010000
01000000
00000000
00000000
00100001
00000000
00000000
00000000
01000000
00000000
00000000
00000000
,
10001000
00000000
00000100
00000000
00000010
00000001
00000000
00000000
10000100
00000000
00000000
00000000
00001000
00000000
00000000
00000000
,
10000100
00000000
00000010
00000000
00000001
00000100
00000000
00000000
10000010
00000000
00000000
00000000
00000100
00000000
00000000
00000000
,
00100010
00000000
00010001
00000000
01000100
00100010
00000000
00000000
10001000
00000000
00000000
00000000
00010001
00000000
00000000
00000000
,
01000100
00000000
00100010
00000000
10001000
01000100
00000000
00000000
00100010
00000000
00000000
00000000
01000100
00000000
00000000
00000000
,
01000001
00100000
01000000
00000000
00010001
00000000
00100000
00000000
,
10000100
00000010
00000100
00000000
10000001
00000000
00000010
00000000
,
10011001
01000100
00000000
01000100
,
01000100
00000000
00000000
00000000
,
00100001
00000100
00000001
00000000
00101000
00000000
00000010
00000000
,
00010010
01000000
00010000
00000000
10000010
00000000
00100000
00000000
,
01100110
00000000
00000000
00010001
,
00000000
00000000
01000100
01000100
,
10000001
00100000
10000000
00000000
00100001
00000000
01100000
00000000
,
00010001
01000000
00010000
00000000
01000001
00000000
01100000
00000000
,
10001000
00000010
00001000
00000000
10000010
00000000
00000110
00000000
,
10000001
00000100
00000001
00000000
10000100
00000000
00000110
00000000
,
00010010
01000000
00010000
00000000
00010010
01000000
00100000
00000000
,
00100001
00000100
00000001
00000000
00100001
00000100
00000010
00000000
,
00110011
00110011
10001000
01000100
,
11001100
11001100
00010001
00100010
,
01000000
00000000
00000000
01100000
00000000
00000000
00000000
00000000
,
00000100
00000000
00000000
00000110
00000000
00000000
00100010
00010001
,
01000100
00000000
00000000
00100010
,
00010001
11000000
00001100
00000000
,
00001001
00000000
00000000
00000110
00000000
00000000
00000000
00000000
,
10010000
00000000
00000000
01100000
00000000
00000000
10011001
01100110
,
10011001
00000000
00000000
00100010
,
00010001
00000011
00110000
00000000
,
10100001
10000000
11000000
00000000
11000001
00000000
00100000
00000000
,
10000011
00000001
00000101
00000000
10000101
00000000
00000010
00000000
,
00000001
00000000
00000000
01000000
00000000
00000000
01000000
00000000
01000001
10000000
00100000
00000000
10000000
00000000
00000000
00000000
,
10000000
00000000
00000000
00000100
00000000
00000000
00000100
00000000
10000100
00001000
00000010
00000000
00001000
00000000
00000000
00000000
,
10000010
00001010
00001010
00000000
10000110
00000000
00000010
00000000
,
00100001
00110000
00110000
00000000
01100001
00000000
00100000
00000000
,
10010000
00000000
00000000
00000000
00001001
00000000
00000000
00000000
00100010
00010001
01000100
00000000
00010001
00000000
00000000
00000000
,
00001001
00000000
00000000
00000000
10010000
00000000
00000000
00000000
00100010
10001000
01000100
00000000
10001000
00000000
00000000
00000000
,
00100010
00000000
00000000
00000000
;

//---------------dance-solo - ----------------
#NOTEDATA:;
#CHARTNAME:;
#STEPSTYPE:dance-solo;
#DESCRIPTION:;
#CHARTSTYLE:;
#DIFFICULTY:Easy;
#METER:3;
#RADARVALUES:0.188971,0.224110,0.021864,0.000000,0.000000,121.000000,119.000000,2.000000,0.000000,0.000000,0.000000,0.000000,0.000000,0.000000,0.188971,0.224110,0.021864,0.000000,0.000000,121.000000,119.000000,2.000000,0.000000,0.000000,0.000000,0.000000,0.000000,0.000000;
#CREDIT:;
#DISPLAYBPM:112.000000;
#NOTES:
000000
000000
000000
000000
,
000000
000000
000000
000000
,
000000
000000
000000
000000
,
000100
000000
000000
000000
,
000100
000000
000000
000100
,
010000
000000
000000
000000
,
010000
000000
000000
000000
,
000001
000000
000000
000000
,
000001
000000
000000
000000
,
000100
000000
000000
100000
,
100000
000010
000000
000100
,
000100
000000
000001
100000
,
000010
000010
010000
010000
,
000010
000000
000000
000100
,
010000
000100
001000
001000
,
000010
000000
000001
000001
,
000001
000000
000100
000000
,
100000
100000
001000
000010
,
000001
000001
001000
010000
,
000010
000100
000010
000100
,
000001
001000
000001
001000
,
000001
000001
000100
010000
,
100000
100000
001000
000001
,
000001
100000
001000
001000
,
000010
010000
000100
000100
,
000100
000000
000100
000000
,
001000
000000
001000
000000
,
000100
001000
000100
001000
,
000001
000100
100000
100001
,
001000
000000
001000
000000
,
000100
000000
000100
000000
,
010000
000010
010000
000010
,
000100
000010
010000
010010
,
000001
000001
001000
100000
,
100000
100000
000001
100000
,
001000
100000
001000
100000
,
000100
010000
000100
010000
,
100000
100000
001000
000001
,
000010
000010
010000
001000
,
000001
000001
100000
010000
,
000100
000001
001000
100000
,
000001
000000
000000
000000
;

//---------------dance-solo - ----------------
#NOTEDATA:;
#CHARTNAME:;
#STEPSTYPE:dance-solo;
#DESCRIPTION:;
#CHARTSTYLE:;
#DIFFICULTY:Medium;
#METER:5;
#RADARVALUES:0.238946,0.313754,0.240508,0.000000,0.000000,153.000000,131.000000,22.000000,0.000000,0.000000,0.000000,0.000000,0.000000,0.000000,0.238946,0.313754,0.240508,0.000000,0.000000,153.000000,131.000000,22.000000,0.000000,0.000000,0.000000,0.000000,0.000000,0.000000;
#CREDIT:;
#DISPLAYBPM:112.000000;
#NOTES:
000000
000000
000000
000000
,
000000
000000
000000
000000
,
000000
000000
000000
000000
,
000100
000000
000000
000000
,
000100
000000
000000
100000
,
000010
000000
000000
000000
,
010000
000000
000000
000000
,
100000
000000
000000
000000
,
000001
000000
000000
000000
,
000100
001000
000100
000000
000000
000000
000000
000000
,
001000
000100
001000
000000
000000
000000
000001
000000
,
010010
000000
000000
001000
,
001000
000000
000000
000000
,
000001
001000
000001
000000
000000
000000
000000
000000
,
100000
000100
100000
000000
000100
000000
000000
000000
,
001100
000000
000000
000010
,
000000
000000
001000
001000
,
000001
001000
000001
000000
000001
001000
100000
000000
,
010000
000100
010000
000000
010000
000100
000001
000000
,
101000
101000
000010
000010
,
000110
000110
100000
100000
,
000100
100000
000100
000000
000100
001000
000001
000000
,
000010
000100
000010
000000
000001
001000
100000
000000
,
000101
000101
100000
100000
,
010100
010100
001000
001000
,
000010
000000
000000
001100
000000
000000
000000
000000
,
010000
000000
000000
010010
000000
000000
000100
000001
,
001000
000000
000000
000000
,
100000
000001
010000
000010
,
010000
000000
000000
101000
000000
000000
000000
000000
,
000010
000000
000000
000101
000000
000000
000001
100000
,
001000
000000
000000
000000
,
000100
001000
000100
001000
,
000100
001000
000100
000000
000001
100000
001000
000000
,
010000
000010
010000
000000
000100
001000
000001
000000
,
100001
100001
000100
000100
,
010010
010010
000001
000001
,
100000
000100
100000
000000
100000
001000
000001
000000
,
000001
001000
000001
000000
000001
000100
100000
000000
,
000110
100100
000100
000100
,
010100
000101
001000
001000
,
000100
000000
000000
000000
;

//---------------dance-solo - ----------------
#NOTEDATA:;
#CHARTNAME:;
#STEPSTYPE:dance-solo;
#DESCRIPTION:;
#CHARTSTYLE:;
#DIFFICULTY:Hard;
#METER:7;
#RADARVALUES:0.376380,0.403398,0.349830,0.000000,0.163983,241.000000,209.000000,32.000000,0.000000,0.000000,0.000000,0.000000,0.000000,0.000000,0.376380,0.403398,0.349830,0.000000,0.163983,241.000000,209.000000,32.000000,0.000000,0.000000,0.000000,0.000000,0.000000,0.000000;
#CREDIT:;
#DISPLAYBPM:112.000000;
#NOTES:
000000
000000
000000
000000
,
000000
000000
000000
000000
,
000000
000000
000000
000000
,
000001
000000
001000
000000
000010
000100
000000
000000
000001
000000
000000
000000
001000
000000
000000
000000
,
010000
000000
000100
000000
001000
100000
000000
000000
000001
000000
000000
000000
001000
000000
000000
000000
,
001000
000000
000010
000000
000100
000001
000000
000000
001000
000000
000000
000000
100000
000000
000000
000000
,
000001
000000
001000
000000
000010
000100
000000
000000
000001
000000
000000
000000
001000
000000
000000
000000
,
010000
000000
000100
000000
001000
100000
000000
000000
000001
000000
000000
000000
001000
000000
000000
000000
,
001000
000000
000010
000000
000100
000001
000000
000000
001000
000000
000000
000000
100000
000000
000000
000000
,
100000
000000
001000
000000
000100
000010
000000
000000
001000
000000
000100
000000
010000
000000
000000
000000
,
001000
000000
000100
000000
000010
000100
000000
000000
001000
000000
100000
000000
001000
000000
000000
000000
,
000100
000000
000010
000000
001000
000100
000000
000000
010000
000000
001000
000000
000001
000000
000000
000000
,
001000
000000
000100
000000
010000
000100
000000
000000
001000
000000
000001
000000
001100
000000
000000
000000
,
000010
000000
001000
000000
000100
100000
000000
000000
001000
000000
000100
000000
000010
000000
000000
000000
,
001000
000000
000100
000000
100000
001000
000000
000000
000100
000000
000010
000000
001000
000000
000000
000000
,
001000
000000
010000
000000
000100
001000
000000
000000
000001
000000
010000
000000
100000
000000
000000
000000
,
000010
000000
001000
000000
000010
000100
000000
000000
001000
000000
100000
000000
001000
000000
000000
000000
,
000010
000100
000010
000000
001100
000000
100000
000000
,
010000
000100
010000
000000
101000
000000
001001
000000
,
000000
000000
000000
000001
000000
000000
000001
000000
000100
000010
000100
000000
000010
000000
000000
000000
,
000000
000000
000000
100000
000000
000000
100000
000000
000100
010000
000100
000000
010000
000000
000000
000000
,
010000
100000
010000
000000
001000
000000
000100
000000
,
000010
000001
000010
000000
001000
000000
100000
000000
,
000000
000000
000000
100000
000000
000000
100000
000000
000100
010000
000100
000000
001000
000000
000000
000000
,
000000
000000
000000
000001
000000
000000
000001
000000
000100
000010
000100
000000
001000
000000
000000
000000
,
010100
000000
000000
001001
000000
000000
000000
000000
,
000011
000000
000000
110000
000000
000000
100001
100001
,
010010
000000
000000
000000
000000
000000
000100
000100
,
000010
000000
100001
000000
000100
001100
001000
000000
,
100001
000000
000000
001100
000000
000000
000000
000000
,
000110
000000
000000
101000
000000
000000
100001
001100
,
100001
000000
000000
000000
000000
000000
001000
001000
,
100000
000000
001100
000000
000001
100001
001000
000000
,
010000
000100
010000
000000
001100
000000
000001
000000
,
000010
000100
000010
000000
001001
000000
101000
000000
,
000000
000000
000000
100000
000000
000000
100000
000000
000100
010000
000100
000000
010000
000000
000000
000000
,
000000
000000
000000
000001
000000
000000
000001
000000
000100
000010
000100
000000
000010
000000
000000
000000
,
000100
000110
000110
000000
001100
000000
000100
000000
,
001000
101000
101000
000000
001000
000000
010010
000000
,
000000
000000
000000
001000
000000
000000
001000
000000
000010
000100
000010
000000
001000
000000
000000
000000
,
000000
000000
000000
000100
000000
000000
000100
000000
010000
000100
010000
000000
001000
000000
000000
000000
,
101000
000000
000000
000000
;

//---------------dance-single - ----------------
#NOTEDATA:;
#CHARTNAME:;
#STEPSTYPE:dance-single;
#DESCRIPTION:;
#CHARTSTYLE:;
#DIFFICULTY:Challenge;
#METER:14;
#RADARVALUES:0.626258,0.586239,0.459152,0.043729,0.661397,401.000000,359.000000,42.000000,4.000000,0.000000,0.000000,0.000000,0.000000,0.000000,0.626258,0.586239,0.459152,0.043729,0.661397,401.000000,359.000000,42.000000,4.000000,0.000000,0.000000,0.000000,0.000000,0.000000;
#CREDIT:;
#DISPLAYBPM:112.000000:113.000000;
#NOTES:
0000
0000
0000
0000
,
0000
0000
0000
0000
,
0000
0000
0000
0000
,
1010
0000
0001
0000
0000
0100
0000
0000
0010
1000
0000
0100
0000
0000
0001
0000
,
0011
0000
0100
0000
0000
1000
0000
0000
0010
0100
0000
0100
0001
0000
0000
0000
,
1010
0000
0100
0000
0000
0001
0000
0000
1000
0010
1000
0010
0000
0000
0100
0000
,
0101
0000
0010
0000
0000
1000
0000
0000
0001
0100
0001
0100
0001
0100
0001
0000
,
0011
0000
0100
0000
0000
1000
0000
0000
0010
0100
0010
0100
0000
0000
0001
0000
,
1010
0000
0100
0000
0000
0001
0000
0000
1000
0010
1000
0010
2000
0000
0000
0000
,
3001
0000
1000
0010
0000
0000
0100
0000
0001
1000
0001
0000
0100
0000
0010
0000
,
0010
0000
1000
0001
0000
0000
0100
0000
0001
1000
0001
1000
0001
0000
0110
0000
,
1001
0000
0100
0000
0000
0010
0000
0000
0100
0001
1000
0001
0100
0010
0000
0010
,
0000
0000
1000
0000
0000
0001
0000
0000
1000
0100
1000
0001
0000
0001
0000
0000
,
0011
0000
0000
0000
1100
0000
0001
0000
0001
0100
0010
0000
1000
0000
0002
0000
,
0000
0000
0100
0000
1003
0001
0000
0000
0100
0000
0100
0000
0100
0000
0010
1000
,
0000
0000
0001
0000
0000
1000
0000
0010
0000
0000
0100
0000
0001
0000
0000
0000
,
0010
0000
0100
0000
0000
1000
0000
0000
0001
0100
0010
0000
1000
0000
0000
0000
,
1100
0000
0101
0000
1100
0000
0001
0010
0000
0010
0100
0000
0100
0000
0000
0000
,
1100
0000
0110
0000
0011
0000
1000
0010
0000
0010
0100
0001
1000
0000
1000
0000
,
1000
0000
0001
0100
0010
0000
1000
0100
0010
0100
0010
0001
0100
0000
0100
0000
,
0100
0000
0010
1000
0001
0000
1000
0100
0010
0001
0100
0010
0000
0000
0000
0000
,
1010
0000
0101
0000
1010
0000
0001
0100
0000
0100
0010
0000
0010
0000
0000
0000
,
1010
0000
1001
0000
1100
0000
0010
0001
0000
0001
0100
0010
1000
0000
1000
0000
,
1000
0000
0100
0010
0001
0000
0100
0010
1000
0001
0010
0100
1000
0000
1000
0000
,
1000
0000
0001
0010
0001
0000
0100
0010
1000
0001
0010
0100
0000
0000
0000
0000
,
1001
0000
0100
0010
1000
0000
0001
0010
0001
0100
0010
1000
0000
0000
0000
0000
,
0110
0000
0001
0100
0010
0000
1000
0001
1000
0100
0010
0001
0100
0000
0100
0000
,
0100
0000
0001
0000
0010
0100
0000
0100
1000
0000
0002
0000
0100
0000
0000
0000
,
0103
0000
0110
0000
1001
0000
0010
1000
0000
1000
0100
0000
0000
0010
0001
0000
,
0101
0000
0010
1000
0001
0000
1000
0100
0010
0001
1000
0010
0000
0000
0100
0000
,
1010
0000
0001
0100
0001
0000
1000
0001
0010
0100
1000
0001
0100
0000
0100
0000
,
0100
0000
0001
0000
1000
0001
0000
0010
0100
0000
1000
0100
0000
0010
0001
0000
,
0100
0000
0001
1000
0001
0000
0100
0010
1000
0000
0001
1000
0000
0100
0010
0000
,
0011
0000
1010
0000
0011
0000
0100
0010
0000
0010
1000
0000
1000
0000
0000
0000
,
1100
0000
0110
0000
0011
0000
0100
0010
0000
0010
1000
0001
0100
0000
0100
0000
,
0100
0000
0001
1000
0001
0000
0100
0010
0100
0001
1000
0100
0010
0000
0010
0000
,
0010
0000
0001
1000
0001
0000
0100
0010
1000
0100
0010
0001
0000
0000
0000
0000
,
0011
0000
0110
0000
1100
0000
0001
1000
0000
1000
0010
0000
0010
0000
0000
0000
,
0110
0000
1001
0000
0110
0000
0010
1000
0000
1000
0100
0010
0001
0000
0001
0000
,
0001
0000
0010
0001
0100
0000
0010
1000
0001
1000
0100
0010
0001
0000
0001
0000
,
0001
0000
0010
0001
0100
0000
0001
0010
0100
1000
0010
0200
0000
0000
0310
0000
,
1001
0100
1001
0000
0000
0000
0000
0000
;

//---------------dance-single - ----------------
#NOTEDATA:;
#CHARTNAME:;
#STEPSTYPE:dance-single;
#DESCRIPTION:;
#CHARTSTYLE:;
#DIFFICULTY:Beginner;
#METER:2;
#RADARVALUES:0.103075,0.135286,0.131186,0.000000,0.000000,66.000000,54.000000,12.000000,0.000000,0.000000,0.000000,0.000000,0.000000,0.000000,0.103075,0.135286,0.131186,0.000000,0.000000,66.000000,54.000000,12.000000,0.000000,0.000000,0.000000,0.000000,0.000000,0.000000;
#CREDIT:;
#DISPLAYBPM:112.000000:113.000000;
#NOTES:
// measure 0
0000
0000
0000
0000
,  // measure 1
0000
0000
0000
0000
,  // measure 2
0000
0000
0000
0000
,  // measure 3
0001
0000
0000
0000
,  // measure 4
1000
0000
0000
0000
,  // measure 5
0010
0000
0000
0000
,  // measure 6
0010
0000
0000
0000
,  // measure 7
0100
0000
0000
0000
,  // measure 8
0100
0000
0000
0000
,  // measure 9
0001
0000
0000
0000
,  // measure 10
0100
0000
0000
0000
,  // measure 11
0110
0000
0000
0000
,  // measure 12
0000
0000
0000
0000
,  // measure 13
0010
0010
0000
0000
,  // measure 14
1000
0000
0001
0000
,  // measure 15
1001
0000
0000
0000
,  // measure 16
0000
0000
0000
0000
,  // measure 17
0100
0100
0000
0000
,  // measure 18
0010
0010
0000
0000
,  // measure 19
0110
0000
0000
0000
,  // measure 20
1001
0000
0000
0000
,  // measure 21
0001
0001
0000
0000
,  // measure 22
1000
1000
0000
0000
,  // measure 23
0110
0000
0000
0000
,  // measure 24
1001
0000
0000
0000
,  // measure 25
0100
0000
0100
0000
,  // measure 26
0010
0000
0010
0000
,  // measure 27
0110
0000
0000
0000
,  // measure 28
1000
0000
0010
0000
,  // measure 29
1000
0000
1000
0000
,  // measure 30
0001
0000
0001
0000
,  // measure 31
1001
0000
0000
0000
,  // measure 32
0010
0000
0100
0000
,  // measure 33
0001
0001
0000
0000
,  // measure 34
1000
1000
0000
0000
,  // measure 35
0110
0000
0000
0000
,  // measure 36
1001
0000
0000
0000
,  // measure 37
0010
0010
0000
0000
,  // measure 38
0100
0100
0000
0000
,  // measure 39
0110
0000
0000
0000
,  // measure 40
1001
0000
0000
0000
,  // measure 41
0100
0100
0000
0000
;
