#TITLE:SEXY PLANET;
#SUBTITLE:(25th Anniversary Special);
#ARTIST:Crystal Aliens;
#TITLETRANSLIT:;
#SUBTITLETRANSLIT:;
#ARTISTTRANSLIT:;
#GENRE:;
#CREDIT:;
#BANNER:SEXY PLANET (25th Anniversary Special)-bn.png;
#BACKGROUND:SEXY PLANET (25th Anniversary Special)-bg.png;
#LYRICSPATH:;
#CDTITLE:;
#MUSIC:SEXY PLANET (25th Anniversary Special).ogg;
#OFFSET:0.000000;
#SAMPLESTART:10.652000;
#SAMPLELENGTH:20.000000;
#SELECTABLE:YES;
#DISPLAYBPM:180.000000;
#BPMS:0.000000=180.255005
;
#STOPS:162.000000=0.332000
;
#BGCHANGES:;
#KEYSOUNDS:;
#ATTACKS:;

//---------------dance-single - ----------------
#NOTES:
     dance-single:
     :
     Challenge:
     14:
     0.853795,0.947112,1.395355,0.172876,0.024697,484.000000,371.000000,113.000000,14.000000,0.000000,0.000000,0.853795,0.947112,1.395355,0.172876,0.024697,484.000000,371.000000,113.000000,14.000000,0.000000,0.000000:
// measure 0
0000
0000
0000
0000
,  // measure 1
0000
0000
0000
0000
,  // measure 2
0000
0000
0000
0000
,  // measure 3
0000
0000
0000
0000
,  // measure 4
0001
0100
1000
0000
1010
0000
0101
0000
,  // measure 5
0011
0100
1000
2020
0030
0001
3001
0000
,  // measure 6
1001
0100
0010
1000
0000
0110
0001
0000
,  // measure 7
1000
0100
1000
0000
0001
0000
0001
0000
0001
0000
0000
0000
1001
0000
0000
0000
,  // measure 8
0010
1000
0010
0100
0001
0010
1000
0000
,  // measure 9
1100
0010
0001
0202
0300
1000
1003
0000
,  // measure 10
0010
1000
0100
0010
0001
0100
1000
0000
,  // measure 11
0010
1010
0001
1100
0001
0110
0001
0000
,  // measure 12
1000
0010
0001
0010
1000
0100
0010
0000
,  // measure 13
0011
0001
1000
1200
0000
1000
1300
0000
,  // measure 14
0010
1000
0001
0010
0001
0100
1000
0000
,  // measure 15
0110
0001
0110
1000
0110
0001
0110
1000
,  // measure 16
1001
0100
0001
0010
1000
0100
0001
0000
,  // measure 17
0010
0001
0101
0010
1000
0100
0011
0001
,  // measure 18
0100
0010
0110
0001
0010
0100
1100
0010
,  // measure 19
1000
0001
1010
0100
0001
0010
0100
1000
,  // measure 20
0010
0100
1001
0010
1000
0100
0011
0001
,  // measure 21
0100
0001
1010
0001
0010
0100
0110
1000
,  // measure 22
0100
0010
1001
0010
0100
0001
0011
0100
,  // measure 23
1000
0001
1001
0100
1001
0100
1001
0100
,  // measure 24
0010
1010
0000
0101
0000
0011
0000
1100
,  // measure 25
0000
0101
0000
0110
1000
0010
0001
0100
,  // measure 26
0000
1001
0000
0011
0000
0110
0000
1100
,  // measure 27
0000
0101
0000
1010
0100
0001
0010
1000
,  // measure 28
0010
1001
0000
1100
0000
0011
0000
0110
,  // measure 29
0000
0101
0000
0011
1000
0001
0010
0100
,  // measure 30
0000
0110
0000
1100
0000
0101
0000
1100
,  // measure 31
0000
0000
1001
0000
1001
0000
0000
0000
0110
0000
0000
1000
0010
0000
0100
0000
,  // measure 32
1001
0000
0001
0010
0000
1100
0001
0100
,  // measure 33
0000
0110
0000
1010
0000
0011
1000
0000
,  // measure 34
0101
0000
0010
0000
1000
0000
0001
0000
0000
0000
0100
0000
0100
0000
0001
1000
,  // measure 35
0001
0011
0001
0101
1000
0110
0001
0000
,  // measure 36
0110
0001
1000
0202
0300
1000
1003
0001
,  // measure 37
0000
0011
0000
1001
0000
1010
0100
0010
,  // measure 38
0101
1000
0100
0011
0000
1000
1000
0000
,  // measure 39
0001
0010
0001
0000
1000
0000
1000
0000
1010
0000
0001
0000
1001
0000
0000
0000
,  // measure 40
0000
0110
0110
0110
0110
1001
1001
1001
,  // measure 41
1001
0100
0001
0010
0001
0100
1000
0000
,  // measure 42
1010
0001
0010
2100
0000
0010
3010
0000
,  // measure 43
0100
0001
0010
0001
1000
0100
0001
0000
,  // measure 44
0011
0100
0001
2002
0003
0010
3010
0000
,  // measure 45
0110
1000
0010
1000
0100
0001
0010
0000
,  // measure 46
0011
0001
1000
0202
0300
0010
0013
0000
,  // measure 47
0001
0100
0001
0010
1000
0100
0001
0000
,  // measure 48
1001
0010
1001
0100
1001
0010
1001
0100
,  // measure 49
0110
0001
0010
0100
1100
1000
0001
0100
,  // measure 50
0010
1000
0110
0001
0010
0100
1001
0010
,  // measure 51
1000
0001
0011
0100
0010
0001
0101
1000
,  // measure 52
0010
1000
0110
0001
1000
0100
0010
0001
,  // measure 53
0100
0010
0110
0001
0010
0100
1001
0010
,  // measure 54
1000
0001
1010
0100
0010
1000
1100
0010
,  // measure 55
0001
1000
0101
0010
1000
0001
0011
0100
,  // measure 56
0010
0001
1001
0100
0010
1000
0110
0001
,  // measure 57
0010
0100
1100
0010
1000
0001
0110
0001
,  // measure 58
1000
0100
0022
0000
0000
0000
0000
0000
,  // measure 59
0033
0000
0000
0000
;
