#VERSION:0.83;
#TITLE:サナ・モレッテ・ネ・エンテ;
#SUBTITLE:;
#ARTIST:Togo Project feat. Sana;
#TITLETRANSLIT:SANA MOLLETE NE ENTE;
#SUBTITLETRANSLIT:;
#ARTISTTRANSLIT:;
#GENRE:;
#ORIGIN:;
#CREDIT:;
#BANNER:SANA MOLLETE NE ENTE-bn.png;
#BACKGROUND:SANA MOLLETE NE ENTE-bg.png;
#PREVIEWVID:;
#JACKET:SANA MOLLETE NE ENTE-jacket.png;
#CDIMAGE:;
#DISCIMAGE:;
#LYRICSPATH:;
#CDTITLE:;
#MUSIC:SANA MOLLETE NE ENTE.ogg;
#OFFSET:0.000000;
#SAMPLESTART:13.327000;
#SAMPLELENGTH:20.000000;
#SELECTABLE:YES;
#DISPLAYBPM:90.000000;
#BPMS:0.000=90.000;
#STOPS:;
#DELAYS:;
#WARPS:;
#TIMESIGNATURES:0.000=4=4;
#TICKCOUNTS:0.000=4;
#COMBOS:0.000=1;
#SPEEDS:0.000=1.000=0.000=0;
#SCROLLS:0.000=1.000;
#FAKES:;
#LABELS:0.000=Song Start;
#BGCHANGES:12.000=SANA MOLLETE NE ENTE.mp4=1.000=1=0=0=StretchNoLoop==CrossFade==,
99999=-nosongbg-=1.000=0=0=0 // don't automatically add -songbackground-
;
#KEYSOUNDS:;
#ATTACKS:
;

//---------------dance-single - ----------------
#NOTEDATA:;
#CHARTNAME:;
#STEPSTYPE:dance-single;
#DESCRIPTION:;
#CHARTSTYLE:;
#DIFFICULTY:Beginner;
#METER:3;
#RADARVALUES:0.105696,0.125043,0.000000,0.000000,0.000000,73.000000,73.000000,0.000000,0.000000,0.000000,0.000000,0.000000,0.000000,0.000000,0.105696,0.125043,0.000000,0.000000,0.000000,73.000000,73.000000,0.000000,0.000000,0.000000,0.000000,0.000000,0.000000,0.000000;
#CREDIT:;
#NOTES:
0000
0000
0000
0000
,
0000
0000
0000
0000
,
0000
0000
0000
0000
,
1000
0000
1000
0000
,
0010
0000
0010
0000
,
1000
0000
0001
0000
,
1000
0000
0010
0000
,
0100
0000
0100
0000
,
0100
0000
0100
0000
,
0001
0000
0100
0000
,
0001
0000
0010
0000
,
1000
0000
0100
0000
,
0010
0000
0100
0000
,
0000
0010
0010
0000
,
0001
0000
1000
0000
,
0010
0010
0010
0000
,
1000
0000
0001
0000
,
0100
0100
0100
0000
,
0010
0000
1000
0000
,
0010
0000
0001
0000
,
0100
0000
0010
0000
,
0100
0000
0010
0000
,
0100
0100
0100
0000
,
0001
0001
0001
0000
,
0010
0010
0010
0000
,
0100
0100
0000
0001
,
0000
0100
0100
0100
,
0000
0010
0010
0000
,
1000
0000
0010
0000
,
1000
0000
0010
0000
,
1000
0000
0100
0000
,
1000
0000
0010
0000
,
1000
0000
0001
0000
,
1000
0000
0010
0000
,
1000
0000
0001
0000
,
0010
0010
0000
0000
,
0000
0000
0000
0000
;

//---------------dance-single - ----------------
#NOTEDATA:;
#CHARTNAME:;
#STEPSTYPE:dance-single;
#DESCRIPTION:;
#CHARTSTYLE:;
#DIFFICULTY:Easy;
#METER:4;
#RADARVALUES:0.185329,0.161910,0.000000,0.000000,0.000000,128.000000,128.000000,0.000000,0.000000,0.000000,0.000000,0.000000,0.000000,0.000000,0.185329,0.161910,0.000000,0.000000,0.000000,128.000000,128.000000,0.000000,0.000000,0.000000,0.000000,0.000000,0.000000,0.000000;
#CREDIT:;
#NOTES:
0000
0000
0000
0000
,
0000
0000
0000
0000
,
0000
0000
0000
0000
,
1000
0100
1000
0100
,
0010
0001
0010
0001
,
1000
0100
0001
0100
,
1000
0100
0010
0001
,
0100
1000
0100
0001
,
0100
0010
0100
0001
,
0001
0010
0100
0001
,
0001
0100
0010
1000
,
1000
0001
0100
0010
,
0010
1000
0100
0010
,
0000
0010
0001
1000
,
0001
0001
1000
1000
,
0010
0010
0010
1000
,
0100
0100
0010
0010
,
0001
0001
0001
0100
,
0010
1000
1000
0100
,
0010
0001
0001
1000
,
0100
0010
0010
0001
,
0100
0010
0010
1000
,
0100
0100
0100
0010
,
0001
0001
0001
0100
,
0010
0010
0010
1000
,
0100
0100
0010
0001
,
0100
0100
0100
0100
,
0010
0010
0010
0000
,
1000
0100
0010
0100
,
1000
0100
0010
0001
,
1000
0010
0100
0010
,
1000
0100
0010
0001
,
1000
0100
0001
0100
,
1000
0100
0010
0000
,
1000
0010
0001
0100
,
0010
0010
1000
0000
,
0000
0000
0000
0000
;

//---------------dance-single - ----------------
#NOTEDATA:;
#CHARTNAME:;
#STEPSTYPE:dance-single;
#DESCRIPTION:;
#CHARTSTYLE:;
#DIFFICULTY:Medium;
#METER:9;
#RADARVALUES:0.275098,0.273175,0.000000,0.000000,0.010135,190.000000,190.000000,0.000000,0.000000,0.000000,0.000000,0.000000,0.000000,0.000000,0.275098,0.273175,0.000000,0.000000,0.010135,190.000000,190.000000,0.000000,0.000000,0.000000,0.000000,0.000000,0.000000,0.000000;
#CREDIT:;
#NOTES:
0000
0000
0000
0000
,
0000
0000
0000
0000
,
0000
0000
0000
0000
,
0100
0100
0001
0001
,
0000
1000
0100
0000
0010
1000
0010
0001
,
1000
0000
1000
0000
0010
0100
0001
0000
,
0010
0000
0010
0000
0100
1000
0001
0000
,
0100
0000
0100
0000
1000
0001
1000
0000
,
0100
0000
0100
0000
0001
0100
1000
0000
,
1000
1000
1000
0000
0010
1000
0001
0010
,
0100
0100
0100
0000
1000
0010
0001
0010
,
1000
0100
0100
0000
0010
1000
0001
0100
,
0010
0001
0001
0000
0100
1000
0010
0001
,
0000
0001
0001
0000
1000
0100
1000
0100
,
0001
0001
0000
0100
0000
1000
0100
0010
,
0100
1000
0000
0010
0000
0001
1000
0001
,
0100
0100
0000
0010
0000
0001
0100
1000
,
0100
0001
0000
0100
1000
0100
0001
0000
,
0000
0100
0000
0010
0100
1000
0100
0000
,
0000
0100
0000
1000
0001
0010
0100
0000
,
0000
1000
0000
0100
0001
1000
0100
0000
,
0000
0001
0000
0100
1000
0001
0010
0000
,
0010
0010
0010
0000
0010
0001
1000
0100
,
0010
0010
0010
0000
0010
0100
1000
0100
,
0010
0010
0010
0000
0010
0001
0100
0001
,
0010
0010
0010
0000
1000
0000
0100
0000
,
0010
0010
0010
0000
0010
0000
0001
0000
,
1000
1000
1000
0000
1000
0000
0000
0000
,
0100
1000
0010
0001
0100
1000
0100
0010
,
0001
0100
1000
0001
0010
0000
0000
0000
,
0100
0001
0010
1000
0100
1000
0001
0100
,
0010
1000
0100
0001
0100
0000
0000
0000
,
0000
0010
0000
0001
0000
1000
0100
0010
,
0000
1000
0000
0010
0000
0100
0001
0010
,
0000
1000
0000
0100
0000
0010
0001
0100
,
0000
0000
0010
0000
0000
0000
1000
0000
0000
0000
0001
0000
1000
0100
0000
0010
,
0000
0000
0000
0000
;

//---------------dance-single - ----------------
#NOTEDATA:;
#CHARTNAME:;
#STEPSTYPE:dance-single;
#DESCRIPTION:;
#CHARTSTYLE:;
#DIFFICULTY:Hard;
#METER:12;
#RADARVALUES:0.425679,0.455292,0.000000,0.000000,0.516895,294.000000,294.000000,0.000000,0.000000,0.000000,0.000000,0.000000,0.000000,0.000000,0.425679,0.455292,0.000000,0.000000,0.516895,294.000000,294.000000,0.000000,0.000000,0.000000,0.000000,0.000000,0.000000,0.000000;
#CREDIT:;
#NOTES:
0000
0000
0000
0000
,
0000
0000
0000
0000
,
0000
0000
0000
0000
,
1000
0000
0010
0100
0001
0000
0010
0100
1000
0000
0010
0100
0001
0000
0010
0100
,
1000
0000
0010
0000
0100
0001
0000
0010
0000
1000
0000
1000
1000
0000
1000
0000
,
0100
0000
1000
0000
0100
0000
0001
0010
0000
0100
0000
1000
0001
0000
0100
0000
,
0010
0000
1000
0000
0001
0000
0010
0100
0000
1000
0000
0001
0100
0000
0010
0000
,
0100
0000
1000
0000
0100
0000
0001
0010
0000
0100
0000
1000
0001
0000
0100
0000
,
0010
0000
1000
0000
0001
0010
0000
0100
0000
1000
0000
0001
0100
0000
0010
0000
,
0100
0000
1000
0000
1000
0000
0000
0010
0000
0100
0000
0001
0100
0000
0010
0000
,
0001
0000
0001
0000
0001
0000
0000
1000
0000
0010
0000
1000
0100
0000
0010
0000
,
0100
0000
0100
0000
0100
0000
0000
0010
0000
1000
0000
0001
0010
0000
1000
0000
,
0010
0000
0010
0000
0010
0000
0000
0100
0000
0100
0000
0010
1000
0000
0100
0000
,
0000
0000
0001
0000
1000
0001
0000
0010
0000
0010
0000
0001
0100
0000
1000
0000
,
0100
0000
0001
0000
0100
0000
1000
0000
0100
0000
0001
0010
0000
1000
0010
1000
,
0100
0000
0010
0000
0001
0000
0100
1000
0000
0100
0000
0001
0010
0000
0100
0000
,
1000
0000
0001
0000
0100
0000
1000
0000
0100
0000
0010
0001
0000
0010
0100
1000
,
0100
0000
0010
0000
0001
1000
0001
0100
0000
0010
0000
1000
0100
0010
0001
1000
,
0100
0000
0000
0000
0100
0000
0000
0000
0100
0000
0000
0000
0100
0010
0001
1000
,
0010
0000
0000
0000
0010
0000
0000
0000
0010
0000
0000
0000
0010
1000
0010
0100
,
0001
0000
0000
0000
0001
0000
0000
0000
0001
0000
0000
0000
0001
0010
0100
1000
,
0010
0000
0000
0000
0010
0000
0000
0000
0010
0000
0000
1000
0100
0010
0001
1000
,
1000
0000
0000
0000
1000
0000
0000
0000
1000
0000
0000
0010
1000
0001
1000
0100
,
0010
0000
0000
0000
0010
0000
0000
0000
0010
0000
0000
0001
1000
0010
0100
0001
,
0010
0000
0000
0000
0010
0000
0000
0000
0010
0000
0000
0100
1000
0010
0100
0001
,
0010
0000
0000
0000
0010
0000
0000
0000
0100
0000
0000
1000
0010
0100
0010
1000
,
0001
0000
0010
0100
1000
0000
0100
0010
0001
0000
1000
0100
0010
0000
0010
0001
,
0100
0000
0001
0010
0100
0000
1000
0100
0001
0000
0000
0000
0000
0000
0000
0000
,
1000
0100
0010
0000
1000
0100
0001
0000
1000
0100
0010
0000
1000
0100
0001
0000
,
1000
0100
0010
0000
1000
0100
0001
0100
1000
0000
0000
0000
0000
0000
0000
0000
,
0010
0100
1000
0000
0010
0100
0001
0000
0010
0100
1000
0000
0010
0100
0001
0000
,
0010
0100
1000
0000
0010
0100
0001
0010
0100
0000
0000
0000
0000
0000
0000
0000
,
1000
0000
0100
0000
1000
0000
0100
0000
1000
0000
0100
0000
1000
0100
0010
0000
,
0001
0000
0010
0000
0001
0000
0010
0001
0000
0010
0000
0100
1000
0000
0001
0000
,
0100
0000
0001
0000
0100
0000
0001
0000
0100
0000
0001
0000
0100
0010
0100
0000
,
0001
0000
1000
0000
0100
0010
0000
0001
0000
0000
0100
0000
0010
0010
0000
1000
,
0000
0000
0000
0000
;

//---------------dance-double - ----------------
#NOTEDATA:;
#CHARTNAME:;
#STEPSTYPE:dance-double;
#DESCRIPTION:;
#CHARTSTYLE:;
#DIFFICULTY:Easy;
#METER:5;
#RADARVALUES:0.185329,0.161910,0.000000,0.000000,0.000000,128.000000,128.000000,0.000000,0.000000,0.000000,0.000000,0.000000,0.000000,0.000000,0.185329,0.161910,0.000000,0.000000,0.000000,128.000000,128.000000,0.000000,0.000000,0.000000,0.000000,0.000000,0.000000,0.000000;
#CREDIT:;
#NOTES:
00000000
00000000
00000000
00000000
,
00000000
00000000
00000000
00000000
,
00000000
00000000
00000000
00000000
,
10000000
00100000
00010000
00001000
,
00000100
00000001
00001000
00000100
,
00001000
00000010
00000100
00001000
,
00010000
01000000
10000000
00010000
,
00100000
01000000
00010000
00001000
,
00000100
00000001
00001000
00000010
,
00000100
00000001
00000001
00000001
,
00000010
00000100
00000100
00000100
,
00010000
00001000
00001000
00001000
,
01000000
00100000
00100000
00100000
,
10000000
00010000
01000000
01000000
,
00100000
00100000
00010000
00010000
,
00001000
00000100
00000001
00000000
,
00000010
00000010
00001000
00001000
,
00010000
01000000
10000000
00010000
,
10000000
00100000
00100000
00100000
,
01000000
00010000
00010000
00010000
,
00100000
00001000
00001000
00001000
,
00000010
00000001
00000001
00000001
,
00001000
00000001
00001000
00000001
,
00000100
00000010
00000100
00000010
,
00010000
00001000
00010000
00001000
,
00100000
01000000
00100000
01000000
,
10000000
00010000
10000000
00010000
,
10000000
01000000
00010000
00000000
,
10000000
01000000
00010000
00001000
,
00000100
00000001
00001000
00000010
,
00001000
00000001
00000100
00001000
,
00010000
01000000
10000000
00010000
,
01000000
00100000
10000000
10000000
,
01000000
00010000
00001000
00000000
,
00000100
00000001
00001000
00000100
,
00000010
00000100
00001000
00000000
,
00000000
00000000
00000000
00000000
;

//---------------dance-double - ----------------
#NOTEDATA:;
#CHARTNAME:;
#STEPSTYPE:dance-double;
#DESCRIPTION:;
#CHARTSTYLE:;
#DIFFICULTY:Medium;
#METER:9;
#RADARVALUES:0.325774,0.309599,0.000000,0.000000,0.020270,225.000000,225.000000,0.000000,0.000000,0.000000,0.000000,0.000000,0.000000,0.000000,0.325774,0.309599,0.000000,0.000000,0.020270,225.000000,225.000000,0.000000,0.000000,0.000000,0.000000,0.000000,0.000000,0.000000;
#CREDIT:;
#NOTES:
00000000
00000000
00000000
00000000
,
00000000
00000000
00000000
00000000
,
00000000
00000000
00000000
00000000
,
00001000
00100000
01000000
00010000
00000010
00000100
00001000
00100000
,
00000000
01000000
10000000
01000000
00100000
00100000
00010000
01000000
,
10000000
01000000
00010000
01000000
10000000
01000000
00010000
00001000
,
00000100
00000001
00001000
00000100
00000010
00000000
00000100
00000000
,
00001000
00000001
00000100
00001000
00000100
00000001
00000100
00001000
,
00010000
01000000
10000000
00010000
00100000
00000000
01000000
00000000
,
00000000
10000000
10000000
00000000
00100000
01000000
00010000
10000000
,
01000000
00010000
00010000
00000000
00001000
00000100
00000001
00001000
,
00000100
00010000
00010000
00000000
01000000
10000000
00100000
01000000
,
00010000
00100000
00100000
00000000
01000000
00010000
00001000
00000100
,
00000000
00010000
00001000
00000000
01000000
00100000
10000000
00010000
,
01000000
01000000
00010000
00100000
01000000
00010000
00001000
00000100
,
00000001
00000010
00000100
00001000
00000001
00000000
00000010
00000010
,
00000100
00000100
00001000
00000010
00000100
00001000
00010000
01000000
,
10000000
00100000
01000000
00010000
10000000
00000000
01000000
01000000
,
00000000
10000000
01000000
00010000
00001000
00010000
00001000
00000100
,
00000000
00000001
00000010
00001000
00010000
00001000
00010000
01000000
,
00000000
10000000
00100000
01000000
00001000
00001000
00010000
00010000
,
00000000
00000100
00000010
00001000
00010000
00010000
00001000
00001000
,
00100000
00000000
00100000
00000000
00100000
01000000
00010000
00001000
,
00000100
00000100
00000100
00000000
,
00000001
00000000
00000001
00000000
00000001
00000010
00001000
00010000
,
01000000
00000000
01000000
00000000
10000000
01000000
00100000
00010000
,
10000000
00100000
10000000
00010000
10000000
00100000
10000000
01000000
,
00010000
00001000
00000100
00000001
00000010
00000000
00000000
00000000
,
00000001
00001000
00000100
00000010
00000001
00000100
00001000
00010000
,
01000000
00100000
00010000
01000000
00001000
00000000
00000000
00000000
,
00000100
00000001
00001000
00000100
00000001
00000100
00001000
00010000
,
01000000
10000000
00010000
01000000
10000000
00000000
00000000
00000000
,
10000000
10000000
01000000
01000000
00010000
00010000
01000000
01000000
,
10000000
01000000
00010000
00001000
00000100
00000000
00010000
00000000
,
01000000
01000000
10000000
10000000
00100000
00100000
00010000
00010000
,
00001000
00000000
00000100
00000000
00000001
00001000
00000000
00000100
00000000
00000000
00001000
00000000
00000010
00000010
00000000
00000100
,
00000000
00000000
00000000
00000000
;

//---------------dance-double - ----------------
#NOTEDATA:;
#CHARTNAME:;
#STEPSTYPE:dance-double;
#DESCRIPTION:;
#CHARTSTYLE:;
#DIFFICULTY:Hard;
#METER:12;
#RADARVALUES:0.389481,0.400657,0.000000,0.000000,0.537166,269.000000,269.000000,0.000000,0.000000,0.000000,0.000000,0.000000,0.000000,0.000000,0.389481,0.400657,0.000000,0.000000,0.537166,269.000000,269.000000,0.000000,0.000000,0.000000,0.000000,0.000000,0.000000,0.000000;
#CREDIT:;
#NOTES:
00000000
00000000
00000000
00000000
,
00000000
00000000
00000000
00000000
,
00000000
00000000
00000000
00000000
,
00001000
00000000
00100000
01000000
00010000
00000000
00000010
00000100
00001000
00000000
00100000
01000000
00010000
00000000
00000010
00000100
,
00000000
00000000
00001000
00000000
00100000
01000000
00000000
00010000
00000000
00000010
00000000
00000100
00000001
00001000
00000100
00000000
,
00000001
00000000
00000100
00000000
00001000
00000000
00000100
00000001
00000000
00000100
00000000
00001000
00010000
01000000
10000000
00000000
,
00100000
00000000
00100000
00000000
01000000
00000000
01000000
00001000
00000000
00000000
00000000
00000000
00000100
00000000
00000000
00000000
,
00000001
00000000
00000100
00000000
00001000
00000000
00000100
00000000
00000001
00000000
00000100
00001000
00000000
00010000
01000000
10000000
,
00100000
00000000
00100000
00000000
01000000
01000000
01000000
00001000
00000000
00000000
00000000
00000000
00000100
00000000
00000000
00000000
,
00000000
00000000
00001000
00010000
01000000
10000000
00000000
01000000
00000000
00010000
00000000
00001000
00000000
00000100
00000000
00000000
,
00000000
00000000
00001000
00010000
01000000
10000000
00000000
01000000
00000000
00010000
00000000
00001000
00000000
00000000
00000100
00000000
,
00000000
00000000
00000001
00000010
00001000
00010000
00000000
01000000
00000000
00010000
00000000
00001000
00000000
00000100
00000000
00000000
,
00000000
00000000
00000001
00000010
00001000
00010000
00000000
01000000
00000000
00010000
00000000
00001000
00000000
00000000
00000100
00000000
,
00000000
00000000
00000001
00000000
00001000
00000010
00000000
00000100
00000000
00000000
00000000
00000000
00000000
00000000
00000100
00000000
,
00000001
00000000
00001000
00000000
00000100
00000000
00000000
00000010
00000000
00000001
00000000
00000100
00001000
00000000
00010000
00000000
,
01000000
00000000
10000000
00000000
00010000
01000000
00100000
10000000
00000000
01000000
00000000
00010000
00001000
00000000
00000100
00000000
,
00000001
00000000
00001000
00000000
00000100
00000000
00000000
00000010
00000000
00000001
00000000
00000100
00001000
00000000
00010000
00000000
,
01000000
00000000
10000000
00000000
00010000
01000000
00100000
10000000
00000000
01000000
00000000
00010000
00001000
00010000
01000000
10000000
,
00100000
00000000
00000000
00000000
00001000
00000000
00000000
00000000
00001000
00000000
00000000
00000000
00001000
00100000
01000000
10000000
,
00010000
00000000
00000000
00000000
01000000
00000000
00000000
00000000
01000000
00000000
00000000
00000000
01000000
00100000
10000000
01000000
,
00100000
00000000
00000000
00000000
00001000
00000000
00000000
00000000
00001000
00000000
00000000
00000000
00001000
01000000
00100000
10000000
,
01000000
00000000
00000000
00000000
01000000
00000000
00000000
00000000
01000000
00000000
00000000
10000000
00100000
01000000
00100000
10000000
,
00100000
00000000
00000000
00000000
00100000
00000000
00000000
00000000
00100000
00000000
00000000
10000000
01000000
00100000
00010000
10000000
,
01000000
00000000
00000000
00000000
01000000
00000000
00000000
00000000
01000000
00000000
00000000
00010000
00001000
00000100
00000001
00000010
,
00000100
00000000
00000000
00000000
00000100
00000000
00000000
00000000
00000100
00000000
00000000
00001000
00000010
00000100
00000001
00001000
,
00000010
00000000
00000000
00000000
00000010
00000000
00000000
00000000
00000100
00000000
00000000
00001000
00010000
01000000
10000000
00010000
,
01000000
00000000
00000000
10000000
01000000
00000000
00000000
00010000
00001000
00000000
00000000
00000100
00000001
00000000
00000000
00000010
,
00001000
00000000
00000000
00010000
01000000
00000000
00000000
10000000
00100000
00000000
00000000
00000000
00000000
00000000
00000000
00000000
,
00100000
00010000
00001000
00000100
00010000
10000000
01000000
00010000
,
00000100
00000010
00001000
00010000
01000000
00000000
00000000
00000000
,
00000000
00000000
10000000
01000000
00100000
00000000
10000000
01000000
00010000
00000000
01000000
00010000
00001000
00000000
00010000
00001000
,
00000100
00000000
00001000
00000100
00000001
00000000
00000100
00000001
00001000
00000000
00000000
00000000
00000000
00000000
00000000
00000000
,
00000100
00000000
00000100
00000000
00000010
00000000
00000010
00000001
00000000
00000001
00000000
00001000
00000100
00000010
00000001
00000000
,
00000100
00000000
00000100
00000000
00000001
00000000
00000001
00001000
00000000
00000000
00000000
00000000
00000100
00000000
00000000
00000000
,
00000010
00000000
00000010
00000000
00000001
00000000
00000001
00000100
00000000
00000100
00000000
00001000
00000000
00010000
01000000
10000000
,
00010000
00000000
00010000
00000000
00100000
01000000
00000000
10000000
00000000
00000000
01000000
00000000
00100000
00100000
00000000
00010000
,
00000000
00000000
00000000
00000000
;

//---------------dance-single - ----------------
#NOTEDATA:;
#CHARTNAME:;
#STEPSTYPE:dance-single;
#DESCRIPTION:;
#CHARTSTYLE:;
#DIFFICULTY:Challenge;
#METER:13;
#RADARVALUES:0.577707,0.558703,0.608112,0.081082,0.866560,399.000000,339.000000,60.000000,8.000000,0.000000,0.000000,0.000000,0.000000,0.000000,0.577707,0.558703,0.608112,0.081082,0.866560,399.000000,339.000000,60.000000,8.000000,0.000000,0.000000,0.000000,0.000000,0.000000;
#CREDIT:;
#DISPLAYBPM:90.000000;
#NOTES:
// measure 0
0000
0000
0000
0000
,  // measure 1
0000
0000
0000
0000
,  // measure 2
0000
0000
0000
0000
,  // measure 3
1000
0100
0010
0001
0000
0011
0000
0110
0000
1100
0000
0001
0100
0000
0010
1000
,  // measure 4
0000
0000
1100
0000
0101
0000
0000
2010
0000
0001
0000
0001
0001
0000
3100
0000
,  // measure 5
1000
0000
0010
0000
0001
0000
0100
0010
0000
0001
0000
0100
0000
1000
0001
1000
,  // measure 6
0010
0000
1000
0000
0100
0000
1000
0010
0000
0110
0000
1000
0001
0000
0000
0000
,  // measure 7
0010
0000
0001
0000
0100
0000
0010
0000
1000
0000
0100
0010
0000
0001
0100
1000
,  // measure 8
0010
0000
0100
0000
0010
1000
0001
0100
0000
0000
1001
0000
1001
0010
0100
0010
,  // measure 9
1000
0000
0001
0100
0001
0010
0000
1100
0000
0101
0000
1100
0000
0001
0100
0010
,  // measure 10
1000
0000
0100
0010
0001
0100
0000
1010
0000
0101
0000
0011
0000
1000
0001
1000
,  // measure 11
0010
0000
0100
0001
1000
0100
0000
1100
0000
0011
0000
1100
0000
0010
1000
0001
,  // measure 12
0100
0000
0001
0010
0100
1000
0000
1001
0000
1010
0000
1100
0000
1000
0001
0000
,  // measure 13
0000
0000
0101
0000
1100
0000
0000
0012
0000
1000
0000
1000
1000
0000
0103
0000
,  // measure 14
0010
0000
1000
0000
0100
0000
0010
0000
0001
0000
0100
0001
0000
1000
0010
0001
,  // measure 15
0100
0000
0010
0000
1000
0000
0100
0010
0000
0110
0000
0001
1000
0000
0000
0000
,  // measure 16
0001
0000
0010
0000
1000
0000
0100
0000
1000
0000
0001
0100
0000
0010
1000
0001
,  // measure 17
0010
0000
0100
0000
1000
0010
1000
0001
0000
1010
0000
0100
0001
1000
0100
1000
,  // measure 18
0001
0000
0010
0100
1000
0010
0000
0101
0000
0011
0000
1100
0000
0010
1000
0001
,  // measure 19
0100
0000
0001
0010
0001
0100
0000
0110
0000
1001
0000
1100
0000
0001
0010
0100
,  // measure 20
1000
0000
0010
1000
0001
0100
0000
1010
0000
0101
0000
1100
0000
0001
1000
0100
,  // measure 21
0010
0000
0100
1000
0010
0100
0000
0110
0000
0101
0000
1001
0000
0001
0010
0000
,  // measure 22
2100
0000
0001
0000
0100
0010
0000
3010
0000
0000
1000
0000
0100
0000
0001
0000
,  // measure 23
0010
0000
0001
0100
0000
0001
0010
0100
2000
0000
0001
0001
3100
0000
0000
0000
,  // measure 24
0012
0000
0000
0000
0000
0000
0100
0000
0000
0000
0000
0000
1000
0000
0000
0010
0000
0000
0000
0000
0000
0013
0000
0000
0000
0000
0000
0000
0000
0000
0001
0000
0000
0000
0000
0000
2000
0000
0000
0000
0100
0000
0000
0000
0000
0000
0000
0000
,  // measure 25
3001
1000
0010
0100
0010
1000
0010
0100
0001
0010
0100
0010
0001
1000
0000
0000
,  // measure 26
0001
0010
0001
1000
0000
1100
0000
0110
0000
0011
0000
0100
0010
0000
1000
0001
,  // measure 27
1000
0100
0010
0001
0000
0101
0000
1010
0000
0010
0000
0010
0010
0000
0100
0000
,  // measure 28
1000
0001
1000
0010
0000
0101
0000
0011
0000
0101
0000
1000
0001
0000
0010
0100
,  // measure 29
1000
0010
1000
0001
0000
1100
0000
0101
0000
0000
1001
0000
1001
0000
0000
0000
,  // measure 30
0010
1000
0010
0100
0000
0101
0000
0110
0000
1001
0000
1000
0100
0000
0010
0001
,  // measure 31
0100
0010
0100
0001
0000
0011
0000
1100
0000
0001
0000
1000
1000
0000
0100
0000
,  // measure 32
0010
0000
0001
0000
0100
0000
0001
1000
0000
0010
0000
0100
0000
0001
0010
0100
,  // measure 33
1000
0000
0010
0000
1000
0000
0001
0100
0010
0000
1000
0100
0001
0100
1000
0100
,  // measure 34
0010
0000
0001
0000
1000
0000
0001
0100
0000
0010
0000
1000
0000
0100
1000
0001
,  // measure 35
0100
0000
0010
0000
1000
0001
0000
1000
0100
0000
1100
0000
0011
0000
0000
2010
,  // measure 36
0000
0000
0000
0000
0010
0000
0000
0000
0010
0000
0000
0000
0010
0000
0000
0010
0000
0000
0010
0000
0000
0010
0000
0000
0020
0000
0000
0000
0000
0000
0000
0000
0000
0000
0000
0000
3030
0000
0000
0000
0000
0000
0000
0000
0000
0000
0000
0000
;
