#TITLE:SAMBA DE JANEIRO;
#ARTIST:BASS FIST! feat. BOOGIE GIRL;
#BANNER:SAMBA DE JANEIRO.png;
#BACKGROUND:SAMBA DE JANEIRO-bg.png;
#JACKET:SAMBA DE JANEIRO-jacket.png;
#MUSIC:SAMBA DE JANEIRO.ogg;
#SAMPLESTART:17.974;
#SAMPLELENGTH:20;
#DISPLAYBPM:154:164;
#BPMS:0=160.242,16=159.432,20=160.102,28=160.002,48=162.57,52=160.05,120=160.101,132=163.864,136=160.088,152=153.945,156=160.036,188=157.504,192=160.015;
#BGCHANGES:;

//---------------dance-single - ----------------
#NOTES:
     dance-single:
     :
     Beginner:
     3:
     :
0000
0000
0000
0000
,
0000
0000
0000
0000
,
0000
0000
0000
0000
,
0000
0000
0000
0000
,
0000
0000
0000
0000
,
1001
0000
0000
0000
,
0110
0000
0000
0000
,
1001
0000
0110
0000
,
1000
0000
0001
0000
,
0100
0000
0100
0000
,
0010
0000
0010
0000
,
1000
1000
1000
0000
,
0001
0001
0001
0000
,
0010
0000
0001
0000
,
0100
0000
0010
0000
,
1000
0000
0100
0000
,
1000
0000
0001
0000
,
0010
0000
0001
0000
,
0100
0000
0010
0000
,
1000
0000
1000
0000
,
0002
0000
0003
0000
,
0100
0100
0100
0000
,
0010
0000
1000
0000
,
0100
0000
0010
0000
,
0001
0000
0100
0000
,
0001
0000
1000
0000
,
0010
0000
1000
0000
,
0001
0000
0100
0000
,
0001
0000
0010
0000
,
2000
0000
3000
0000
,
1001
0000
0110
0000
,
1000
1000
1000
0000
,
1001
0000
0110
0000
,
0001
0001
0001
0000
,
1001
0000
0110
0000
,
0100
0100
0100
0000
,
1001
0000
0110
0000
,
0010
0010
0010
0000
,
1000
1000
1000
0000
,
0001
0000
0010
0000
,
0001
0000
0100
0000
,
0010
0000
1000
0000
,
0001
0000
0010
0000
,
0100
0000
0010
0000
,
0100
0000
1000
0000
,
0010
0000
1000
0000
,
0200
0000
0300
0000
,
1000
1000
1000
0000
,
0001
0001
0001
0000
,
0010
0000
0001
0000
,
0100
0100
0100
0000
,
0010
0000
1000
0000
,
1000
1000
1000
0000
,
0001
0000
0100
0000
,
0010
0010
0010
0000
,
0200
0000
0300
0000
,
1001
0000
0010
0010
,
0010
0000
0000
0000
;

//---------------dance-single - ----------------
#NOTES:
     dance-single:
     :
     Easy:
     6:
     :
0000
0000
0000
0000
,
0000
0000
0000
0000
,
0000
0000
0000
0000
,
0000
0000
0000
0000
,
0000
0000
0000
0000
,
1001
0000
0000
0000
,
0010
0000
0000
0000
,
0010
0000
1000
0000
,
0100
0000
0001
0000
,
0010
0100
0001
1000
,
0001
0010
1000
0010
,
0001
0010
1000
0010
,
1001
0010
0010
0000
,
1000
0001
0010
1000
,
0100
0010
0001
0010
,
0001
1000
0001
0100
,
0100
0010
1000
0010
,
1000
0001
1000
0100
,
0100
0010
1000
0100
,
0001
0010
1000
0100
,
1000
1000
0001
0001
,
1001
0010
0010
0000
,
1000
0010
0001
0010
,
1000
0001
0010
1000
,
1000
0010
0001
1000
,
0100
1000
0010
0001
,
0001
0010
1000
0001
,
0100
0010
0010
1000
,
0001
1000
0001
1000
,
0001
0000
0000
0010
,
0010
0000
0001
0000
,
1000
0001
1000
0100
,
0100
0000
1000
0000
,
0001
1000
0001
0010
,
0010
0000
1000
0000
,
0001
1000
0001
0100
,
0100
0000
0001
0000
,
1000
0001
1000
1001
,
0000
0010
0010
0000
,
0010
1000
0010
0001
,
0100
0010
0100
0001
,
0001
1000
0001
0100
,
0100
0010
0100
1000
,
1000
0001
1000
0100
,
0100
0010
1000
0100
,
0001
1000
0001
0100
,
1000
1000
0001
0001
,
1001
0010
0010
0000
,
1000
0010
0001
0010
,
1000
0001
0001
0100
,
0100
0001
1000
0001
,
0100
1000
1000
0010
,
0010
1000
0001
1000
,
0100
0010
0100
0001
,
1000
0010
0001
1000
,
0001
1000
0100
0100
,
1001
0010
0110
0100
,
1001
0000
0000
0000
;

//---------------dance-single - ----------------
#NOTES:
     dance-single:
     :
     Medium:
     7:
     :
0000
0000
0000
0000
,
0000
0000
0000
0000
,
0000
0000
0000
0000
,
0000
0000
0000
0000
,
0000
0000
0000
0000
,
1001
0000
0000
0000
0000
0000
0000
0001
,
1000
0000
0000
0000
0000
0000
0000
0010
,
0100
0000
0010
1000
,
0100
0001
0010
1000
,
0100
0001
0010
1000
,
0100
0001
0010
1000
,
0100
1001
0110
1001
,
1001
0000
0010
0000
0100
0000
0000
0001
,
1000
0010
1000
0001
,
0010
0010
0001
1000
,
0100
0000
0010
0100
1000
0000
0001
0000
,
0100
0010
1000
0001
,
0100
0000
0010
0100
0001
0000
1000
0000
,
0100
0010
0001
0100
,
0010
1000
0001
0100
,
0001
1000
0110
1001
,
1001
0000
0010
0000
0100
0000
0000
0001
,
1000
0001
0010
0100
,
1000
0010
0010
1000
,
0001
0000
0010
0001
0100
0000
0100
0000
,
0010
1000
1000
0001
,
1000
0000
0010
1000
0100
0000
0100
0000
,
0010
0001
1000
0001
,
0100
0000
0001
1000
0001
0000
1000
0001
,
1000
0000
1001
0000
0000
0000
0100
1000
,
0001
0000
1001
0000
,
1100
0000
0101
0000
1001
0000
0010
1000
,
0010
0000
1001
0000
,
1010
0000
0101
0000
1001
0000
0100
1000
,
0001
0000
1001
0000
,
1100
0000
0101
0000
1001
0000
0010
1000
,
0010
0000
1001
0000
,
0110
1001
1001
0110
,
0000
0000
0010
0000
0100
0000
0000
0001
,
1000
0010
1000
0001
,
0100
0010
1000
0001
,
0100
0000
0010
1000
0001
0000
1000
0000
,
0100
0010
0001
1000
,
0100
0000
0010
0001
1000
0000
0001
0000
,
0100
0010
1000
0100
,
0010
0001
1000
0100
,
0001
1000
0110
1001
,
1001
0000
0010
0000
0100
0000
0000
0001
,
1000
0001
0010
0100
,
1000
0000
0010
0100
0001
0000
1000
0000
,
0001
0000
0010
0100
1000
0000
1000
0000
,
0001
0000
0010
0001
0100
0000
0100
0000
,
0001
0000
0010
0001
0100
0000
0100
0000
,
0010
1000
1000
0001
,
0100
0000
0001
1000
0001
0000
1000
0001
,
1000
1001
0110
1001
,
1001
0000
0100
0010
0001
1000
0000
1000
,
0100
0000
0000
0000
;

//---------------dance-single - ----------------
#NOTES:
     dance-single:
     :
     Hard:
     10:
     :
0000
0000
0000
0000
,
0000
0000
0000
0000
,
0000
0000
0000
0000
,
0000
0000
0000
0000
,
0010
0001
1000
0100
1000
0001
0100
0000
,
1001
0000
0000
0000
0000
0000
0000
0010
,
0100
0000
0000
0000
0000
0000
0000
1000
,
0100
0000
0011
0001
,
0110
1000
1100
0101
,
0010
1000
0100
0001
,
0010
1000
0100
0001
,
0010
0001
1000
0001
0100
0001
0010
0001
,
1001
0000
1100
0000
0101
0000
0000
0010
,
0100
0000
0010
0100
1000
0000
0101
0000
,
1100
0010
0101
1000
,
0100
0000
0010
0100
1000
0000
0101
0000
,
1100
0010
0101
1000
,
0100
0000
0010
0100
1000
0000
0101
0000
,
1100
0010
1001
0100
,
0100
0000
0010
0100
0001
0000
1100
0000
,
0101
0000
1001
0000
0010
0001
0100
0010
,
1001
0000
1100
0000
0101
0000
0000
0010
,
0100
0000
0010
1000
0100
0000
0011
0000
,
1100
0010
1001
1000
,
0001
0000
0010
0001
0100
0000
1010
0000
,
0101
0010
1001
0001
,
0100
0000
0010
1000
0100
0000
0011
0000
,
1010
0100
1001
0100
,
0100
0000
1000
0100
1100
0000
0001
0100
,
0101
0000
0000
0000
0000
0000
0010
1000
,
0010
1000
0010
1000
0001
1000
0001
1000
,
0001
0010
0100
1000
0001
0000
0010
0100
,
0010
0100
0010
0100
0010
0001
0010
0001
,
0010
0001
1000
0001
0100
0000
0010
1000
,
0010
1000
0010
1000
0001
1000
0001
1000
,
0001
0010
0100
1000
0001
0000
0010
0001
,
0010
0001
0010
0001
1000
0010
1000
0010
,
1000
0010
0100
0001
0010
0000
1001
0000
,
0000
0000
0110
0000
0101
0000
0000
0010
,
0100
0000
0010
0100
1000
0000
0101
0000
,
1100
0010
1100
0001
,
0100
0000
0010
0100
0001
0000
1010
0000
,
1100
0010
0101
1000
,
0100
0000
0010
0100
1000
0000
0011
0000
,
0101
0010
1001
0110
,
0100
0000
0010
0100
0001
0000
1100
0000
,
0110
1001
0110
0110
,
0001
0000
1100
0000
0101
0000
0000
0010
,
0100
0000
0010
1000
0100
0000
0011
0000
,
1100
0001
0101
1000
,
0001
0000
0010
0001
0100
0000
1010
0000
,
0101
0010
1001
0001
,
0100
0000
0010
1000
0100
0000
0011
0000
,
1100
0010
1001
0110
,
1001
0000
0010
0100
1001
0000
0010
0100
,
1001
1010
0101
0011
,
1100
0000
0000
0000
0000
0000
0100
0000
0001
0000
0000
0010
0000
0000
1001
0000
,
0110
0000
0000
0000
;

//---------------dance-single - ----------------
#NOTES:
     dance-single:
     :
     Challenge:
     13:
     :
0000
0000
0000
0000
,
0000
0000
0000
0000
,
0000
0000
0000
0000
,
0000
0000
0000
0000
,
0010
0001
0010
0001
0000
1000
0000
1000
0000
0010
0000
1000
0001
0000
0100
0000
,
1001
0000
0000
0010
0000
0010
0000
0110
,
1001
0000
0000
0010
0000
0010
0000
0110
,
1001
0000
0010
0100
1010
0000
0001
1000
,
0101
1100
0101
1100
,
0001
0001
1000
1000
0010
0010
0100
0100
,
0001
0001
1000
1000
0010
0010
0100
0100
,
0001
0000
0001
0000
1000
0000
1000
0000
0010
0100
0010
0100
0010
0100
0010
0100
,
0010
0000
0000
0000
1010
0000
0000
0000
0101
0000
1000
0001
0000
0000
0100
0000
,
0010
0000
0000
0000
1000
0000
0100
0000
0020
0000
0000
0000
0031
0000
0000
0100
,
0010
0000
1000
0100
0010
0001
0100
0010
,
1000
0000
0000
0000
0001
0000
1000
0000
0200
0000
0000
0000
1300
0000
0000
0001
,
0010
0000
0001
1000
0010
1000
0100
0010
,
0001
0000
0000
0000
0010
0000
0001
0000
2000
0000
0000
0000
3010
0000
0000
0100
,
0001
0000
0010
0001
0100
0010
1000
0001
,
1000
0000
0000
0000
0100
0000
0010
0000
0002
0000
0000
0000
1003
0000
0000
0010
,
0100
0000
0000
0000
0110
0000
0000
0000
1000
0010
0000
0010
0100
0000
0001
1000
,
0001
0000
0000
0000
0011
0000
0000
0000
1100
0000
0010
0100
0000
0000
0001
0000
,
1000
0000
0000
0000
0010
0000
1000
0000
0200
0000
0010
0000
0310
0000
0000
0001
,
1000
0000
0001
0100
1000
0100
0001
0010
,
0100
0000
0000
0000
1000
0000
0001
0000
0020
0000
0100
0000
0130
0000
0000
1000
,
0001
0000
1000
0010
0100
1000
0100
0001
,
0010
0000
0000
0000
0001
0000
0100
0000
2000
0000
0010
0000
3010
0000
0000
1000
,
0001
0000
0010
0001
1000
0001
0010
0100
,
1000
0000
0000
0000
0100
0000
1000
0000
0002
0000
0010
0000
0013
0000
0000
0002
,
2000
0000
0000
0000
0000
0000
0000
0000
3003
0000
0010
1000
0010
0000
0100
0000
,
0001
0010
0001
0000
1000
0000
0001
0000
0100
0000
0100
0000
0000
0000
0010
0000
,
1000
0100
0001
0100
1000
0010
0100
0001
,
1000
0100
1000
0000
0001
0000
1000
0000
0010
0000
0010
0000
0000
0000
0100
0000
,
0001
0010
1000
0010
0001
0010
1000
0010
,
0100
1000
0100
0000
0010
0000
0001
0000
1000
0000
1000
0000
0000
0000
0001
0000
,
0100
1000
0100
0001
0100
1000
0100
0001
,
0010
0100
0010
0000
0001
0000
0100
0000
1000
0000
1000
0000
0000
0000
0001
0000
,
1000
0000
0010
0000
0001
0000
0010
0000
1000
0000
0010
0000
0100
0001
0100
0001
,
0100
0000
0000
0000
0110
0000
0000
0000
1001
0000
0010
1000
0000
0000
0001
0000
,
0010
0000
0000
0000
0001
0000
0100
0000
2000
0000
0000
0000
3001
0100
0000
0100
,
0010
0000
1000
0100
0001
0010
0001
0100
,
1000
0000
0000
0000
0010
0000
1000
0000
0200
0000
0000
0000
0310
0001
0000
0001
,
1000
0000
0010
0100
0010
1000
0001
1000
,
0100
0000
0000
0000
0010
0000
0001
0000
2000
0000
0000
0000
3001
0010
0000
0010
,
0100
0000
1000
0010
0001
1000
0100
0001
,
0010
0000
0000
0000
0100
0000
1000
0000
0002
0000
0000
0000
0013
0001
0000
0001
,
1000
0000
0000
0000
0101
0000
0000
0000
0001
0010
0000
0010
0100
0000
1000
0001
,
1000
0000
0000
0000
0000
0000
0000
0000
0000
0000
0000
0000
1010
0000
0000
0000
0000
0000
0000
0000
0000
0000
0000
0000
0011
0000
0000
0000
0000
0000
0001
0000
0000
0010
0000
0000
0001
0000
0000
0000
1000
0000
0000
0000
0001
0000
0000
0000
,
1000
0000
0000
0000
0010
0000
1000
0000
0002
0000
0000
0000
0103
0010
1000
0010
,
1000
0000
0000
0000
0001
0000
0100
0000
1000
0000
0100
0000
0010
1000
0010
0000
,
0100
0000
0000
0000
0001
0000
0010
0000
0002
0000
0000
0000
1003
0010
0100
0010
,
0100
0000
0000
0000
0001
0000
0010
0000
1000
0000
0010
0000
0001
0100
0001
0000
,
1000
0000
0000
0000
0010
0000
1000
0000
0200
0000
0000
0000
0310
0001
1000
0001
,
1000
0000
0000
0000
0010
0000
1000
0000
0001
0000
0010
0000
0100
1000
0100
0000
,
0010
0000
0000
0000
0001
0000
0100
0000
2000
0000
0000
0000
3010
0100
0001
0100
,
0001
0000
0000
0000
0011
0000
0000
0000
1100
0000
0000
0000
0010
0100
0010
0100
,
0010
0000
0000
0110
0000
0000
1010
0000
0101
0000
0000
0011
0000
0000
1100
0000
,
1001
0000
0000
0000
;

//---------------dance-double - ----------------
#NOTES:
     dance-double:
     :
     Easy:
     6:
     :
00000000
00000000
00000000
00000000
,
00000000
00000000
00000000
00000000
,
00000000
00000000
00000000
00000000
,
00000000
00000000
00000000
00000000
,
00000000
00000000
00000000
00000000
,
00010100
00000000
00000000
00000000
,
00101000
00000000
00000000
00000000
,
00011000
00000000
00011000
00000000
,
00001000
00001000
00010000
00010000
,
00000010
00000010
00000010
00000010
,
00000100
00000100
00000100
00000100
,
00000001
00000001
00001000
00001000
,
00001010
00000101
00001010
00000000
,
00000001
00000100
00001000
00000010
,
00001000
00000100
00000100
00000100
,
00010000
00001000
01000000
00100000
,
01000000
00010000
00010000
00010000
,
00100000
00010000
01000000
10000000
,
00100000
01000000
01000000
01000000
,
00010000
00100000
00010000
01000000
,
20200000
00000000
00000000
30300000
,
11000000
00110000
11000000
00000000
,
00010000
00100000
00001000
00010000
,
00000100
00000010
00000010
00000001
,
00000001
00000100
00000001
00000010
,
00000100
00010000
00010000
00001000
,
00001000
00010000
00000010
00000100
,
00000001
00001000
00001000
01000000
,
01000000
10000000
00100000
01000000
,
02002000
00000000
03003000
00100000
,
10010000
00000000
01100000
00000000
,
10000000
01000000
00010000
01000000
,
10010000
00000000
01100000
00000000
,
10000000
00100000
00010000
00000100
,
00001001
00000000
00000110
00000000
,
00000001
00000010
00001000
00000010
,
00001001
00000000
00000110
00000000
,
00000010
00001000
00000100
00000000
,
00000011
00001100
00000011
00000000
,
00001000
00000010
00000100
00000001
,
00000010
00000100
00000100
00010000
,
00010000
00001000
00100000
01000000
,
10000000
00010000
00010000
10000000
,
10000000
00100000
10000000
01000000
,
00010000
00100000
00100000
00001000
,
00001000
01000000
00100000
10000000
,
02020000
00000000
00000000
03030000
,
10010000
01100000
10010000
00000000
,
00010000
01000000
00001000
00010000
,
00001000
00000020
00000230
00000320
,
00000130
00001000
00000001
00000100
,
00000010
00020000
00032000
00023000
,
00030010
00000100
00000010
00001000
,
00000100
00002000
00003002
00002003
,
01003000
00100000
00001000
00010000
,
00022000
00000000
00000000
00033000
,
01100000
00000000
11000000
01010000
,
10010000
00000000
00000000
00000000
;

//---------------dance-double - ----------------
#NOTES:
     dance-double:
     :
     Medium:
     8:
     :
00000000
00000000
00000000
00000000
,
00000000
00000000
00000000
00000000
,
00000000
00000000
00000000
00000000
,
00000000
00000000
00000000
00000000
,
00000000
00000000
00000000
00000000
,
00000101
00000000
00000000
00000000
00000000
00000000
00000000
00001000
,
00000001
00000000
00000000
00000000
00000000
00000000
00000000
00001000
,
00000001
00000000
00011000
00000000
,
00100000
00100000
01000000
01000000
,
10000000
10000000
10000000
10000000
,
00010000
00010000
00010000
00010000
,
10000000
01000000
00100000
00000000
00010000
01000000
00100000
00000000
,
10100000
00000000
01010000
00000000
00110000
00000000
00000000
00001000
,
00010000
00000000
00000010
00001000
00000100
00000000
00001000
00000000
,
00000001
00000020
00000032
00002003
,
00003010
00000000
00001000
00000100
00010000
00000000
00000010
00000000
,
00000100
00000002
00000023
00000230
,
00010300
00000000
00001000
00100000
01000000
00000000
10000000
00000000
,
00100000
20000000
30020000
00230000
,
00301000
00000000
00010000
00001000
01000000
00000000
00100000
00000000
,
20100000
01000000
00100000
31000000
,
10010000
00000000
01010000
00000000
00101000
00000000
00000000
00010000
,
00001000
00000000
00000100
00000001
00000010
00000000
00000001
00000000
,
00000100
00000020
00002030
00003002
,
00000013
00000000
00000001
00001000
00000100
00000000
00010000
00000000
,
00100000
20000000
30020000
00230000
,
01300000
00000000
00100000
00001000
00010000
00000000
00000010
00000000
,
00000100
00000002
00002003
00003200
,
00000310
00000000
00000001
00000100
00001000
00000000
00000010
00000000
,
00020020
00000000
00000000
00000000
00030030
00000000
00000001
00000100
,
00001000
00000000
00000000
00000000
00010000
00001000
00000000
00000000
,
01010000
00000000
11000000
00000000
01010000
00000000
10000000
01000000
,
00010000
00000000
00000000
00000000
00001000
00010000
00000000
00000000
,
00001100
00000000
00000101
00000000
00001100
00000000
00000001
00000100
,
00001000
00000000
00000000
00000000
00010000
00001000
00000000
00000000
,
01010000
00000000
11000000
00000000
01010000
00000000
10000000
01000000
,
00010000
00000000
00000000
00000000
00001000
00010000
00000000
00000000
,
00000101
00001100
00000101
00000000
,
00000011
00000000
00000110
00000000
00001100
00000000
00000000
00000010
,
00001000
00000000
00000100
00001000
00020000
00000000
02030000
00000000
,
13000000
00200000
02300000
03020000
,
00130000
00000000
00010000
10000000
02000000
00000000
23000000
00000000
,
30100000
02000000
03002000
00023000
,
00030100
00000000
00000010
00000001
00002000
00000000
00003020
00000000
,
00000130
00000002
00000023
00000032
,
00001003
00000000
00000010
00010000
00002000
00000000
01003000
00000000
,
01020000
00100000
01000000
00130000
,
00110000
00000000
01010000
00000000
10100000
00000000
00000000
10000000
,
01000000
00000000
10000000
00100000
02000000
00000000
03020000
00000000
,
00130000
00002000
00023000
00030020
,
00000130
00000000
00000010
00001000
00000002
00000000
00000023
00000000
,
00001030
00000020
00000230
00020300
,
00031000
00000000
00010000
00000010
00000200
00000000
00000320
00000000
,
00001030
00000200
00020300
00032000
,
01003000
00000000
00100000
10000000
00020000
00000000
00130000
00000000
,
00210000
10000000
00010000
10300000
,
01100000
00000000
00000000
00001000
00010000
00000000
00000010
00000000
,
00001001
00000000
00000000
00000000
;

//---------------dance-double - ----------------
#NOTES:
     dance-double:
     :
     Hard:
     11:
     :
00000000
00000000
00000000
00000000
,
00000000
00000000
00000000
00000000
,
00000000
00000000
00000000
00000000
,
00000000
00000000
00000000
00000000
,
00010000
00100000
10000000
00010000
01000000
00100000
10000000
00000000
,
01001000
00000000
00000000
00000000
00000000
00000000
00000000
00010000
,
00010010
00000000
00000000
00000000
00000000
00000000
00000000
00000100
,
00000101
00000000
00001100
00000000
,
00000011
00001001
00001010
00001001
,
00000001
00000100
00000001
00000000
00001000
00000100
00001000
00000000
,
00010000
01000000
00010000
00000000
00001000
01000000
00001000
00000000
,
01000000
00100000
01000000
00100000
10000000
00010000
10000000
00010000
,
00110000
00000000
01100000
00000000
22000000
00000000
33000000
00010000
,
10000000
00000000
00000000
00000000
00100000
00000000
10000000
00000000
02000000
00000000
00000000
00000000
03100000
00000000
00000000
00001000
,
00010000
00000020
00002030
00003100
,
00001100
00000000
00000000
00000000
00000010
00000000
00000001
00000000
00002000
00000000
00000000
00000000
00003010
00000000
00000000
00000100
,
00000001
00002000
00003200
00000310
,
00000110
00000000
00000000
00000000
00000001
00000000
00000100
00000000
00000020
00000000
00000000
00000000
00010030
00000000
00000000
00001000
,
01000000
00200000
02300000
03001000
,
00101000
00000000
00000000
00000000
00001000
00000000
00010000
00000000
02000000
00000000
00000000
00000000
13000000
00000000
00000000
00100000
,
01000000
00000000
00000000
00000000
00010000
00000000
00000000
00000000
10000000
00000000
00000000
10000000
00010000
00000000
10000000
00000000
,
11000000
00000000
01100000
00000000
00220000
00000000
00330000
00001000
,
00010000
00000000
00000000
00000000
00000010
00000000
00001000
00000000
00000002
00000000
00000000
00000000
00000013
00000000
00000000
00000001
,
00000100
00001010
00001100
00011000
,
00010100
00000000
00000000
00000000
00001000
00000000
00000100
00000000
00020000
00000000
00000000
00000000
00031000
00000000
00000000
00100000
,
01000000
11000000
10010000
01100000
,
01001000
00000000
00000000
00000000
00010000
00000000
00001000
00000000
00200000
00000000
00000000
00000000
00310000
00000000
00000000
01000000
,
00100000
01100000
01010000
00101000
,
00010010
00000000
00000000
00000000
00000001
00000000
00000100
00000000
00000020
00000000
00000000
00000000
00001030
00000000
00000000
00000001
,
00000200
00000000
00000000
00000000
00000000
00000010
00000310
00001000
,
00000110
00000000
00000000
00000001
00000100
00001000
00000000
00000001
,
00000100
00001000
00000100
00000010
00000100
00001000
00000100
00000001
,
00000110
00000000
00000000
00001000
00000100
00010000
00000000
00001000
,
01000000
00100000
10000000
00010000
01000000
00100000
10000000
00010000
,
00110000
00000000
00000000
10000000
01000000
00010000
00000000
10000000
,
01000000
00010000
01000000
10000000
01000000
00010000
01000000
00100000
,
00110000
00000000
00000000
00001000
00010000
00000010
00000000
00001000
,
00000001
00000010
00000100
00001000
00000010
00000100
00000001
00000000
,
00001001
00000000
00000101
00000000
00022000
00000000
00033000
00000100
,
00010000
00000000
00000000
00000000
00001000
00000000
01000000
00000000
00200000
00000000
10000000
00000000
10300000
00000000
00000000
00010000
,
01000000
10100000
11000000
00110000
,
00010100
00000000
00000000
00000000
00001000
00000000
00000001
00000000
00000020
00000000
00000100
00000000
00000130
00000000
00000000
00001000
,
00000010
00000101
00000011
00001010
,
00000110
00000000
00000000
00000000
00000010
00000000
00001000
00000000
00020000
00000000
00100000
00000000
00130000
00000000
00000000
10000000
,
01000000
11000000
01001000
00110000
,
01100000
00000000
00000000
00000000
10000000
00000000
00100000
00000000
02000000
00000000
00001000
00000000
03001000
00000000
00000000
00010000
,
00000010
00000000
00000000
00000000
00000100
00000000
00000000
00000000
00000001
00000000
00000000
00000001
00000010
00000000
00000001
00000000
,
00001001
00000000
00001010
00000000
00002200
00000000
00003300
00010000
,
01000000
00000000
00000000
00000000
10000000
00000000
00100000
00000000
02000000
00000000
00010000
00000000
03010000
00000000
00000000
00100000
,
00001000
00000000
00010000
00001000
01000000
00001000
00010000
00001000
,
00000100
00000000
00000000
00000000
00000001
00000000
00000010
00000000
00000002
00000000
00001000
00000000
00001003
00000000
00000000
00000010
,
00000100
00000000
00000010
00010000
00000010
00001000
00000010
00010000
,
00000100
00000000
00000000
00000000
00001000
00000000
00000001
00000000
00002000
00000000
01000000
00000000
01003000
00000000
00000000
00100000
,
00010000
00000000
01000000
00001000
00010000
00001000
01000000
00100000
,
10000000
00000000
00000000
00000000
00010000
00000000
10000000
00000000
02000000
00000000
00100000
00000000
03100000
00000000
00000000
00010000
,
01000000
01010000
11000000
01010000
,
00110000
00000000
00000000
00010000
00000000
00000000
00000100
00000000
00000010
00000000
00000000
00000010
00000000
00000000
00000010
00000000
,
00001001
00000000
00000000
00000000
;

//---------------dance-double - ----------------
#NOTES:
     dance-double:
     :
     Challenge:
     13:
     :
00000000
00000000
00000000
00000000
,
00000000
00000000
00000000
00000000
,
00000000
00000000
00000000
00000000
,
00000000
00000000
00000000
00000000
,
00000010
00001000
00000010
00001000
00000000
00000001
00000000
00000001
00000000
00001000
00000000
00000010
00000100
00000000
00000001
00000000
,
00001001
00000000
00000000
00010000
00000000
00001000
00000000
01100000
,
10010000
00000000
00000000
00001000
00000000
00010000
00000000
00000110
,
00001001
00000000
00000000
00010000
00011000
00000000
00000000
01000000
,
01010000
11000000
01010000
11000000
,
00100000
00100000
10000000
10000000
01000000
01000000
00010000
00010000
,
00001000
00001000
00000100
00000100
00000001
00000001
00000010
00000010
,
00010000
00000000
00010000
00000000
00001000
00000000
00001000
00000000
00010000
00001000
00010000
00001000
00010000
00001000
00010000
00001000
,
00010000
00000000
00000000
00000000
00010100
00000000
00000000
00000000
00110000
00000000
10000000
00100000
00000000
00000000
01000000
00000000
,
00002000
00000000
00000000
00000000
00003010
00000000
00000100
00000000
00001000
00000000
00000001
00000000
00000100
00000010
00000000
00001000
,
00000010
00000000
00000100
00000001
00000010
00000100
00001000
00010000
,
02000000
00000000
00000000
00000000
13000000
00000000
00100000
00000000
10000000
00000000
00010000
00000000
00100000
01000000
00000000
10000000
,
00010000
00000000
01000000
00100000
01000000
00001000
00010000
01000000
,
00200000
00000000
00000000
00000000
00301000
00000000
00010000
00000000
00000010
00000000
00000100
00000000
00000001
00000010
00000000
00000001
,
00001000
00000000
00000100
00000010
00000100
00001000
00000001
00000010
,
00000002
00000000
00000000
00000000
00000013
00000000
00000100
00000000
00001000
00000000
00000010
00000000
00000100
00000001
00000000
00000001
,
00001000
00000000
00000000
00000000
00011000
00000000
00000000
00000000
00010000
00001000
00000000
00001000
01000000
00000000
00100000
10000000
,
00100000
00000000
00000000
00000000
01010000
00000000
00000000
00000000
11000000
00000000
10000000
00010000
00000000
00000000
01000000
00000000
,
00200000
00000000
00000000
00000000
01300000
00000000
00001000
00000000
00010000
00000000
00000010
00000000
00000100
00000001
00000000
00001000
,
00000010
00000000
00000100
00000010
00001000
00000001
00000010
00000100
,
00002000
00000000
00000000
00000000
01003000
00000000
00100000
00000000
00001000
00000000
01000000
00000000
00010000
10000000
00000000
01000000
,
10000000
00000000
00100000
10000000
01000000
00100000
00010000
01000000
,
00002000
00000000
00000000
00000000
00013000
00000000
00001000
00000000
00000010
00000000
00000001
00000000
00001000
00000100
00000000
00000100
,
00000010
00000000
00000001
00001000
00000100
00001000
00000010
00010000
,
02000000
00000000
00000000
00000000
03100000
00000000
00001000
00000000
01000000
00000000
00100000
00000000
10000000
00010000
10000000
00020000
,
20000000
00000000
00000000
00000000
00000000
00000000
00000000
00000000
30030000
00000000
00100000
01000000
00100000
00000000
10000000
00000000
,
00010000
00100000
00010000
00000000
10000000
00000000
01000000
00000000
00100000
00000000
00100000
00000000
00000000
00000000
00001000
00000000
,
00010000
00010000
00000010
00000010
00000100
00000100
00000001
00000001
,
00000010
00000100
00000010
00000000
00000001
00000000
00001000
00000000
00000100
00000000
00000100
00000000
00000000
00000000
00010000
00000000
,
00001000
00001000
00100000
00100000
00010000
00010000
10000000
10000000
,
01000000
10000000
01000000
00000000
00100000
00000000
00001000
00000000
00010000
00000000
00010000
00000000
00000000
00000000
00000010
00000000
,
00010000
00010000
00001000
00001000
00000100
00000100
00000001
00000001
,
00000100
00001000
00000100
00000000
00000001
00000000
00001000
00000000
00100000
00000000
00100000
00000000
00000000
00000000
10000000
00000000
,
01000000
00000000
01000000
00000000
10000000
00000000
10000000
00000000
00010000
00000000
00010000
00000000
00100000
00001000
00100000
00001000
,
00100000
00000000
00000000
00000000
00101000
00000000
00000000
00000000
00010010
00000000
00000100
00000001
00000000
00000000
00001000
00000000
,
00000020
00000000
00000000
00000000
00001030
00000000
00000100
00000000
00000001
00000000
00000100
00000000
00010000
00001000
00010000
00001000
,
01000000
00000000
10000000
00010000
00100000
00010000
01000000
00100000
,
20000000
00000000
00000000
00000000
31000000
00000000
00100000
00000000
00010000
00000000
01000000
00000000
00100000
10000000
00100000
10000000
,
00010000
00000000
01000000
00001000
00010000
01000000
00010000
00001000
,
00000200
00000000
00000000
00000000
00000301
00000000
00000010
00000000
00000001
00000000
00001000
00000000
00000100
00000010
00000100
00000010
,
00000001
00000000
00001000
00000010
00000100
00010000
00000100
00000010
,
00002000
00000000
00000000
00000000
00003100
00000000
00010000
00000000
01000000
00000000
00100000
00000000
00010000
10000000
00010000
10000000
,
00010000
00000000
00000000
00000000
10100000
00000000
00000000
00000000
10000000
00100000
00000000
00100000
01000000
00000000
00010000
10000000
,
00010000
00000000
00000000
10010000
00000000
00000000
01100000
00000000
00000000
10000000
00010000
10000000
,
00020000
00000000
00000000
00000000
00130000
00000000
01000000
00000000
10000000
00000000
00100000
00000000
01000000
00010000
00100000
00010000
,
01000000
00000000
00000000
00000000
00001000
00000000
00010000
00000000
00001000
00000000
00000100
00000000
00000001
00000010
00000001
00000000
,
00000200
00000000
00000000
00000000
00001300
00000000
00000100
00000000
00000001
00000000
00000010
00000000
00000100
00010000
00001000
00010000
,
00000100
00000000
00000000
00000000
00001000
00000000
00000010
00000000
00000100
00000000
00000001
00000000
00000010
00000100
00000010
00000000
,
00000002
00000000
00000000
00000000
00001003
00000000
00000100
00000000
00010000
00000000
01000000
00000000
10000000
00010000
00100000
00010000
,
10000000
00000000
00000000
00000000
00100000
00000000
10000000
00000000
01000000
00000000
00010000
00000000
01000000
00100000
01000000
00000000
,
20000000
00000000
00000000
00000000
30100000
00000000
10000000
00000000
00010000
00000000
00100000
00000000
00001000
00010000
00000010
00000000
,
00001010
00000000
00000000
00000000
00000101
00000000
00000000
00000000
00001010
00000000
00000000
00000000
00000001
00000010
00000100
00001000
,
00000001
00000000
00000000
00000001
00000000
00000000
00000101
00000000
00001010
00000000
00000000
00001100
00000000
00000000
00000101
00000000
,
00001001
00000000
00000000
00000000
;

//---------------dance-solo - ----------------
#NOTES:
     dance-solo:
     :
     Easy:
     4:
     :
000000
000000
000000
000000
,
000000
000000
000000
000000
,
000000
000000
000000
000000
,
000000
000000
000000
000000
,
000000
000000
000000
000000
,
100001
000000
000000
000000
000000
000000
000000
100000
,
010000
000000
000000
000000
000000
000000
000000
000001
,
000010
000000
100000
000000
,
001000
000000
000001
000000
,
000100
001000
000001
100000
,
000010
000100
010000
000100
,
000010
000100
010000
000010
,
100001
000000
000100
000000
000100
000000
000000
000010
,
010000
000001
000100
100000
,
001000
000100
000001
000010
,
000010
100000
000001
001000
,
001000
000100
100000
010000
,
010000
000001
100000
001000
,
001000
000100
100000
001000
,
000001
000010
010000
001000
,
100000
100000
000001
000001
,
010010
000000
000100
000000
000100
000000
000000
000010
,
010000
000100
000001
000100
,
100000
000010
000010
100000
,
100000
010000
000001
100000
,
001000
010000
010000
000001
,
000001
000010
100000
000001
,
001000
000100
000100
010000
,
000010
100000
000001
010000
,
000010
000000
000000
000000
000000
000000
000100
100000
,
000100
000000
000001
000000
,
100000
000000
000001
000000
100000
000000
001000
000001
,
001000
000000
100000
000000
,
000010
000000
010000
000000
000010
000000
000100
000001
,
000100
000000
100000
000000
,
000001
000000
100000
000000
000001
000000
001000
100000
,
001000
000000
000001
000000
,
010000
000010
010000
010010
,
000000
000000
000100
000000
000100
000000
000000
000010
,
010000
100000
000100
000001
,
001000
000100
000010
000001
,
000001
010000
000001
001000
,
001000
000100
010000
100000
,
100000
000010
100000
001000
,
001000
000100
100000
001000
,
000001
010000
000010
001000
,
100000
100000
000001
000001
,
010010
000000
000100
000000
000100
000000
000000
000010
,
010000
000010
000001
010000
,
100000
000001
000001
001000
,
001000
000010
100000
000001
,
001000
100000
100000
000100
,
000100
010000
000001
100000
,
001000
000100
001000
000001
,
100000
000100
000001
010000
,
000010
010000
001000
001000
,
010010
000100
001100
001000
,
100001
000000
000000
000000
;

//---------------dance-solo - ----------------
#NOTES:
     dance-solo:
     :
     Medium:
     6:
     :
000000
000000
000000
000000
,
000000
000000
000000
000000
,
000000
000000
000000
000000
,
000000
000000
000000
000000
,
000000
000000
000000
000000
,
010010
000000
000000
000000
000000
000000
000000
000001
,
100000
000000
000000
000000
000000
000000
000000
000100
,
001000
000000
000010
000001
,
010000
100000
000100
100000
,
001000
000001
000100
100000
,
001000
000001
000100
100000
,
000001
010010
010100
000110
,
010010
000000
000100
000000
001000
000000
000000
000001
,
100000
000010
000001
010000
,
100000
000100
000010
100000
,
001000
000000
000100
000010
000001
000000
000001
000000
,
001000
000100
010000
000001
,
001000
000000
000100
010000
100000
000000
100000
000000
,
001000
000100
100000
001000
,
000001
000100
100000
001000
,
000001
100000
010100
000110
,
010010
000000
000100
000000
001000
000000
000000
000001
,
100000
000001
000010
100000
,
010000
000100
000100
010000
,
000010
000000
000100
000010
001000
000000
001000
000000
,
100000
000100
000100
000010
,
010000
000000
000100
010000
001000
000000
001000
000000
,
000001
001000
010000
000010
,
001000
000000
010000
000001
100000
000000
000010
100000
,
000001
000000
100001
000000
000000
000000
001000
100000
,
000001
000000
100001
000000
,
101000
000000
001001
000000
010010
000000
000100
000010
,
010000
000000
100001
000000
,
100100
000000
000101
000000
100001
000000
001000
100000
,
000001
000000
100001
000000
,
101000
000000
001001
000000
010010
000000
000100
010000
,
000010
000000
100001
000000
,
100100
000101
100001
001100
,
000000
000000
000100
000000
001000
000000
000000
000001
,
100000
000010
000001
010000
,
100000
000100
000010
100000
,
001000
000000
000100
000010
100000
000000
100000
000000
,
001000
000100
010000
000001
,
001000
000000
000100
010000
000001
000000
000001
000000
,
001000
000100
100000
001000
,
000001
000100
100000
001000
,
000001
100000
010100
000110
,
010010
000000
000100
000000
001000
000000
000000
000001
,
100000
000001
000010
100000
,
010000
000000
000100
010000
100000
000000
100000
000000
,
000001
000000
000100
000010
000001
000000
000001
000000
,
100000
000000
000100
010000
001000
000000
001000
000000
,
000010
000000
000100
000010
001000
000000
001000
000000
,
010000
001000
010000
000010
,
001000
000000
010000
000001
100000
000000
000010
100000
,
000001
100001
010100
000110
,
010010
000000
100001
000010
010000
000001
000000
100000
,
001000
000000
000000
000000
;

//---------------dance-solo - ----------------
#NOTES:
     dance-solo:
     :
     Hard:
     7:
     :
000000
000000
000000
000000
,
000000
000000
000000
000000
,
000000
000000
000000
000000
,
000000
000000
000000
000000
,
000100
000001
100000
001000
010000
000010
001000
000000
,
010010
000000
000000
000000
000000
000000
000000
000010
,
001000
000000
000000
000000
000000
000000
000000
010000
,
001000
000000
000110
000001
,
010100
100000
101000
001001
,
000100
100000
001000
000001
,
000100
100000
001000
000001
,
010000
100000
000010
000001
000100
100000
000100
000001
,
100001
000000
101000
000000
001001
000000
000000
000100
,
001000
000000
000100
010000
100000
000000
001001
000000
,
101000
000010
010001
100000
,
001000
000000
000100
000010
000001
000000
101000
000000
,
001001
010000
100010
000001
,
001000
000000
000100
010000
100000
000000
001001
000000
,
101000
000100
010010
001000
,
001000
000000
000100
000010
000001
000000
101000
000000
,
001001
000000
100001
000000
010000
000010
001000
000100
,
100001
000000
101000
000000
001001
000000
000000
000100
,
001000
000000
010000
100000
001000
000000
000101
000000
,
100100
001000
010010
100000
,
000010
000000
000010
000001
001000
000000
100100
000000
,
000101
001000
010010
000001
,
001000
000000
010000
100000
001000
000000
000101
000000
,
100100
001000
010010
001000
,
001000
000000
010000
001000
101000
000000
000010
001000
,
001001
000000
000000
000000
000000
000000
000100
100000
,
000100
100000
000100
100000
000010
010000
000010
010000
,
000001
000100
001000
100000
000001
000000
010000
100000
,
010000
100000
010000
100000
000010
000001
000010
000001
,
000100
000001
100000
000001
001000
000000
000100
000001
,
000100
000001
000100
000001
010000
000010
010000
000010
,
100000
000100
001000
000001
100000
000000
000010
000001
,
000010
000001
000010
000001
010000
100000
010000
100000
,
000100
100000
000001
100000
001000
000000
010010
000000
,
000000
000000
011000
000000
001010
000000
000000
000100
,
001000
000000
000100
010000
100000
000000
001010
000000
,
011000
010000
100010
000001
,
001000
000000
000100
000010
000001
000000
100100
000000
,
011000
000010
010001
100000
,
001000
000000
000100
010000
100000
000000
000101
000000
,
001010
000100
010010
001100
,
001000
000000
000100
000010
000001
000000
011000
000000
,
001010
000000
100001
000000
010100
000010
000110
010000
,
000010
000000
011000
000000
001010
000000
000000
000100
,
001000
000000
010000
100000
001000
000000
000101
000000
,
100100
001000
010010
100000
,
000010
000000
000010
000001
001000
000000
010100
000000
,
000101
001000
010010
000001
,
001000
000000
010000
100000
001000
000000
000110
000000
,
100100
001000
010010
001100
,
100001
000000
010000
001000
100001
000000
000010
001000
,
100001
100100
000101
001010
,
011000
000000
000100
001000
000010
010000
000000
100001
,
001100
000000
000000
000000
;
